<?xml version="1.0" standalone="no"?>
<!DOCTYPE svg PUBLIC "-//W3C//DTD SVG 1.1//EN" "http://www.w3.org/Graphics/SVG/1.1/DTD/svg11.dtd" >
<svg xmlns="http://www.w3.org/2000/svg" xmlns:xlink="http://www.w3.org/1999/xlink" version="1.1">
<metadata>
Created by FontForge 20170731 at Fri Jul 22 02:24:08 2016
 By Aleksey,,,
Copyright (c) 2016 by Radomir Tinkov. All rights reserved.
</metadata>
<defs>
<font id="Gilroy-Medium" horiz-adv-x="633" >
  <font-face 
    font-family="Gilroy"
    font-weight="500"
    font-stretch="normal"
    units-per-em="1000"
    panose-1="0 0 6 0 0 0 0 0 0 0"
    ascent="774"
    descent="-226"
    x-height="500"
    cap-height="700"
    bbox="-350 -248 1034 965"
    underline-thickness="50"
    underline-position="-200"
    unicode-range="U+0020-FB02"
  />
<missing-glyph horiz-adv-x="500" 
d="M93 800h317v-1000h-317v1000zM333 700v33h-165v-33h65v-37h-66v-33h166v33h-66v37h66zM267 534v70h-100v-104h166v34h-66zM200 570h33v-36h-33v36zM333 440v33h-166v-33h66v-37h-66v-33h100v70h66zM333 313v100h-33v-66h-133v-34h166zM333 178v113h-100v-56h34v23h33v-47
h-100v80h-33v-113h166zM333 5v113h-166v-113h166zM200 85h100v-47h-100v47zM333 -51v33h-166v-33h70l-70 -47v-33h166v33h-102l70 47h32z" />
    <glyph glyph-name="fi" unicode="fi" horiz-adv-x="530" 
d="M191 500h272v-500h-87v416h-185v-416h-87v416h-80v84h80v15q0 198 219 198q44 0 103 -13v-79q-66 8 -103 8q-69 0 -100.5 -26t-31.5 -88v-15z" />
    <glyph glyph-name="fl" unicode="fl" horiz-adv-x="530" 
d="M323 713q61 0 140 -15v-698h-87v633q-48 2 -53 2q-68 0 -100 -28.5t-32 -91.5v-15h104v-84h-104v-416h-87v416h-80v84h80v15q0 198 219 198z" />
    <glyph glyph-name="f_f" unicode="ff" horiz-adv-x="595" 
d="M595 723v-84q-131 11 -131 -114v-25h131v-84h-131v-416h-87v416h-186v-416h-87v416h-80v84h80v15q0 102 57 153.5t162 44.5v-84q-132 11 -132 -114v-15h186v25q0 102 56.5 153.5t161.5 44.5z" />
    <glyph glyph-name="f_f_i" unicode="ffi" horiz-adv-x="802" 
d="M464 500h272v-500h-87v416h-185v-416h-87v416h-186v-416h-87v416h-80v84h80v15q0 102 57 153.5t162 44.5v-84q-132 11 -132 -114v-15h186v25q0 198 218 198q45 0 103 -13v-79q-62 8 -103 8q-69 0 -100 -26t-31 -88v-25z" />
    <glyph glyph-name="f_f_l" unicode="ffl" horiz-adv-x="802" 
d="M595 723q61 0 141 -15v-708h-87v643q-48 2 -54 2q-67 0 -99 -28.5t-32 -91.5v-25h104v-84h-104v-416h-87v416h-186v-416h-87v416h-80v84h80v15q0 102 57 153.5t162 44.5v-84q-132 11 -132 -114v-15h186v25q0 198 218 198z" />
    <glyph glyph-name=".notdef" horiz-adv-x="500" 
d="M93 800h317v-1000h-317v1000zM333 700v33h-165v-33h65v-37h-66v-33h166v33h-66v37h66zM267 534v70h-100v-104h166v34h-66zM200 570h33v-36h-33v36zM333 440v33h-166v-33h66v-37h-66v-33h100v70h66zM333 313v100h-33v-66h-133v-34h166zM333 178v113h-100v-56h34v23h33v-47
h-100v80h-33v-113h166zM333 5v113h-166v-113h166zM200 85h100v-47h-100v47zM333 -51v33h-166v-33h70l-70 -47v-33h166v33h-102l70 47h32z" />
    <glyph glyph-name=".null" horiz-adv-x="0" 
 />
    <glyph glyph-name="nonmarkingreturn" horiz-adv-x="333" 
 />
    <glyph glyph-name="space" unicode=" " horiz-adv-x="250" 
 />
    <glyph glyph-name="exclam" unicode="!" horiz-adv-x="243" 
d="M155 205h-67l-19 295v200h105v-200zM121 -11q-27 0 -46 19t-19 46t19 46t46 19q28 0 46.5 -19t18.5 -46t-18.5 -46t-46.5 -19z" />
    <glyph glyph-name="quotedbl" unicode="&#x22;" horiz-adv-x="333" 
d="M123 490h-63l-12 210h87zM273 490h-63l-12 210h87z" />
    <glyph glyph-name="numbersign" unicode="#" horiz-adv-x="605" 
d="M577 478l-12 -73h-116l-18 -110h117l-12 -72h-117l-29 -173h-76l29 173h-122l-29 -173h-77l29 173h-116l12 72h116l18 110h-117l12 73h117l29 172h77l-29 -172h122l29 172h76l-29 -172h116zM233 295h122l18 110h-122z" />
    <glyph glyph-name="dollar" unicode="$" horiz-adv-x="550" 
d="M515 187q0 -83 -54 -135t-140 -63v-89h-63v88q-81 6 -139 45t-84 105l80 46q35 -93 143 -105v242q-82 29 -130 66q-59 46 -59 134q0 81 54 132q55 52 135 59v88h63v-89q127 -17 180 -134l-78 -44q-29 73 -102 87v-230q45 -16 73 -30q30 -15 59 -37q62 -45 62 -136z
M161 521q0 -37 22.5 -61.5t74.5 -45.5v207q-45 -6 -71 -32.5t-26 -67.5zM321 298v-217q47 7 74 35t27 70q0 40 -23.5 64.5t-77.5 47.5z" />
    <glyph glyph-name="percent" unicode="%" horiz-adv-x="728" 
d="M213 403q-68 0 -113 45t-45 110q0 64 45 109q46 46 113 46q68 0 113 -45t45 -110t-45 -110q-44 -45 -113 -45zM133 558q0 -35 22.5 -58.5t57.5 -23.5t57.5 24t22.5 58t-22.5 57.5t-57.5 23.5t-57.5 -23.5t-22.5 -57.5zM150 71l-48 28l465 520l49 -27zM628 33
q-45 -45 -113 -45t-113 45t-45 110t45 110t113 45t113 -45t45 -110t-45 -110zM457 85q23 -23 58 -23q34 0 57 23q23 24 23 58t-23 57q-22 24 -57 24t-58 -24q-22 -23 -22 -57t22 -58z" />
    <glyph glyph-name="ampersand" unicode="&#x26;" horiz-adv-x="662" 
d="M546 128l93 -99l-78 -45l-71 76q-77 -73 -200 -73q-106 0 -170 54q-65 56 -65 148q0 65 33 118.5t95 83.5q-45 57 -45 127q0 87 60 141q62 54 146 54q70 0 127 -38.5t82 -104.5l-78 -45q-15 46 -49.5 72t-79.5 26q-49 0 -82 -29.5t-33 -74.5q0 -31 14.5 -57t47.5 -62
l191 -204q26 53 36 127l80 -46q-14 -83 -54 -149zM292 75q83 0 138 49l-189 203q-46 -19 -69.5 -54.5t-23.5 -77.5q0 -56 38 -88t106 -32z" />
    <glyph glyph-name="quotesingle" unicode="'" horiz-adv-x="183" 
d="M123 490h-63l-12 210h87z" />
    <glyph glyph-name="parenleft" unicode="(" horiz-adv-x="280" 
d="M255 -100h-87q-110 220 -110 450t110 450h87q-110 -220 -110 -450t110 -450z" />
    <glyph glyph-name="parenright" unicode=")" horiz-adv-x="280" 
d="M112 -100h-87q110 220 110 450t-110 450h87q110 -220 110 -450t-110 -450z" />
    <glyph glyph-name="asterisk" unicode="*" horiz-adv-x="394" 
d="M246 605l91 5v-64l-91 4l53 -73l-57 -34l-45 82l-45 -82l-56 34l52 73l-90 -4v64l90 -5l-52 74l56 34l45 -82l45 82l57 -34z" />
    <glyph glyph-name="plus" unicode="+" horiz-adv-x="545" 
d="M314 392h174v-83h-174v-174h-83v174h-173v83h173v173h83v-173z" />
    <glyph glyph-name="comma" unicode="," horiz-adv-x="253" 
d="M96 103h100l-65 -243h-75z" />
    <glyph glyph-name="hyphen" unicode="-" horiz-adv-x="515" 
d="M440 265h-365v84h365v-84z" />
    <glyph glyph-name="period" unicode="." horiz-adv-x="243" 
d="M121 -11q-27 0 -46 19t-19 46t19 46t46 19q28 0 46.5 -19t18.5 -46t-18.5 -46t-46.5 -19z" />
    <glyph glyph-name="slash" unicode="/" horiz-adv-x="528" 
d="M490 800l-400 -900h-52l400 900h52z" />
    <glyph glyph-name="zero" unicode="0" horiz-adv-x="630" 
d="M514 86q-70 -99 -199 -99t-199 99q-71 100 -71 264t71 264q70 99 199 99t199 -99q71 -100 71 -264t-71 -264zM138 350q0 -130 46 -201t131 -71t131.5 71t46.5 201t-46.5 201.5t-131.5 71.5t-131 -71t-46 -202z" />
    <glyph glyph-name="one" unicode="1" horiz-adv-x="356" 
d="M14 636l184 64h80v-700h-92v600l-149 -44z" />
    <glyph glyph-name="two" unicode="2" horiz-adv-x="527" 
d="M488 0h-452v76l247 252q99 99 99 170q0 58 -35.5 91.5t-88.5 33.5q-99 0 -144 -94l-78 46q32 67 90 102.5t131 35.5q89 0 153 -58q65 -59 65 -156q0 -106 -125 -231l-179 -178h317v-90z" />
    <glyph glyph-name="three" unicode="3" horiz-adv-x="535" 
d="M468 618l-152 -205q82 -15 132 -70t50 -136q0 -103 -70 -161q-71 -59 -170 -59q-82 0 -143 37t-87 105l78 46q31 -97 152 -97q66 0 106.5 34.5t40.5 94.5t-40.5 95t-106.5 35h-24l-37 57l162 219h-311v87h420v-82z" />
    <glyph glyph-name="four" unicode="4" horiz-adv-x="580" 
d="M474 220h85v-87h-85v-133h-93v133h-357v87l251 480h100l-251 -480h257v198h93v-198z" />
    <glyph glyph-name="five" unicode="5" horiz-adv-x="543" 
d="M168 427h102q99 0 167 -59q69 -59 69 -161q0 -103 -70 -161q-71 -59 -170 -59q-82 0 -144.5 39.5t-86.5 110.5l79 45q14 -50 54 -77t98 -27q67 0 107.5 34.5t40.5 94.5t-40.5 95t-105.5 35h-198l26 363h383v-87h-299z" />
    <glyph glyph-name="six" unicode="6" horiz-adv-x="538" 
d="M269 458q105 0 173 -66q68 -65 68 -169t-68 -170t-173 -66q-107 0 -174 66t-67 170q0 82 42 140l225 337h106l-165 -244q30 2 33 2zM269 369q-67 0 -108 -40t-41 -106t41.5 -106.5t107.5 -40.5t107.5 40.5t41.5 106.5t-41.5 106t-107.5 40z" />
    <glyph glyph-name="seven" unicode="7" horiz-adv-x="490" 
d="M18 612v88h437v-83l-255 -617h-97l253 612h-338z" />
    <glyph glyph-name="eight" unicode="8" horiz-adv-x="555" 
d="M408 362q109 -56 109 -170q0 -96 -67 -151q-68 -54 -173 -54t-172 54q-67 55 -67 151q0 114 109 170q-86 54 -86 153q0 95 63 146q64 52 153 52q91 0 153 -52q64 -51 64 -146q0 -99 -86 -153zM277 624q-55 0 -89.5 -29t-34.5 -82q0 -52 35 -82t89 -30t89 30t35 82
q0 53 -34 82t-90 29zM277 76q68 0 108 32t40 90q0 57 -40 89t-108 32q-67 0 -107 -32t-40 -89q0 -58 40 -90t107 -32z" />
    <glyph glyph-name="nine" unicode="9" horiz-adv-x="538" 
d="M510 478q0 -82 -43 -141h1l-226 -337h-105l166 245q-30 -2 -34 -2q-106 0 -174 65q-67 66 -67 170q0 105 67 169q67 66 174 66q105 0 173 -66q68 -65 68 -169zM269 624q-66 0 -107.5 -40t-41.5 -106t41.5 -106.5t107.5 -40.5t107.5 40.5t41.5 106.5t-41 106t-108 40z" />
    <glyph glyph-name="colon" unicode=":" horiz-adv-x="243" 
d="M121 382q-27 0 -46 19t-19 46t19 46t46 19q28 0 46.5 -19t18.5 -46t-18.5 -46t-46.5 -19zM121 -11q-27 0 -46 19t-19 46t19 46t46 19q28 0 46.5 -19t18.5 -46t-18.5 -46t-46.5 -19z" />
    <glyph glyph-name="semicolon" unicode=";" horiz-adv-x="256" 
d="M135 382q-27 0 -46 19t-19 46t19 46t46 19q28 0 46.5 -19t18.5 -46t-18.5 -46t-46.5 -19zM96 103h100l-65 -243h-75z" />
    <glyph glyph-name="less" unicode="&#x3c;" horiz-adv-x="523" 
d="M55 393l413 180v-94l-314 -129l314 -128v-94l-413 180v85z" />
    <glyph glyph-name="equal" unicode="=" horiz-adv-x="535" 
d="M480 410h-425v83h425v-83zM480 207h-425v83h425v-83z" />
    <glyph glyph-name="greater" unicode="&#x3e;" horiz-adv-x="523" 
d="M55 479v94l413 -180v-85l-413 -180v94l314 128z" />
    <glyph glyph-name="question" unicode="?" horiz-adv-x="539" 
d="M298 205h-93q0 82 65 147q6 6 38.5 36.5t43 43t24 38.5t13.5 50q0 49 -34 76t-90 27q-110 0 -141 -97l-79 44q24 68 83.5 105.5t137.5 37.5q88 0 152 -50q64 -49 64 -139q0 -78 -65 -143q-5 -5 -31 -29.5t-35 -35t-25 -31.5t-22 -40t-6 -40zM251 -11q-27 0 -46 19t-19 46
t19 46t46 19q28 0 46.5 -19t18.5 -46t-18.5 -46t-46.5 -19z" />
    <glyph glyph-name="at" unicode="@" horiz-adv-x="789" 
d="M402 612q106 0 188 -52q80 -50 121 -126.5t41 -163.5q0 -104 -44 -160q-44 -54 -105 -54q-95 0 -119 84q-40 -51 -107 -51q-68 0 -113 46q-44 47 -44 115t44 115q45 46 113 46q60 0 101 -44v36h77v-221q0 -88 63 -88q46 0 73.5 45t27.5 131q0 132 -92 222q-91 90 -225 90
q-138 0 -235 -96q-97 -94 -97 -236q0 -144 99 -238q100 -94 251 -94q101 0 170 28v-32q-72 -26 -170 -26q-164 0 -273 103q-109 102 -109 259q0 150 104 256q105 106 260 106zM324 185q27 -24 65 -24t63 24q26 26 26 65q0 40 -26 64q-25 25 -63 25t-65 -25q-26 -24 -26 -64
q0 -39 26 -65z" />
    <glyph glyph-name="A" unicode="A" horiz-adv-x="643" 
d="M635 0h-99l-57 157h-315l-57 -157h-99l261 700h105zM321 589l-125 -345h251z" />
    <glyph glyph-name="B" unicode="B" horiz-adv-x="615" 
d="M475 363q49 -24 77 -67t28 -98q0 -84 -59 -141t-144 -57h-302v700h280q83 0 139 -55q57 -55 57 -136q0 -94 -76 -146zM355 613h-187v-214h187q44 0 74 31t30 76q0 44 -31 75q-30 32 -73 32zM168 87h209q47 0 79 33t32 81q0 47 -33 80q-31 33 -78 33h-209v-227z" />
    <glyph glyph-name="C" unicode="C" horiz-adv-x="739" 
d="M404 -13q-160 0 -263 105q-103 104 -103 258t103 258q103 105 263 105q95 0 176 -46t126 -124l-81 -47q-30 58 -89.5 92.5t-131.5 34.5q-122 0 -198 -78q-76 -77 -76 -195q0 -117 76 -194q76 -78 198 -78q72 0 131.5 34.5t89.5 91.5l81 -46q-44 -78 -125 -125
q-80 -46 -177 -46z" />
    <glyph glyph-name="D" unicode="D" horiz-adv-x="718" 
d="M75 700h273q142 0 237 -102q95 -101 95 -248q0 -146 -95 -249q-95 -101 -237 -101h-273v700zM168 88h180q107 0 175 75q68 76 68 187t-68 187q-68 75 -175 75h-180v-524z" />
    <glyph glyph-name="E" unicode="E" horiz-adv-x="530" 
d="M168 310v-222h325v-88h-418v700h413v-88h-320v-215h295v-87h-295z" />
    <glyph glyph-name="F" unicode="F" horiz-adv-x="516" 
d="M478 700v-88h-310v-227h297v-88h-297v-297h-93v700h403z" />
    <glyph glyph-name="G" unicode="G" horiz-adv-x="788" 
d="M400 347h350v-42q0 -137 -94 -228q-94 -90 -249 -90q-160 0 -265 105q-104 107 -104 258t104 257q105 106 263 106q96 0 178 -47q83 -47 125 -122l-80 -47q-30 57 -91 91.5t-133 34.5q-121 0 -197 -79q-77 -79 -77 -194t77 -194q78 -78 201 -78q103 0 168.5 50.5
t80.5 134.5h-257v84z" />
    <glyph glyph-name="H" unicode="H" horiz-adv-x="675" 
d="M508 403v297h92v-700h-92v315h-340v-315h-93v700h93v-297h340z" />
    <glyph glyph-name="I" unicode="I" horiz-adv-x="243" 
d="M75 0v700h93v-700h-93z" />
    <glyph glyph-name="J" unicode="J" horiz-adv-x="558" 
d="M257 -13q-77 0 -134.5 32.5t-84.5 92.5l79 46q32 -80 140 -80q68 0 105.5 32.5t37.5 94.5v495h92v-495q0 -105 -67 -162q-67 -56 -168 -56z" />
    <glyph glyph-name="K" unicode="K" horiz-adv-x="592" 
d="M265 360l319 -360h-114l-302 336v-336h-93v700h93v-316l292 316h114z" />
    <glyph glyph-name="L" unicode="L" horiz-adv-x="488" 
d="M168 700v-612h302v-88h-395v700h93z" />
    <glyph glyph-name="M" unicode="M" horiz-adv-x="805" 
d="M625 700h105v-700h-92v547l-229 -381h-12l-229 380v-546h-93v700h105l223 -370z" />
    <glyph glyph-name="N" unicode="N" horiz-adv-x="678" 
d="M510 178v522h93v-700h-75l-360 523v-523h-93v700h75z" />
    <glyph glyph-name="O" unicode="O" horiz-adv-x="800" 
d="M38 350q0 152 105 257q105 106 257 106t257 -106q106 -105 106 -257q0 -151 -106 -257q-105 -106 -257 -106t-257 106q-105 107 -105 257zM670 350q0 116 -78 194q-76 79 -192 79q-115 0 -193 -79q-77 -79 -77 -194q0 -114 77 -194q78 -78 193 -78q116 0 192 78
q78 80 78 194z" />
    <glyph glyph-name="P" unicode="P" horiz-adv-x="590" 
d="M75 700h254q96 0 161 -65t65 -160t-65 -160t-161 -65h-161v-250h-93v700zM168 337h161q59 0 96 39q38 41 38 99q0 60 -38 99t-96 39h-161v-276z" />
    <glyph glyph-name="Q" unicode="Q" horiz-adv-x="805" 
d="M763 350q0 -144 -99 -249l77 -77l-64 -58l-79 80q-92 -59 -198 -59q-150 0 -256 106t-106 257t106 257t256 106t256 -106q107 -107 107 -257zM400 78q73 0 132 34l-140 141l64 57l144 -144q70 76 70 184q0 115 -79 194q-78 79 -191 79t-192 -79q-78 -80 -78 -194t78 -193
q79 -79 192 -79z" />
    <glyph glyph-name="R" unicode="R" horiz-adv-x="611" 
d="M593 0h-103l-157 268h-165v-268h-93v700h280q90 0 154 -64q64 -63 64 -153q0 -68 -41 -124q-42 -57 -104 -79zM355 613h-187v-261h187q52 0 88 38q37 38 37 93t-37 92q-36 38 -88 38z" />
    <glyph glyph-name="S" unicode="S" horiz-adv-x="578" 
d="M301 -13q-98 0 -167.5 45.5t-97.5 126.5l80 46q40 -127 187 -127q71 0 109.5 29t38.5 79q0 49 -38 75q-34 23 -127 53l-67 22q-22 9 -58 26q-35 18 -51 36q-44 48 -44 117q0 92 64 144q64 54 156 54q82 0 144 -41t93 -112l-78 -45q-45 108 -159 108q-57 0 -92 -28
t-35 -76q0 -46 33 -70q34 -25 114 -50l41 -13q34 -13 37 -14q32 -12 70 -33q27 -15 54 -46q35 -35 35 -105q0 -92 -67 -147q-68 -54 -175 -54z" />
    <glyph glyph-name="T" unicode="T" horiz-adv-x="540" 
d="M18 700h505v-88h-207v-612h-92v612h-206v88z" />
    <glyph glyph-name="U" unicode="U" horiz-adv-x="658" 
d="M66 235v465h93v-461q0 -75 44.5 -118t125.5 -43t125.5 43t44.5 118v461h92v-465q0 -114 -73 -181t-189 -67q-117 0 -190 67t-73 181z" />
    <glyph glyph-name="V" unicode="V" horiz-adv-x="621" 
d="M363 0h-105l-250 700h100l203 -584l202 584h101z" />
    <glyph glyph-name="W" unicode="W" horiz-adv-x="1000" 
d="M334 0h-108l-201 700h98l160 -576l170 576h94l170 -576l160 576h98l-201 -700h-108l-166 559z" />
    <glyph glyph-name="X" unicode="X" horiz-adv-x="590" 
d="M348 361l225 -361h-106l-172 276l-172 -276h-105l225 360l-212 340h105l159 -255l159 255h105z" />
    <glyph glyph-name="Y" unicode="Y" horiz-adv-x="604" 
d="M492 700h104l-248 -417v-283h-93v284l-247 416h104l190 -328z" />
    <glyph glyph-name="Z" unicode="Z" horiz-adv-x="525" 
d="M488 620l-339 -532h347v-88h-457v81l338 531h-329v88h440v-80z" />
    <glyph glyph-name="bracketleft" unicode="[" horiz-adv-x="290" 
d="M270 800v-84h-125v-732h125v-84h-212v900h212z" />
    <glyph glyph-name="backslash" unicode="\" horiz-adv-x="528" 
d="M490 -100h-52l-400 900h52z" />
    <glyph glyph-name="bracketright" unicode="]" horiz-adv-x="290" 
d="M20 800h212v-900h-212v84h125v732h-125v84z" />
    <glyph glyph-name="asciicircum" unicode="^" horiz-adv-x="520" 
d="M221 700h78l181 -310h-98l-122 212l-122 -212h-98z" />
    <glyph glyph-name="underscore" unicode="_" horiz-adv-x="520" 
d="M483 -151h-445v84h445v-84z" />
    <glyph glyph-name="grave" unicode="`" horiz-adv-x="225" 
d="M205 568h-84l-101 132h105z" />
    <glyph glyph-name="a" unicode="a" 
d="M480 414v86h87v-500h-87v86q-64 -99 -189 -99q-106 0 -179 76q-74 77 -74 187q0 109 74 186t179 77q125 0 189 -99zM302 71q76 0 127 51q51 53 51 128q0 76 -51 127q-51 52 -127 52q-75 0 -126 -52q-51 -51 -51 -127q0 -75 51 -128q51 -51 126 -51z" />
    <glyph glyph-name="b" unicode="b" 
d="M342 513q105 0 179 -77t74 -186q0 -110 -74 -187q-73 -76 -179 -76q-124 0 -189 99v-86h-87v700h87v-286q65 99 189 99zM331 71q75 0 126 51q51 53 51 128q0 76 -51 127q-51 52 -126 52q-76 0 -127 -52q-51 -51 -51 -127q0 -75 51 -128q51 -51 127 -51z" />
    <glyph glyph-name="c" unicode="c" horiz-adv-x="547" 
d="M301 -13q-113 0 -188 75q-75 76 -75 188t75 187q75 76 188 76q74 0 133 -35.5t88 -95.5l-73 -42q-19 40 -58.5 64t-89.5 24q-75 0 -126 -51q-50 -52 -50 -127q0 -74 50 -126q51 -51 126 -51q50 0 90 23.5t61 63.5l74 -43q-33 -60 -93 -95t-132 -35z" />
    <glyph glyph-name="d" unicode="d" 
d="M480 414v286h87v-700h-87v86q-64 -99 -189 -99q-106 0 -179 76q-74 77 -74 187q0 109 74 186t179 77q125 0 189 -99zM302 71q76 0 127 51q51 53 51 128q0 76 -51 127q-51 52 -127 52q-75 0 -126 -52q-51 -51 -51 -127q0 -75 51 -128q51 -51 126 -51z" />
    <glyph glyph-name="e" unicode="e" horiz-adv-x="583" 
d="M546 210h-419q13 -66 61 -103.5t120 -37.5q99 0 144 73l74 -42q-74 -113 -220 -113q-118 0 -194 74q-74 76 -74 189q0 114 73 188q73 75 189 75q110 0 179 -78q70 -76 70 -186q0 -19 -3 -39zM300 431q-69 0 -115.5 -39t-57.5 -106h334q-11 69 -55 107t-106 38z" />
    <glyph glyph-name="f" unicode="f" horiz-adv-x="323" 
d="M323 713v-84q-132 11 -132 -114v-15h132v-84h-132v-416h-87v416h-80v84h80v15q0 102 57 153.5t162 44.5z" />
    <glyph glyph-name="g" unicode="g" 
d="M481 414v86h86v-479q0 -111 -75 -172q-76 -62 -180 -62q-84 0 -145 31.5t-92 90.5l76 43q41 -84 163 -84q78 0 122.5 41t44.5 112v71q-66 -100 -188 -100q-108 0 -181 76q-74 77 -74 185t74 184q73 76 181 76q123 0 188 -99zM481 253q0 75 -51 126t-127 51t-127 -51
t-51 -126q0 -76 51 -127t127 -51t127 51t51 127z" />
    <glyph glyph-name="h" unicode="h" horiz-adv-x="564" 
d="M315 513q88 0 141 -55.5t53 -150.5v-307h-87v302q0 60 -33 94t-91 34q-67 0 -106 -41.5t-39 -123.5v-265h-87v700h87v-272q52 85 162 85z" />
    <glyph glyph-name="i" unicode="i" horiz-adv-x="220" 
d="M110 591q-25 0 -42 17t-17 41t17 41.5t42 17.5q24 0 41 -17.5t17 -41.5t-17 -41t-41 -17zM153 0h-87v500h87v-500z" />
    <glyph glyph-name="j" unicode="j" horiz-adv-x="241" 
d="M132 591q-25 0 -42 17t-17 41t17 41.5t42 17.5q24 0 41 -17.5t17 -41.5t-17 -41t-41 -17zM88 -30v530h87v-530q0 -97 -49 -143.5t-144 -39.5v84q55 -5 80.5 18.5t25.5 80.5z" />
    <glyph glyph-name="k" unicode="k" horiz-adv-x="504" 
d="M242 258l247 -258h-108l-228 237v-237h-87v700h87v-421l216 221h112z" />
    <glyph glyph-name="l" unicode="l" horiz-adv-x="220" 
d="M153 0h-87v730h87v-730z" />
    <glyph glyph-name="m" unicode="m" horiz-adv-x="849" 
d="M606 513q85 0 136.5 -55t51.5 -147v-311h-87v308q0 57 -29.5 89.5t-80.5 32.5q-58 0 -90.5 -38.5t-32.5 -113.5v-278h-87v308q0 57 -28.5 89.5t-77.5 32.5q-57 0 -92.5 -39.5t-35.5 -112.5v-278h-87v500h87v-67q51 80 149 80q101 0 147 -85q52 85 157 85z" />
    <glyph glyph-name="n" unicode="n" horiz-adv-x="564" 
d="M315 513q88 0 141 -55.5t53 -150.5v-307h-87v302q0 60 -33 94t-91 34q-67 0 -106 -41.5t-39 -123.5v-265h-87v500h87v-72q52 85 162 85z" />
    <glyph glyph-name="o" unicode="o" horiz-adv-x="602" 
d="M488 63q-76 -76 -187 -76t-187 76t-76 187t76 187t187 76t187 -76q77 -77 77 -187t-77 -187zM301 72q75 0 126 51t51 127t-51 127t-126 51q-74 0 -125 -51t-51 -127t51 -127t125 -51z" />
    <glyph glyph-name="p" unicode="p" 
d="M342 513q105 0 179 -77t74 -186q0 -110 -74 -187q-73 -76 -179 -76q-124 0 -189 99v-286h-87v700h87v-86q65 99 189 99zM331 71q75 0 126 51q51 53 51 128q0 76 -51 127q-51 52 -126 52q-76 0 -127 -52q-51 -51 -51 -127q0 -75 51 -128q51 -51 127 -51z" />
    <glyph glyph-name="q" unicode="q" 
d="M480 414v86h87v-700h-87v286q-64 -99 -189 -99q-106 0 -179 76q-74 77 -74 187q0 109 74 186t179 77q125 0 189 -99zM302 71q76 0 127 51q51 53 51 128q0 76 -51 127q-51 52 -127 52q-75 0 -126 -52q-51 -51 -51 -127q0 -75 51 -128q51 -51 126 -51z" />
    <glyph glyph-name="r" unicode="r" horiz-adv-x="328" 
d="M153 500v-84q43 93 156 93v-91q-64 3 -110 -34t-46 -119v-265h-87v500h87z" />
    <glyph glyph-name="s" unicode="s" horiz-adv-x="458" 
d="M141 365q0 -48 99 -75q37 -8 62.5 -16.5t56 -25.5t46.5 -45t16 -66q0 -68 -53 -109t-134 -41q-72 0 -124.5 31.5t-74.5 85.5l75 43q12 -36 45 -57t79 -21q45 0 72 17t27 51q0 51 -99 74q-33 9 -50 14t-46.5 18t-44.5 27.5t-27.5 39t-12.5 54.5q0 65 50 107q51 42 127 42
q61 0 108.5 -27.5t71.5 -76.5l-73 -41q-27 64 -107 64q-38 0 -63.5 -18t-25.5 -49z" />
    <glyph glyph-name="t" unicode="t" horiz-adv-x="378" 
d="M338 500v-84h-133v-271q0 -37 14.5 -52.5t44.5 -16t74 1.5v-78q-115 -15 -167.5 19t-52.5 126v271h-99v84h99v114l87 26v-140h133z" />
    <glyph glyph-name="u" unicode="u" horiz-adv-x="564" 
d="M411 235v265h87v-500h-87v72q-52 -85 -162 -85q-88 0 -141 55.5t-53 150.5v307h87v-302q0 -60 33 -94t91 -34q67 0 106 41.5t39 123.5z" />
    <glyph glyph-name="v" unicode="v" horiz-adv-x="518" 
d="M259 93l157 407h94l-200 -500h-102l-200 500h94z" />
    <glyph glyph-name="w" unicode="w" horiz-adv-x="770" 
d="M545 119l110 381h91l-155 -500h-89l-117 370l-117 -370h-89l-155 500h91l110 -380l118 380h84z" />
    <glyph glyph-name="x" unicode="x" horiz-adv-x="515" 
d="M309 258l191 -258h-102l-140 189l-141 -189h-102l192 257l-181 243h103l129 -174l129 174h102z" />
    <glyph glyph-name="y" unicode="y" horiz-adv-x="515" 
d="M271 108l144 392h93l-204 -531q-33 -85 -90.5 -129.5t-131.5 -39.5v81q92 -7 135 102l9 19l-218 498h93z" />
    <glyph glyph-name="z" unicode="z" horiz-adv-x="471" 
d="M423 442l-256 -359h266v-83h-385v58l255 359h-245v83h365v-58z" />
    <glyph glyph-name="braceleft" unicode="{" horiz-adv-x="356" 
d="M336 -24v-84q-190 -15 -190 170v161q0 52 -21.5 69.5t-74.5 16.5v84q53 -1 74.5 17t21.5 69v161q0 185 190 170v-84q-56 6 -79.5 -13t-23.5 -73v-161q0 -99 -72 -128q72 -27 72 -128v-161q0 -54 24 -73t79 -13z" />
    <glyph glyph-name="bar" unicode="|" horiz-adv-x="237" 
d="M162 -200h-87v920h87v-920z" />
    <glyph glyph-name="braceright" unicode="}" horiz-adv-x="356" 
d="M20 -108v84q55 -6 79 13t24 73v161q0 101 72 128q-72 29 -72 128v161q0 54 -23.5 73t-79.5 13v84q190 15 190 -170v-161q0 -51 21.5 -69t74.5 -17v-84q-53 1 -74.5 -16.5t-21.5 -69.5v-161q0 -185 -190 -170z" />
    <glyph glyph-name="asciitilde" unicode="~" horiz-adv-x="596" 
d="M466 424l75 -36q-27 -90 -91 -111.5t-161 31.5q-77 41 -109 32q-33 -8 -50 -64l-75 35q26 90 91.5 112t159.5 -31q78 -42 110 -34q34 9 50 66z" />
    <glyph glyph-name="exclamdown" unicode="&#xa1;" horiz-adv-x="243" 
d="M121 511q28 0 46.5 -19t18.5 -46t-18.5 -46t-46.5 -19q-27 0 -46 19t-19 46t19 46t46 19zM69 0l19 295h67l19 -295v-200h-105v200z" />
    <glyph glyph-name="cent" unicode="&#xa2;" horiz-adv-x="547" 
d="M452 260l74 -43q-33 -60 -93 -95t-132 -35q-31 0 -65 8l-31 -95h-53l36 111q-69 31 -109.5 95t-40.5 144q0 112 75 187q75 76 188 76q29 0 48 -4l29 91h53l-34 -105q86 -32 125 -113l-73 -42q-26 52 -78 74l-109 -337q15 -4 39 -4q50 0 90 23.5t61 63.5zM125 350
q0 -51 24 -92t66 -64l107 333q-5 1 -21 1q-75 0 -126 -51q-50 -52 -50 -127z" />
    <glyph glyph-name="sterling" unicode="&#xa3;" horiz-adv-x="584" 
d="M217 284v-194h353v-90h-532v90h87v194h-70v82h70v134q0 102 62 158q62 55 148 55q143 0 199 -138l-77 -44q-33 92 -121 92q-53 0 -86 -32.5t-33 -92.5v-132h222v-82h-222z" />
    <glyph glyph-name="currency" unicode="&#xa4;" horiz-adv-x="549" 
d="M442 217l70 -70l-34 -34l-71 71q-55 -45 -132 -45q-74 0 -133 44l-70 -70l-34 34l69 70q-46 56 -46 133t46 133l-69 70l34 34l70 -70q57 45 133 45q73 0 132 -45l71 70l34 -34l-70 -70q46 -56 46 -133t-46 -133zM402 350q0 55 -36.5 91.5t-90.5 36.5q-55 0 -91 -36.5
t-36 -91.5q0 -54 36.5 -91t90.5 -37t90.5 37t36.5 91z" />
    <glyph glyph-name="yen" unicode="&#xa5;" horiz-adv-x="584" 
d="M492 700h104l-207 -348h123v-65h-161l-3 -4v-51h164v-66h-164v-166h-93v166h-183v66h183v52l-2 3h-181v65h143l-207 348h104l190 -328z" />
    <glyph glyph-name="brokenbar" unicode="&#xa6;" horiz-adv-x="237" 
d="M162 350h-87v370h87v-370zM162 -200h-87v370h87v-370z" />
    <glyph glyph-name="section" unicode="&#xa7;" horiz-adv-x="521" 
d="M482 269q0 -76 -63 -124q41 -44 41 -102q0 -69 -52 -112t-135 -43q-162 0 -213 131l75 43q31 -94 138 -94q46 0 73 20t27 55q0 39 -42 62q-20 14 -42 24q-14 6 -25 10q-45 20 -52 23q-77 31 -116.5 71.5t-39.5 100.5q0 75 68 125q-37 40 -37 100q0 67 51 111
q50 43 127 43q65 0 114 -32t73 -90l-71 -40q-33 81 -116 81q-39 0 -65 -20t-26 -53q0 -38 40 -63q36 -23 91 -46q9 -3 19 -8q81 -35 119.5 -74t38.5 -99zM143 337q0 -35 26 -59t79 -44q77 -29 107 -44q40 30 40 74q0 36 -26 59.5t-83 46.5q-79 31 -100 42q-43 -28 -43 -75z
" />
    <glyph glyph-name="dieresis" unicode="&#xa8;" horiz-adv-x="335" 
d="M110 581q-15 -15 -37 -15t-38 15q-15 16 -15 38t15 37q16 15 38 15t37 -15t15 -37t-15 -38zM300 581q-15 -15 -37 -15t-38 15q-15 16 -15 38t15 37q16 15 38 15t37 -15t15 -37t-15 -38z" />
    <glyph glyph-name="copyright" unicode="&#xa9;" horiz-adv-x="799" 
d="M656 94q-106 -106 -256 -106t-256 106t-106 256t106 256t256 106t256 -106t106 -256t-106 -256zM400 18q136 0 232 97q97 97 97 235t-97 235q-96 97 -232 97q-137 0 -234 -97q-96 -97 -96 -235t96 -235q97 -97 234 -97zM403 157q-81 0 -139 56q-57 57 -57 137t57 136
q57 57 139 57q53 0 97 -25t68 -69l-69 -40q-26 56 -97 56q-50 0 -82 -33.5t-32 -81.5t32 -81.5t82 -33.5q33 0 59.5 15t38.5 42l69 -41q-24 -43 -68.5 -68.5t-97.5 -25.5z" />
    <glyph glyph-name="guillemotleft" unicode="&#xab;" horiz-adv-x="510" 
d="M178 492h94l-110 -183l110 -182h-94l-110 182zM348 492h94l-110 -183l110 -182h-94l-110 182z" />
    <glyph glyph-name="logicalnot" unicode="&#xac;" horiz-adv-x="530" 
d="M55 309v83h420v-200h-87v117h-333z" />
    <glyph glyph-name="registered" unicode="&#xae;" horiz-adv-x="799" 
d="M144 606q106 106 256 106t256 -106t106 -256t-106 -256t-256 -106t-256 106t-106 256t106 256zM400 18q136 0 232 97q97 97 97 235t-97 235q-96 97 -232 97q-137 0 -234 -97q-96 -97 -96 -235t96 -235q97 -97 234 -97zM547 415q0 -77 -63 -109l77 -141h-84l-65 125h-6
h-48v-125h-77v370h125q64 0 102.5 -34t38.5 -86zM406 463h-48v-103h48q30 0 47 14t17 37q0 52 -64 52z" />
    <glyph glyph-name="overscore" unicode="&#xaf;" horiz-adv-x="310" 
d="M290 575h-270v73h270v-73z" />
    <glyph glyph-name="degree" unicode="&#xb0;" horiz-adv-x="391" 
d="M196 500q-68 0 -113 45t-45 110t45 110t113 45t113 -45t45 -110t-45 -110q-43 -45 -113 -45zM139 598q22 -23 57 -23t57 23t22 57t-22 57t-57 23t-57 -23t-22 -57t22 -57z" />
    <glyph glyph-name="plusminus" unicode="&#xb1;" horiz-adv-x="545" 
d="M314 623v-158h174v-83h-174v-157h-83v157h-173v83h173v158h83zM488 78h-430v83h430v-83z" />
    <glyph glyph-name="acute" unicode="&#xb4;" horiz-adv-x="225" 
d="M20 568l80 132h105l-101 -132h-84z" />
    <glyph glyph-name="uni00B5" unicode="&#xb5;" horiz-adv-x="610" 
d="M544 83h38v-83h-51q-78 0 -102 67q-53 -80 -159 -80q-72 0 -117 39v-226h-87v700h87v-301q0 -62 33 -95.5t91 -33.5q67 0 106 41.5t39 123.5v265h87v-382q0 -16 9.5 -25.5t25.5 -9.5z" />
    <glyph glyph-name="paragraph" unicode="&#xb6;" horiz-adv-x="610" 
d="M240 700h328v-79h-61v-821h-83v821h-101v-821h-83v490q-85 0 -145 60t-60 145q0 84 59 145q60 60 146 60z" />
    <glyph glyph-name="middot" unicode="&#xb7;" horiz-adv-x="243" 
d="M121 284q-27 0 -46 19t-19 46t19 46t46 19q28 0 46.5 -19t18.5 -46t-18.5 -46t-46.5 -19z" />
    <glyph glyph-name="cedilla" unicode="&#xb8;" horiz-adv-x="250" 
d="M145 0v-45q39 -8 62 -29.5t23 -50.5q0 -103 -210 -91v66q134 -11 134 31q0 31 -83 36v83h74z" />
    <glyph glyph-name="guillemotright" unicode="&#xbb;" horiz-adv-x="510" 
d="M68 492h94l110 -183l-110 -182h-94l110 182zM238 492h94l110 -183l-110 -182h-94l110 182z" />
    <glyph glyph-name="onequarter" unicode="&#xbc;" horiz-adv-x="819" 
d="M192 700v-400h-77v319l-88 -26l-19 65l117 42h67zM124 0l400 700h70l-400 -700h-70zM753 142h47v-71h-47v-71h-76v71h-199v71l142 258h83l-140 -258h114v88h76v-88z" />
    <glyph glyph-name="onehalf" unicode="&#xbd;" horiz-adv-x="809" 
d="M192 700v-400h-77v319l-88 -26l-19 65l117 42h67zM124 0l400 700h70l-400 -700h-70zM708 163l-101 -91h172v-72h-286v57l162 153q39 36 39 77q0 24 -16.5 38.5t-44.5 14.5q-55 0 -79 -58l-64 36q41 95 143 95q61 0 100 -35.5t39 -88.5q0 -68 -64 -126z" />
    <glyph glyph-name="threequarters" unicode="&#xbe;" horiz-adv-x="916" 
d="M316 418q0 -60 -40.5 -95.5t-108.5 -35.5q-106 0 -147 86l65 37q22 -51 82 -51q35 0 53.5 16t18.5 43t-20 43.5t-53 16.5h-9l-34 50l84 100h-172v72h263v-66l-84 -100q48 -10 75 -40.5t27 -75.5zM221 0l400 700h70l-400 -700h-70zM850 142h47v-71h-47v-71h-76v71h-199v71
l142 258h83l-140 -258h114v88h76v-88z" />
    <glyph glyph-name="questiondown" unicode="&#xbf;" horiz-adv-x="539" 
d="M288 511q27 0 46 -19t19 -46t-19 -46t-46 -19q-28 0 -46.5 19t-18.5 46t18.5 46t46.5 19zM241 295h93q0 -82 -65 -147q-6 -6 -38.5 -36.5t-43 -43t-24 -38.5t-13.5 -50q0 -49 34 -76t90 -27q110 0 141 97l79 -44q-24 -68 -83.5 -105.5t-137.5 -37.5q-88 0 -153 50
q-63 50 -63 139q0 78 65 143q5 5 31 29.5t35 35t25 31.5t22 40t6 40z" />
    <glyph glyph-name="Agrave" unicode="&#xc0;" horiz-adv-x="643" 
d="M308 900l80 -132h-84l-101 132h105zM635 0h-99l-57 157h-315l-57 -157h-99l261 700h105zM321 589l-125 -345h251z" />
    <glyph glyph-name="Aacute" unicode="&#xc1;" horiz-adv-x="643" 
d="M341 900h105l-101 -132h-84zM635 0h-99l-57 157h-315l-57 -157h-99l261 700h105zM321 589l-125 -345h251z" />
    <glyph glyph-name="Acircumflex" unicode="&#xc2;" horiz-adv-x="643" 
d="M381 765l-61 81l-61 -81h-93l106 135h96l106 -135h-93zM635 0h-99l-57 157h-315l-57 -157h-99l261 700h105zM321 589l-125 -345h251z" />
    <glyph glyph-name="Atilde" unicode="&#xc3;" horiz-adv-x="643" 
d="M316 797q-36 32 -54 27.5t-18 -51.5h-73q0 64 23.5 96.5t58 31t72.5 -28.5q37 -32 54.5 -27.5t17.5 50.5h73q0 -64 -23 -96t-57.5 -30.5t-73.5 28.5zM635 0h-99l-57 157h-315l-57 -157h-99l261 700h105zM321 589l-125 -345h251z" />
    <glyph glyph-name="Adieresis" unicode="&#xc4;" horiz-adv-x="643" 
d="M263 781q-15 -15 -37 -15t-38 15q-15 16 -15 38t15 37q16 15 38 15t37 -15t15 -37t-15 -38zM453 781q-15 -15 -37 -15t-38 15q-15 16 -15 38t15 37q16 15 38 15t37 -15t15 -37t-15 -38zM635 0h-99l-57 157h-315l-57 -157h-99l261 700h105zM321 589l-125 -345h251z" />
    <glyph glyph-name="Aring" unicode="&#xc5;" horiz-adv-x="643" 
d="M635 0h-99l-57 157h-315l-57 -157h-99l251 673q-50 29 -50 90q0 46 31.5 76t81.5 30t81.5 -30t31.5 -76q0 -63 -51 -91zM322 808q-21 0 -34 -13t-13 -32q0 -21 12.5 -33.5t34.5 -12.5q30 -2 42.5 22t0 48t-42.5 21zM321 589l-125 -345h251z" />
    <glyph glyph-name="AE" unicode="&#xc6;" horiz-adv-x="880" 
d="M541 310v-222h302v-88h-393v157h-250l-95 -157h-105l424 700h414v-88h-297v-215h279v-87h-279zM450 572l-198 -328h198v328z" />
    <glyph glyph-name="Ccedilla" unicode="&#xc7;" horiz-adv-x="739" 
d="M404 78q72 0 131.5 34.5t89.5 91.5l81 -46q-39 -70 -110 -115.5t-155 -53.5v-34q39 -8 62 -29.5t23 -50.5q0 -103 -210 -91v66q134 -11 134 31q0 31 -83 36v72q-144 14 -237 115q-92 104 -92 246q0 154 103 258q103 105 263 105q95 0 176 -46t126 -124l-81 -47
q-30 58 -89.5 92.5t-131.5 34.5q-122 0 -198 -78q-76 -77 -76 -195q0 -117 76 -194q76 -78 198 -78z" />
    <glyph glyph-name="Egrave" unicode="&#xc8;" horiz-adv-x="530" 
d="M269 900l80 -132h-84l-101 132h105zM168 310v-222h325v-88h-418v700h413v-88h-320v-215h295v-87h-295z" />
    <glyph glyph-name="Eacute" unicode="&#xc9;" horiz-adv-x="530" 
d="M302 900h105l-101 -132h-84zM168 310v-222h325v-88h-418v700h413v-88h-320v-215h295v-87h-295z" />
    <glyph glyph-name="Ecircumflex" unicode="&#xca;" horiz-adv-x="530" 
d="M342 765l-61 81l-61 -81h-93l106 135h96l106 -135h-93zM168 310v-222h325v-88h-418v700h413v-88h-320v-215h295v-87h-295z" />
    <glyph glyph-name="Edieresis" unicode="&#xcb;" horiz-adv-x="530" 
d="M224 781q-15 -15 -37 -15t-38 15q-15 16 -15 38t15 37q16 15 38 15t37 -15t15 -37t-15 -38zM414 781q-15 -15 -37 -15t-38 15q-15 16 -15 38t15 37q16 15 38 15t37 -15t15 -37t-15 -38zM168 310v-222h325v-88h-418v700h413v-88h-320v-215h295v-87h-295z" />
    <glyph glyph-name="Igrave" unicode="&#xcc;" horiz-adv-x="243" 
d="M188 768h-84l-101 132h105zM75 700v-700h93v700h-93z" />
    <glyph glyph-name="Iacute" unicode="&#xcd;" horiz-adv-x="243" 
d="M61 768l80 132h105l-101 -132h-84zM75 700v-700h93v700h-93z" />
    <glyph glyph-name="Icircumflex" unicode="&#xce;" horiz-adv-x="243" 
d="M72 900h96l106 -135h-93l-61 81l-61 -81h-93zM168 0h-93v700h93v-700z" />
    <glyph glyph-name="Idieresis" unicode="&#xcf;" horiz-adv-x="243" 
d="M63 781q-15 -15 -37 -15t-37 15q-16 16 -16 38t16 37q15 15 37 15t37 -15t15 -37t-15 -38zM253 781q-15 -15 -37 -15t-38 15q-15 16 -15 38t15 37q16 15 38 15t37 -15t15 -37t-15 -38zM75 0v700h93v-700h-93z" />
    <glyph glyph-name="Eth" unicode="&#xd0;" horiz-adv-x="743" 
d="M100 700h273q143 0 237 -102q95 -101 95 -248q0 -146 -95 -249q-95 -101 -237 -101h-273v306h-73v84h73v310zM193 88h180q107 0 175 75q68 76 68 187t-68 187q-68 75 -175 75h-180v-222h199v-84h-199v-218z" />
    <glyph glyph-name="Ntilde" unicode="&#xd1;" horiz-adv-x="678" 
d="M259 773h-73q0 64 23.5 96.5t58 31t72.5 -28.5q37 -32 54.5 -27.5t17.5 50.5h73q0 -64 -23 -96t-57.5 -30.5t-73.5 28.5q-36 32 -54 27.5t-18 -51.5zM510 178v522h93v-700h-75l-360 523v-523h-93v700h75z" />
    <glyph glyph-name="Ograve" unicode="&#xd2;" horiz-adv-x="800" 
d="M467 771h-84l-101 132h105zM38 350q0 -150 105 -257q105 -106 257 -106t257 106q106 106 106 257q0 152 -106 257q-105 106 -257 106t-257 -106q-105 -105 -105 -257zM670 350q0 -114 -78 -194q-76 -78 -192 -78q-115 0 -193 78q-77 80 -77 194q0 115 77 194
q78 79 193 79q116 0 192 -79q78 -78 78 -194z" />
    <glyph glyph-name="Oacute" unicode="&#xd3;" horiz-adv-x="800" 
d="M340 771l80 132h105l-101 -132h-84zM38 350q0 -150 105 -257q105 -106 257 -106t257 106q106 106 106 257q0 152 -106 257q-105 106 -257 106t-257 -106q-105 -105 -105 -257zM670 350q0 -114 -78 -194q-76 -78 -192 -78q-115 0 -193 78q-77 80 -77 194q0 115 77 194
q78 79 193 79q116 0 192 -79q78 -78 78 -194z" />
    <glyph glyph-name="Ocircumflex" unicode="&#xd4;" horiz-adv-x="800" 
d="M460 768l-61 81l-61 -81h-93l106 135h96l106 -135h-93zM763 350q0 -151 -106 -257q-105 -106 -257 -106t-257 106q-105 107 -105 257q0 152 105 257q105 106 257 106t257 -106q106 -105 106 -257zM670 350q0 116 -78 194q-76 79 -192 79q-115 0 -193 -79
q-77 -79 -77 -194q0 -114 77 -194q78 -78 193 -78q116 0 192 78q78 80 78 194z" />
    <glyph glyph-name="Otilde" unicode="&#xd5;" horiz-adv-x="800" 
d="M323 776h-73q0 64 23.5 96.5t58 31t72.5 -28.5q37 -32 54.5 -27.5t17.5 50.5h73q0 -64 -23 -96t-57.5 -30.5t-73.5 28.5q-36 32 -54 27.5t-18 -51.5zM38 350q0 152 105 257q105 106 257 106t257 -106q106 -105 106 -257q0 -151 -106 -257q-105 -106 -257 -106t-257 106
q-105 107 -105 257zM670 350q0 116 -78 194q-76 79 -192 79q-115 0 -193 -79q-77 -79 -77 -194q0 -114 77 -194q78 -78 193 -78q116 0 192 78q78 80 78 194z" />
    <glyph glyph-name="Odieresis" unicode="&#xd6;" horiz-adv-x="800" 
d="M342 784q-15 -15 -37 -15t-38 15q-15 16 -15 38t15 37q16 15 38 15t37 -15t15 -37t-15 -38zM532 784q-15 -15 -37 -15t-38 15q-15 16 -15 38t15 37q16 15 38 15t37 -15t15 -37t-15 -38zM38 350q0 152 105 257q105 106 257 106t257 -106q106 -105 106 -257
q0 -151 -106 -257q-105 -106 -257 -106t-257 106q-105 107 -105 257zM670 350q0 116 -78 194q-76 79 -192 79q-115 0 -193 -79q-77 -79 -77 -194q0 -114 77 -194q78 -78 193 -78q116 0 192 78q78 80 78 194z" />
    <glyph glyph-name="multiply" unicode="&#xd7;" horiz-adv-x="485" 
d="M376 541l59 -56l-135 -135l135 -135l-59 -56l-133 134l-134 -134l-59 56l135 135l-135 135l59 56l134 -133z" />
    <glyph glyph-name="Oslash" unicode="&#xd8;" horiz-adv-x="809" 
d="M722 673l-55 -66q105 -105 105 -257q0 -151 -106 -257q-105 -106 -257 -106q-115 0 -210 66l-49 -57l-54 32l55 66q-104 107 -104 256q0 152 105 257q105 106 257 106q118 0 211 -66l48 57zM139 350q0 -110 71 -187l351 415q-69 45 -152 45q-115 0 -193 -79
q-77 -79 -77 -194zM409 78q115 0 192 78q78 80 78 194q0 108 -71 188l-351 -415q67 -45 152 -45z" />
    <glyph glyph-name="Ugrave" unicode="&#xd9;" horiz-adv-x="658" 
d="M396 768h-84l-101 132h105zM66 235q0 -114 73 -181t190 -67q116 0 189 67t73 181v465h-92v-461q0 -75 -44.5 -118t-125.5 -43t-125.5 43t-44.5 118v461h-93v-465z" />
    <glyph glyph-name="Uacute" unicode="&#xda;" horiz-adv-x="658" 
d="M269 768l80 132h105l-101 -132h-84zM66 235q0 -114 73 -181t190 -67q116 0 189 67t73 181v465h-92v-461q0 -75 -44.5 -118t-125.5 -43t-125.5 43t-44.5 118v461h-93v-465z" />
    <glyph glyph-name="Ucircumflex" unicode="&#xdb;" horiz-adv-x="658" 
d="M389 765l-61 81l-61 -81h-93l106 135h96l106 -135h-93zM499 239v461h92v-465q0 -114 -73 -181t-189 -67q-117 0 -190 67t-73 181v465h93v-461q0 -75 44.5 -118t125.5 -43t125.5 43t44.5 118z" />
    <glyph glyph-name="Udieresis" unicode="&#xdc;" horiz-adv-x="658" 
d="M271 781q-15 -15 -37 -15t-38 15q-15 16 -15 38t15 37q16 15 38 15t37 -15t15 -37t-15 -38zM461 781q-15 -15 -37 -15t-38 15q-15 16 -15 38t15 37q16 15 38 15t37 -15t15 -37t-15 -38zM66 235v465h93v-461q0 -75 44.5 -118t125.5 -43t125.5 43t44.5 118v461h92v-465
q0 -114 -73 -181t-189 -67q-117 0 -190 67t-73 181z" />
    <glyph glyph-name="Yacute" unicode="&#xdd;" horiz-adv-x="604" 
d="M319 900h105l-101 -132h-84zM492 700h104l-248 -417v-283h-93v284l-247 416h104l190 -328z" />
    <glyph glyph-name="Thorn" unicode="&#xde;" horiz-adv-x="590" 
d="M168 575h162q95 0 160 -65t65 -160t-65 -160t-160 -65h-162v-125h-93v700h93v-125zM168 212h162q58 0 95 39q38 41 38 99q0 60 -38 99t-95 39h-162v-276z" />
    <glyph glyph-name="germandbls" unicode="&#xdf;" horiz-adv-x="523" 
d="M286 -4v78q131 -9 131 76q0 55 -68 123q-67 73 -67 120q0 29 39 77q40 47 40 77q0 39 -26 61.5t-69 22.5q-51 0 -82 -30t-31 -88v-513h-87v513q0 92 55.5 146t146.5 54q84 0 131 -46q49 -46 49 -113q1 -29 -19 -62.5t-40 -59t-19 -37.5q0 -33 67 -104q27 -27 47 -68.5
t20 -80.5q0 -75 -56.5 -115t-161.5 -31z" />
    <glyph glyph-name="agrave" unicode="&#xe0;" 
d="M293 700l80 -132h-84l-101 132h105zM480 414v86h87v-500h-87v86q-64 -99 -189 -99q-106 0 -179 76q-74 77 -74 187q0 109 74 186t179 77q125 0 189 -99zM302 71q76 0 127 51q51 53 51 128q0 76 -51 127q-51 52 -127 52q-75 0 -126 -52q-51 -51 -51 -127q0 -75 51 -128
q51 -51 126 -51z" />
    <glyph glyph-name="aacute" unicode="&#xe1;" 
d="M326 700h105l-101 -132h-84zM480 414v86h87v-500h-87v86q-64 -99 -189 -99q-106 0 -179 76q-74 77 -74 187q0 109 74 186t179 77q125 0 189 -99zM302 71q76 0 127 51q51 53 51 128q0 76 -51 127q-51 52 -127 52q-75 0 -126 -52q-51 -51 -51 -127q0 -75 51 -128
q51 -51 126 -51z" />
    <glyph glyph-name="acircumflex" unicode="&#xe2;" 
d="M366 565l-61 81l-61 -81h-93l106 135h96l106 -135h-93zM480 414v86h87v-500h-87v86q-64 -99 -189 -99q-106 0 -179 76q-74 77 -74 187q0 109 74 186t179 77q125 0 189 -99zM302 71q76 0 127 51q51 53 51 128q0 76 -51 127q-51 52 -127 52q-75 0 -126 -52
q-51 -51 -51 -127q0 -75 51 -128q51 -51 126 -51z" />
    <glyph glyph-name="atilde" unicode="&#xe3;" 
d="M301 597q-36 32 -54 27.5t-18 -51.5h-73q0 64 23.5 96.5t58 31t72.5 -28.5q37 -32 54.5 -27.5t17.5 50.5h73q0 -64 -23 -96t-57.5 -30.5t-73.5 28.5zM480 414v86h87v-500h-87v86q-64 -99 -189 -99q-106 0 -179 76q-74 77 -74 187q0 109 74 186t179 77q125 0 189 -99z
M302 71q76 0 127 51q51 53 51 128q0 76 -51 127q-51 52 -127 52q-75 0 -126 -52q-51 -51 -51 -127q0 -75 51 -128q51 -51 126 -51z" />
    <glyph glyph-name="adieresis" unicode="&#xe4;" 
d="M248 581q-15 -15 -37 -15t-38 15q-15 16 -15 38t15 37q16 15 38 15t37 -15t15 -37t-15 -38zM438 581q-15 -15 -37 -15t-38 15q-15 16 -15 38t15 37q16 15 38 15t37 -15t15 -37t-15 -38zM480 414v86h87v-500h-87v86q-64 -99 -189 -99q-106 0 -179 76q-74 77 -74 187
q0 109 74 186t179 77q125 0 189 -99zM302 71q76 0 127 51q51 53 51 128q0 76 -51 127q-51 52 -127 52q-75 0 -126 -52q-51 -51 -51 -127q0 -75 51 -128q51 -51 126 -51z" />
    <glyph glyph-name="aring" unicode="&#xe5;" 
d="M387 576q-31 -30 -81 -30t-82 30q-31 31 -31 77t31 76t82 30q50 0 81 -30q32 -30 32 -76q0 -45 -32 -77zM306 698q-21 0 -34 -13t-13 -32q0 -21 12.5 -33.5t34.5 -12.5q30 -2 42.5 22t0 48t-42.5 21zM480 414v86h87v-500h-87v86q-64 -99 -189 -99q-106 0 -179 76
q-74 77 -74 187q0 109 74 186t179 77q125 0 189 -99zM302 71q76 0 127 51q51 53 51 128q0 76 -51 127q-51 52 -127 52q-75 0 -126 -52q-51 -51 -51 -127q0 -75 51 -128q51 -51 126 -51z" />
    <glyph glyph-name="ae" unicode="&#xe6;" horiz-adv-x="1024" 
d="M987 210h-417q12 -66 59 -103.5t117 -37.5q102 0 147 73l74 -42q-74 -113 -210 -113q-130 0 -193 98v-85h-84v86q-64 -99 -189 -99q-106 0 -179 76q-74 77 -74 187q0 109 74 186t179 77q125 0 189 -99v86h84v-85q65 98 187 98q110 0 175 -77q64 -76 64 -187q0 -19 -3 -39
zM742 431q-71 0 -116.5 -38.5t-55.5 -105.5h332q-10 68 -54 106t-106 38zM302 71q76 0 127 51q51 53 51 128q0 76 -51 127q-51 52 -127 52q-75 0 -126 -52q-51 -51 -51 -127q0 -75 51 -128q51 -51 126 -51z" />
    <glyph glyph-name="ccedilla" unicode="&#xe7;" horiz-adv-x="547" 
d="M452 160l74 -43q-28 -51 -77.5 -85t-110.5 -42v-35q39 -8 62 -29.5t23 -50.5q0 -103 -210 -91v66q134 -11 134 31q0 31 -83 36v72q-99 14 -163 86q-63 73 -63 175q0 112 75 187q75 76 188 76q74 0 133 -35.5t88 -95.5l-73 -42q-19 40 -58.5 64t-89.5 24q-75 0 -126 -51
q-50 -52 -50 -127q0 -74 50 -126q51 -51 126 -51q50 0 90 23.5t61 63.5z" />
    <glyph glyph-name="egrave" unicode="&#xe8;" horiz-adv-x="583" 
d="M281 701l80 -132h-84l-101 132h105zM546 210h-419q13 -66 61 -103.5t120 -37.5q99 0 144 73l74 -42q-74 -113 -220 -113q-118 0 -194 74q-74 76 -74 189q0 114 73 188q73 75 189 75q110 0 179 -78q70 -76 70 -186q0 -19 -3 -39zM300 431q-69 0 -115.5 -39t-57.5 -106h334
q-11 69 -55 107t-106 38z" />
    <glyph glyph-name="eacute" unicode="&#xe9;" horiz-adv-x="583" 
d="M314 701h105l-101 -132h-84zM546 210h-419q13 -66 61 -103.5t120 -37.5q99 0 144 73l74 -42q-74 -113 -220 -113q-118 0 -194 74q-74 76 -74 189q0 114 73 188q73 75 189 75q110 0 179 -78q70 -76 70 -186q0 -19 -3 -39zM300 431q-69 0 -115.5 -39t-57.5 -106h334
q-11 69 -55 107t-106 38z" />
    <glyph glyph-name="ecircumflex" unicode="&#xea;" horiz-adv-x="583" 
d="M354 566l-61 81l-61 -81h-93l106 135h96l106 -135h-93zM546 210h-419q13 -66 61 -103.5t120 -37.5q99 0 144 73l74 -42q-74 -113 -220 -113q-118 0 -194 74q-74 76 -74 189q0 114 73 188q73 75 189 75q110 0 179 -78q70 -76 70 -186q0 -19 -3 -39zM300 431
q-69 0 -115.5 -39t-57.5 -106h334q-11 69 -55 107t-106 38z" />
    <glyph glyph-name="edieresis" unicode="&#xeb;" horiz-adv-x="583" 
d="M236 582q-15 -15 -37 -15t-38 15q-15 16 -15 38t15 37q16 15 38 15t37 -15t15 -37t-15 -38zM426 582q-15 -15 -37 -15t-38 15q-15 16 -15 38t15 37q16 15 38 15t37 -15t15 -37t-15 -38zM546 210h-419q13 -66 61 -103.5t120 -37.5q99 0 144 73l74 -42q-74 -113 -220 -113
q-118 0 -194 74q-74 76 -74 189q0 114 73 188q73 75 189 75q110 0 179 -78q70 -76 70 -186q0 -19 -3 -39zM300 431q-69 0 -115.5 -39t-57.5 -106h334q-11 69 -55 107t-106 38z" />
    <glyph glyph-name="igrave" unicode="&#xec;" horiz-adv-x="220" 
d="M151 565h-84l-66 135h102zM153 0v500h-87v-500h87z" />
    <glyph glyph-name="iacute" unicode="&#xed;" horiz-adv-x="220" 
d="M69 565l47 135h103l-66 -135h-84zM66 0h87v500h-87v-500z" />
    <glyph glyph-name="icircumflex" unicode="&#xee;" horiz-adv-x="220" 
d="M62 700h96l88 -135h-92l-44 70l-44 -70h-93zM153 0h-87v500h87v-500z" />
    <glyph glyph-name="idieresis" unicode="&#xef;" horiz-adv-x="220" 
d="M72 583q-15 -15 -37 -15t-37 15q-16 15 -16 37t16 37q15 16 37 16t37 -16q15 -15 15 -37t-15 -37zM222 583q-15 -15 -37 -15t-38 15q-15 15 -15 37t15 37q16 16 38 16t37 -16q15 -15 15 -37t-15 -37zM153 0h-87v500h87v-500z" />
    <glyph glyph-name="eth" unicode="&#xf0;" horiz-adv-x="581" 
d="M327 599l171 -229q46 -64 46 -140q0 -108 -75 -175q-73 -67 -178 -67t-179 67q-74 68 -74 175q0 105 76 172q75 67 179 59q21 -1 38 -5l-75 102l-118 -67v70l81 46l-68 93h101l39 -52l114 65v-70zM291 71q70 0 117 43q49 43 49 116q0 56 -27 92q-48 63 -138 63
q-73 0 -120 -43t-47 -112q0 -72 48 -116q47 -43 118 -43z" />
    <glyph glyph-name="ntilde" unicode="&#xf1;" horiz-adv-x="564" 
d="M288 600q-36 32 -54 27.5t-18 -51.5h-73q0 64 23.5 96.5t58 31t72.5 -28.5q37 -32 54.5 -27.5t17.5 50.5h73q0 -64 -23 -96t-57.5 -30.5t-73.5 28.5zM315 513q88 0 141 -55.5t53 -150.5v-307h-87v302q0 60 -33 94t-91 34q-67 0 -106 -41.5t-39 -123.5v-265h-87v500h87
v-72q52 85 162 85z" />
    <glyph glyph-name="ograve" unicode="&#xf2;" horiz-adv-x="602" 
d="M368 571h-84l-101 132h105zM488 63q77 77 77 187t-77 187q-76 76 -187 76t-187 -76t-76 -187t76 -187t187 -76t187 76zM301 72q-74 0 -125 51t-51 127t51 127t125 51q75 0 126 -51t51 -127t-51 -127t-126 -51z" />
    <glyph glyph-name="oacute" unicode="&#xf3;" horiz-adv-x="602" 
d="M241 571l80 132h105l-101 -132h-84zM488 63q77 77 77 187t-77 187q-76 76 -187 76t-187 -76t-76 -187t76 -187t187 -76t187 76zM301 72q-74 0 -125 51t-51 127t51 127t125 51q75 0 126 -51t51 -127t-51 -127t-126 -51z" />
    <glyph glyph-name="ocircumflex" unicode="&#xf4;" horiz-adv-x="602" 
d="M361 568l-61 81l-61 -81h-93l106 135h96l106 -135h-93zM114 437q76 76 187 76t187 -76q77 -77 77 -187t-77 -187q-76 -76 -187 -76t-187 76t-76 187t76 187zM301 72q75 0 126 51t51 127t-51 127t-126 51q-74 0 -125 -51t-51 -127t51 -127t125 -51z" />
    <glyph glyph-name="otilde" unicode="&#xf5;" horiz-adv-x="602" 
d="M224 576h-73q0 64 23.5 96.5t58 31t72.5 -28.5q37 -32 54.5 -27.5t17.5 50.5h73q0 -64 -23 -96t-57.5 -30.5t-73.5 28.5q-36 32 -54 27.5t-18 -51.5zM488 63q-76 -76 -187 -76t-187 76t-76 187t76 187t187 76t187 -76q77 -77 77 -187t-77 -187zM301 72q75 0 126 51
t51 127t-51 127t-126 51q-74 0 -125 -51t-51 -127t51 -127t125 -51z" />
    <glyph glyph-name="odieresis" unicode="&#xf6;" horiz-adv-x="602" 
d="M243 584q-15 -15 -37 -15t-38 15q-15 16 -15 38t15 37q16 15 38 15t37 -15t15 -37t-15 -38zM433 584q-15 -15 -37 -15t-38 15q-15 16 -15 38t15 37q16 15 38 15t37 -15t15 -37t-15 -38zM488 63q-76 -76 -187 -76t-187 76t-76 187t76 187t187 76t187 -76q77 -77 77 -187
t-77 -187zM301 72q75 0 126 51t51 127t-51 127t-126 51q-74 0 -125 -51t-51 -127t51 -127t125 -51z" />
    <glyph glyph-name="divide" unicode="&#xf7;" horiz-adv-x="575" 
d="M333 494q-18 -18 -45 -18t-46 18q-18 19 -18 46t18 45q19 18 46 18t45 -18t18 -45t-18 -46zM520 309h-465v83h465v-83zM333 115q-18 -18 -45 -18t-46 18q-18 19 -18 46t18 45q19 18 46 18t45 -18t18 -45t-18 -46z" />
    <glyph glyph-name="oslash" unicode="&#xf8;" horiz-adv-x="602" 
d="M537 480l-43 -49q71 -77 71 -181q0 -110 -77 -187q-76 -76 -187 -76q-83 0 -154 48l-36 -41l-45 26l43 49q-71 77 -71 181q0 111 76 187t187 76q87 0 154 -49l37 42zM125 250q0 -66 41 -116l233 266q-43 28 -98 28q-74 0 -125 -51t-51 -127zM301 72q75 0 126 51t51 127
q0 66 -41 116l-233 -266q43 -28 97 -28z" />
    <glyph glyph-name="ugrave" unicode="&#xf9;" horiz-adv-x="564" 
d="M262 700l80 -132h-84l-101 132h105zM411 235v265h87v-500h-87v72q-52 -85 -162 -85q-88 0 -141 55.5t-53 150.5v307h87v-302q0 -60 33 -94t91 -34q67 0 106 41.5t39 123.5z" />
    <glyph glyph-name="uacute" unicode="&#xfa;" horiz-adv-x="564" 
d="M295 700h105l-101 -132h-84zM411 235v265h87v-500h-87v72q-52 -85 -162 -85q-88 0 -141 55.5t-53 150.5v307h87v-302q0 -60 33 -94t91 -34q67 0 106 41.5t39 123.5z" />
    <glyph glyph-name="ucircumflex" unicode="&#xfb;" horiz-adv-x="564" 
d="M335 565l-61 81l-61 -81h-93l106 135h96l106 -135h-93zM411 235v265h87v-500h-87v72q-52 -85 -162 -85q-88 0 -141 55.5t-53 150.5v307h87v-302q0 -60 33 -94t91 -34q67 0 106 41.5t39 123.5z" />
    <glyph glyph-name="udieresis" unicode="&#xfc;" horiz-adv-x="564" 
d="M217 581q-15 -15 -37 -15t-38 15q-15 16 -15 38t15 37q16 15 38 15t37 -15t15 -37t-15 -38zM407 581q-15 -15 -37 -15t-38 15q-15 16 -15 38t15 37q16 15 38 15t37 -15t15 -37t-15 -38zM411 235v265h87v-500h-87v72q-52 -85 -162 -85q-88 0 -141 55.5t-53 150.5v307h87
v-302q0 -60 33 -94t91 -34q67 0 106 41.5t39 123.5z" />
    <glyph glyph-name="yacute" unicode="&#xfd;" horiz-adv-x="515" 
d="M276 700h105l-101 -132h-84zM271 108l144 392h93l-204 -531q-33 -85 -90.5 -129.5t-131.5 -39.5v81q92 -7 135 102l9 19l-218 498h93z" />
    <glyph glyph-name="thorn" unicode="&#xfe;" 
d="M342 513q105 0 179 -77t74 -186q0 -110 -74 -187q-73 -76 -179 -76q-124 0 -189 99v-286h-87v900h87v-286q65 99 189 99zM331 71q75 0 126 51q51 53 51 128q0 76 -51 127q-51 52 -126 52q-76 0 -127 -52q-51 -51 -51 -127q0 -75 51 -128q51 -51 127 -51z" />
    <glyph glyph-name="ydieresis" unicode="&#xff;" horiz-adv-x="515" 
d="M198 581q-15 -15 -37 -15t-38 15q-15 16 -15 38t15 37q16 15 38 15t37 -15t15 -37t-15 -38zM388 581q-15 -15 -37 -15t-38 15q-15 16 -15 38t15 37q16 15 38 15t37 -15t15 -37t-15 -38zM271 108l144 392h93l-204 -531q-33 -85 -90.5 -129.5t-131.5 -39.5v81
q92 -7 135 102l9 19l-218 498h93z" />
    <glyph glyph-name="Amacron" unicode="&#x100;" horiz-adv-x="643" 
d="M186 848h270v-73h-270v73zM635 0h-99l-57 157h-315l-57 -157h-99l261 700h105zM321 589l-125 -345h251z" />
    <glyph glyph-name="amacron" unicode="&#x101;" 
d="M171 648h270v-73h-270v73zM480 414v86h87v-500h-87v86q-64 -99 -189 -99q-106 0 -179 76q-74 77 -74 187q0 109 74 186t179 77q125 0 189 -99zM302 71q76 0 127 51q51 53 51 128q0 76 -51 127q-51 52 -127 52q-75 0 -126 -52q-51 -51 -51 -127q0 -75 51 -128
q51 -51 126 -51z" />
    <glyph glyph-name="Abreve" unicode="&#x102;" horiz-adv-x="643" 
d="M321 757q-69 0 -109 36t-40 99h81q0 -65 68 -65t68 65h81q0 -64 -39.5 -99.5t-109.5 -35.5zM635 0h-99l-57 157h-315l-57 -157h-99l261 700h105zM321 589l-125 -345h251z" />
    <glyph glyph-name="abreve" unicode="&#x103;" 
d="M306 557q-69 0 -109 36t-40 99h81q0 -65 68 -65t68 65h81q0 -64 -39.5 -99.5t-109.5 -35.5zM480 414v86h87v-500h-87v86q-64 -99 -189 -99q-106 0 -179 76q-74 77 -74 187q0 109 74 186t179 77q125 0 189 -99zM302 71q76 0 127 51q51 53 51 128q0 76 -51 127
q-51 52 -127 52q-75 0 -126 -52q-51 -51 -51 -127q0 -75 51 -128q51 -51 126 -51z" />
    <glyph glyph-name="Aogonek" unicode="&#x104;" horiz-adv-x="643" 
d="M567 -114q0 -30 31 -30q19 0 37 8v-64q-30 -13 -66 -13q-40 0 -63.5 21.5t-23.5 58.5q0 62 70 133h-16l-57 157h-315l-57 -157h-99l261 700h105l261 -700q-68 -65 -68 -114zM321 589l-125 -345h251z" />
    <glyph glyph-name="aogonek" unicode="&#x105;" 
d="M567 500v-500q-69 -66 -69 -114q0 -30 31 -30q20 0 38 8v-64q-32 -13 -67 -13q-40 0 -63 21.5t-23 58.5q0 59 66 136v83q-64 -99 -189 -99q-106 0 -179 76q-74 77 -74 187q0 109 74 186t179 77q125 0 189 -99v86h87zM302 71q76 0 127 51q51 53 51 128q0 76 -51 127
q-51 52 -127 52q-75 0 -126 -52q-51 -51 -51 -127q0 -75 51 -128q51 -51 126 -51z" />
    <glyph glyph-name="Cacute" unicode="&#x106;" horiz-adv-x="739" 
d="M344 771l80 132h105l-101 -132h-84zM404 -13q97 0 177 46q81 47 125 125l-81 46q-30 -57 -89.5 -91.5t-131.5 -34.5q-122 0 -198 78q-76 77 -76 194q0 118 76 195q76 78 198 78q72 0 131.5 -34.5t89.5 -92.5l81 47q-45 78 -126 124t-176 46q-160 0 -263 -105
q-103 -104 -103 -258t103 -258q103 -105 263 -105z" />
    <glyph glyph-name="cacute" unicode="&#x107;" horiz-adv-x="547" 
d="M233 568l80 132h105l-101 -132h-84zM301 -13q72 0 132 35t93 95l-74 43q-21 -40 -61 -63.5t-90 -23.5q-75 0 -126 51q-50 52 -50 126q0 75 50 127q51 51 126 51q50 0 89.5 -24t58.5 -64l73 42q-29 60 -88 95.5t-133 35.5q-113 0 -188 -76q-75 -75 -75 -187t75 -188
q75 -75 188 -75z" />
    <glyph glyph-name="Cdotaccent" unicode="&#x10a;" horiz-adv-x="739" 
d="M466 829q0 -25 -18 -43.5t-44 -18.5t-44.5 18t-18.5 44t18.5 44.5t44.5 18.5t44 -18.5t18 -44.5zM404 -13q-160 0 -263 105q-103 104 -103 258t103 258q103 105 263 105q95 0 176 -46t126 -124l-81 -47q-30 58 -89.5 92.5t-131.5 34.5q-122 0 -198 -78q-76 -77 -76 -195
q0 -117 76 -194q76 -78 198 -78q72 0 131.5 34.5t89.5 91.5l81 -46q-44 -78 -125 -125q-80 -46 -177 -46z" />
    <glyph glyph-name="cdotaccent" unicode="&#x10b;" horiz-adv-x="547" 
d="M293 564q-26 0 -44.5 18t-18.5 44t18.5 44.5t44.5 18.5t44 -18.5t18 -44.5t-18.5 -44t-43.5 -18zM301 -13q-113 0 -188 75q-75 76 -75 188t75 187q75 76 188 76q74 0 133 -35.5t88 -95.5l-73 -42q-19 40 -58.5 64t-89.5 24q-75 0 -126 -51q-50 -52 -50 -127
q0 -74 50 -126q51 -51 126 -51q50 0 90 23.5t61 63.5l74 -43q-33 -60 -93 -95t-132 -35z" />
    <glyph glyph-name="Ccaron" unicode="&#x10c;" horiz-adv-x="739" 
d="M451 768h-96l-106 135h93l61 -81l61 81h93zM404 78q72 0 131.5 34.5t89.5 91.5l81 -46q-44 -78 -125 -125q-80 -46 -177 -46q-160 0 -263 105q-103 104 -103 258t103 258q103 105 263 105q95 0 176 -46t126 -124l-81 -47q-30 58 -89.5 92.5t-131.5 34.5q-122 0 -198 -78
q-76 -77 -76 -195q0 -117 76 -194q76 -78 198 -78z" />
    <glyph glyph-name="ccaron" unicode="&#x10d;" horiz-adv-x="547" 
d="M340 565h-96l-106 135h93l61 -81l61 81h93zM452 160l74 -43q-33 -60 -93 -95t-132 -35q-113 0 -188 75q-75 76 -75 188t75 187q75 76 188 76q74 0 133 -35.5t88 -95.5l-73 -42q-19 40 -58.5 64t-89.5 24q-75 0 -126 -51q-50 -52 -50 -127q0 -74 50 -126q51 -51 126 -51
q50 0 90 23.5t61 63.5z" />
    <glyph glyph-name="Dcaron" unicode="&#x10e;" horiz-adv-x="718" 
d="M392 765h-96l-106 135h93l61 -81l61 81h93zM75 700h273q142 0 237 -102q95 -101 95 -248q0 -146 -95 -249q-95 -101 -237 -101h-273v700zM168 88h180q107 0 175 75q68 76 68 187t-68 187q-68 75 -175 75h-180v-524z" />
    <glyph glyph-name="dcaron" unicode="&#x10f;" horiz-adv-x="713" 
d="M480 414v286h87v-700h-87v86q-64 -99 -189 -99q-106 0 -179 76q-74 77 -74 187q0 109 74 186t179 77q125 0 189 -99zM629 520l10 180h84l-30 -180h-64zM302 71q76 0 127 51q51 53 51 128q0 76 -51 127q-51 52 -127 52q-75 0 -126 -52q-51 -51 -51 -127q0 -75 51 -128
q51 -51 126 -51z" />
    <glyph glyph-name="Dcroat" unicode="&#x110;" horiz-adv-x="743" 
d="M100 700h273q143 0 237 -102q95 -101 95 -248q0 -146 -95 -249q-95 -101 -237 -101h-273v306h-73v84h73v310zM193 88h180q107 0 175 75q68 76 68 187t-68 187q-68 75 -175 75h-180v-222h199v-84h-199v-218z" />
    <glyph glyph-name="dslash" unicode="&#x111;" horiz-adv-x="642" 
d="M567 633h67v-64h-67v-569h-87v86q-64 -99 -189 -99q-106 0 -179 76q-74 77 -74 187q0 109 74 186t179 77q125 0 189 -99v155h-173v64h173v67h87v-67zM302 71q76 0 127 51q51 53 51 128q0 76 -51 127q-51 52 -127 52q-75 0 -126 -52q-51 -51 -51 -127q0 -75 51 -128
q51 -51 126 -51z" />
    <glyph glyph-name="Emacron" unicode="&#x112;" horiz-adv-x="530" 
d="M147 848h270v-73h-270v73zM168 310v-222h325v-88h-418v700h413v-88h-320v-215h295v-87h-295z" />
    <glyph glyph-name="emacron" unicode="&#x113;" horiz-adv-x="583" 
d="M159 649h270v-73h-270v73zM546 210h-419q13 -66 61 -103.5t120 -37.5q99 0 144 73l74 -42q-74 -113 -220 -113q-118 0 -194 74q-74 76 -74 189q0 114 73 188q73 75 189 75q110 0 179 -78q70 -76 70 -186q0 -19 -3 -39zM300 431q-69 0 -115.5 -39t-57.5 -106h334
q-11 69 -55 107t-106 38z" />
    <glyph glyph-name="Edotaccent" unicode="&#x116;" horiz-adv-x="530" 
d="M326 782q-18 -18 -44 -18t-45 18q-18 18 -18 44t18 44q19 19 45 19t44 -19q18 -18 18 -44t-18 -44zM168 310v-222h325v-88h-418v700h413v-88h-320v-215h295v-87h-295z" />
    <glyph glyph-name="edotaccent" unicode="&#x117;" horiz-adv-x="583" 
d="M356 627q0 -25 -18 -43.5t-44 -18.5t-44.5 18t-18.5 44t18.5 44.5t44.5 18.5t44 -18.5t18 -44.5zM546 210h-419q13 -66 61 -103.5t120 -37.5q99 0 144 73l74 -42q-74 -113 -220 -113q-118 0 -194 74q-74 76 -74 189q0 114 73 188q73 75 189 75q110 0 179 -78
q70 -76 70 -186q0 -19 -3 -39zM300 431q-69 0 -115.5 -39t-57.5 -106h334q-11 69 -55 107t-106 38z" />
    <glyph glyph-name="Eogonek" unicode="&#x118;" horiz-adv-x="530" 
d="M493 88v-88q-68 -65 -68 -114q-1 -15 7 -22.5t24 -7.5q19 0 37 8v-64q-30 -13 -66 -13q-41 0 -64 21.5t-23 58.5q0 63 70 133h-335v700h413v-88h-320v-215h295v-87h-295v-222h325z" />
    <glyph glyph-name="eogonek" unicode="&#x119;" horiz-adv-x="583" 
d="M546 210h-419q13 -66 61 -103.5t120 -37.5q99 0 144 73l74 -42q-15 -22 -39 -46q-105 -116 -105 -168q0 -30 31 -30q19 0 37 8v-64q-30 -13 -66 -13q-40 0 -63 21.5t-23 58.5q0 62 64 125q-33 -5 -56 -5q-118 0 -194 74q-74 76 -74 189q0 114 73 188q73 75 189 75
q110 0 179 -78q70 -76 70 -186q0 -19 -3 -39zM300 431q-69 0 -115.5 -39t-57.5 -106h334q-11 69 -55 107t-106 38z" />
    <glyph glyph-name="Ecaron" unicode="&#x11a;" horiz-adv-x="530" 
d="M329 765h-96l-106 135h93l61 -81l61 81h93zM168 310v-222h325v-88h-418v700h413v-88h-320v-215h295v-87h-295z" />
    <glyph glyph-name="ecaron" unicode="&#x11b;" horiz-adv-x="583" 
d="M341 566h-96l-106 135h93l61 -81l61 81h93zM546 210h-419q13 -66 61 -103.5t120 -37.5q99 0 144 73l74 -42q-74 -113 -220 -113q-118 0 -194 74q-74 76 -74 189q0 114 73 188q73 75 189 75q110 0 179 -78q70 -76 70 -186q0 -19 -3 -39zM300 431q-69 0 -115.5 -39
t-57.5 -106h334q-11 69 -55 107t-106 38z" />
    <glyph glyph-name="Gbreve" unicode="&#x11e;" horiz-adv-x="788" 
d="M394 760q-69 0 -109 36t-40 99h81q0 -65 68 -65t68 65h81q0 -64 -39.5 -99.5t-109.5 -35.5zM400 347h350v-42q0 -137 -94 -228q-94 -90 -249 -90q-160 0 -265 105q-104 107 -104 258t104 257q105 106 263 106q96 0 178 -47q83 -47 125 -122l-80 -47q-30 57 -91 91.5
t-133 34.5q-121 0 -197 -79q-77 -79 -77 -194t77 -194q78 -78 201 -78q103 0 168.5 50.5t80.5 134.5h-257v84z" />
    <glyph glyph-name="gbreve" unicode="&#x11f;" 
d="M304 560q-69 0 -109 36t-40 99h81q0 -65 68 -65t68 65h81q0 -64 -39.5 -99.5t-109.5 -35.5zM481 414v86h86v-479q0 -111 -75 -172q-76 -62 -180 -62q-84 0 -145 31.5t-92 90.5l76 43q41 -84 163 -84q78 0 122.5 41t44.5 112v71q-66 -100 -188 -100q-108 0 -181 76
q-74 77 -74 185t74 184q73 76 181 76q123 0 188 -99zM481 253q0 75 -51 126t-127 51t-127 -51t-51 -126q0 -76 51 -127t127 -51t127 51t51 127z" />
    <glyph glyph-name="Gdotaccent" unicode="&#x120;" horiz-adv-x="788" 
d="M456 829q0 -25 -18 -43.5t-44 -18.5t-44.5 18t-18.5 44t18.5 44.5t44.5 18.5t44 -18.5t18 -44.5zM400 347h350v-42q0 -137 -94 -228q-94 -90 -249 -90q-160 0 -265 105q-104 107 -104 258t104 257q105 106 263 106q96 0 178 -47q83 -47 125 -122l-80 -47q-30 57 -91 91.5
t-133 34.5q-121 0 -197 -79q-77 -79 -77 -194t77 -194q78 -78 201 -78q103 0 168.5 50.5t80.5 134.5h-257v84z" />
    <glyph glyph-name="gdotaccent" unicode="&#x121;" 
d="M366 629q0 -25 -18 -43.5t-44 -18.5t-44.5 18t-18.5 44t18.5 44.5t44.5 18.5t44 -18.5t18 -44.5zM481 414v86h86v-479q0 -111 -75 -172q-76 -62 -180 -62q-84 0 -145 31.5t-92 90.5l76 43q41 -84 163 -84q78 0 122.5 41t44.5 112v71q-66 -100 -188 -100q-108 0 -181 76
q-74 77 -74 185t74 184q73 76 181 76q123 0 188 -99zM481 253q0 75 -51 126t-127 51t-127 -51t-51 -126q0 -76 51 -127t127 -51t127 51t51 127z" />
    <glyph glyph-name="Gcommaaccent" unicode="&#x122;" horiz-adv-x="788" 
d="M400 347h350v-42q0 -137 -94 -228q-94 -90 -249 -90q-160 0 -265 105q-104 107 -104 258t104 257q105 106 263 106q96 0 178 -47q83 -47 125 -122l-80 -47q-30 57 -91 91.5t-133 34.5q-121 0 -197 -79q-77 -79 -77 -194t77 -194q78 -78 201 -78q103 0 168.5 50.5
t80.5 134.5h-257v84zM435 -248h-65l10 180h85z" />
    <glyph glyph-name="gcommaaccent" unicode="&#x123;" 
d="M285 768h65l-10 -180h-85zM481 414v86h86v-479q0 -111 -75 -172q-76 -62 -180 -62q-84 0 -145 31.5t-92 90.5l76 43q41 -84 163 -84q78 0 122.5 41t44.5 112v71q-66 -100 -188 -100q-108 0 -181 76q-74 77 -74 185t74 184q73 76 181 76q123 0 188 -99zM481 253
q0 75 -51 126t-127 51t-127 -51t-51 -126q0 -76 51 -127t127 -51t127 51t51 127z" />
    <glyph glyph-name="Hbar" unicode="&#x126;" horiz-adv-x="723" 
d="M624 579h64v-71h-64v-508h-93v309h-340v-309h-92v508h-64v71h64v121h92v-121h340v121h93v-121zM191 397h340v111h-340v-111z" />
    <glyph glyph-name="hbar" unicode="&#x127;" horiz-adv-x="573" 
d="M324 513q88 0 141 -55.5t53 -150.5v-307h-87v302q0 60 -33 94t-91 34q-67 0 -106 -41.5t-39 -123.5v-265h-87v569h-67v64h67v67h87v-67h143v-64h-143v-141q52 85 162 85z" />
    <glyph glyph-name="Imacron" unicode="&#x12a;" horiz-adv-x="243" 
d="M256 775h-270v73h270v-73zM75 0v700h93v-700h-93z" />
    <glyph glyph-name="imacron" unicode="&#x12b;" horiz-adv-x="220" 
d="M215 575h-210v76h210v-76zM153 0h-87v500h87v-500z" />
    <glyph glyph-name="Iogonek" unicode="&#x12e;" horiz-adv-x="243" 
d="M157 -144q20 0 38 8v-64q-32 -13 -67 -13q-40 0 -63 21.5t-23 58.5q0 57 40 133h-7v700h93v-700q-42 -75 -42 -114q0 -30 31 -30z" />
    <glyph glyph-name="iogonek" unicode="&#x12f;" horiz-adv-x="220" 
d="M110 591q-25 0 -42 17t-17 41t17 41.5t42 17.5q24 0 41 -17.5t17 -41.5t-17 -41t-41 -17zM146 -144q19 0 37 8v-64q-32 -13 -66 -13q-39 0 -63 24.5t-24 63.5q0 51 39 125h-3v500h87v-500q-38 -62 -38 -107q-1 -15 7.5 -26t23.5 -11z" />
    <glyph glyph-name="Idot" unicode="&#x130;" horiz-adv-x="243" 
d="M121 764q-26 0 -44.5 18t-18.5 44t18.5 44.5t44.5 18.5t44 -18.5t18 -44.5t-18.5 -44t-43.5 -18zM75 0v700h93v-700h-93z" />
    <glyph glyph-name="dotlessi" unicode="&#x131;" horiz-adv-x="220" 
d="M153 0h-87v500h87v-500z" />
    <glyph glyph-name="Kcommaaccent" unicode="&#x136;" horiz-adv-x="592" 
d="M574 700l-309 -340l319 -360h-114l-302 336v-336h-93v700h93v-316l292 316h114zM322 -248h-65l10 180h85z" />
    <glyph glyph-name="kcommaaccent" unicode="&#x137;" horiz-adv-x="504" 
d="M481 500l-239 -242l247 -258h-108l-228 237v-237h-87v700h87v-421l216 221h112zM285 -248h-65l10 180h85z" />
    <glyph glyph-name="Lacute" unicode="&#x139;" horiz-adv-x="488" 
d="M157 900h105l-101 -132h-84zM168 700v-612h302v-88h-395v700h93z" />
    <glyph glyph-name="lacute" unicode="&#x13a;" horiz-adv-x="220" 
d="M66 768l80 132h105l-101 -132h-84zM66 0h87v730h-87v-730z" />
    <glyph glyph-name="Lcommaaccent" unicode="&#x13b;" horiz-adv-x="488" 
d="M168 700v-612h302v-88h-395v700h93zM296 -248h-65l10 180h85z" />
    <glyph glyph-name="lcommaaccent" unicode="&#x13c;" horiz-adv-x="220" 
d="M153 0h-87v730h87v-730zM124 -248h-65l10 180h85z" />
    <glyph glyph-name="Lcaron" unicode="&#x13d;" horiz-adv-x="488" 
d="M168 700v-612h302v-88h-395v700h93zM270 700h87l-30 -175h-67z" />
    <glyph glyph-name="lcaron" unicode="&#x13e;" horiz-adv-x="299" 
d="M153 0h-87v730h87v-730zM279 550h-64l10 180h84z" />
    <glyph glyph-name="Lslash" unicode="&#x141;" horiz-adv-x="508" 
d="M188 288v-200h302v-88h-395v233l-60 -35v88l60 35v379h93v-324l157 93v-88z" />
    <glyph glyph-name="lslash" unicode="&#x142;" horiz-adv-x="248" 
d="M167 427l63 43v-83l-63 -43v-344h-87v284l-62 -42v83l62 42v363h87v-303z" />
    <glyph glyph-name="Nacute" unicode="&#x143;" horiz-adv-x="678" 
d="M276 768l80 132h105l-101 -132h-84zM510 700v-522l-360 522h-75v-700h93v523l360 -523h75v700h-93z" />
    <glyph glyph-name="nacute" unicode="&#x144;" horiz-adv-x="564" 
d="M313 703h105l-101 -132h-84zM315 513q88 0 141 -55.5t53 -150.5v-307h-87v302q0 60 -33 94t-91 34q-67 0 -106 -41.5t-39 -123.5v-265h-87v500h87v-72q52 85 162 85z" />
    <glyph glyph-name="Ncommaaccent" unicode="&#x145;" horiz-adv-x="678" 
d="M510 178v522h93v-700h-75l-360 523v-523h-93v700h75zM354 -248h-65l10 180h85z" />
    <glyph glyph-name="ncommaaccent" unicode="&#x146;" horiz-adv-x="564" 
d="M315 513q88 0 141 -55.5t53 -150.5v-307h-87v302q0 60 -33 94t-91 34q-67 0 -106 -41.5t-39 -123.5v-265h-87v500h87v-72q52 85 162 85zM308 -248h-65l10 180h85z" />
    <glyph glyph-name="Ncaron" unicode="&#x147;" horiz-adv-x="678" 
d="M383 765h-96l-106 135h93l61 -81l61 81h93zM510 178v522h93v-700h-75l-360 523v-523h-93v700h75z" />
    <glyph glyph-name="ncaron" unicode="&#x148;" horiz-adv-x="564" 
d="M340 568h-96l-106 135h93l61 -81l61 81h93zM315 513q88 0 141 -55.5t53 -150.5v-307h-87v302q0 60 -33 94t-91 34q-67 0 -106 -41.5t-39 -123.5v-265h-87v500h87v-72q52 85 162 85z" />
    <glyph glyph-name="Eng" unicode="&#x14a;" horiz-adv-x="678" 
d="M510 178v522h93v-700q0 -103 -57.5 -152.5t-160.5 -47.5v87q65 0 95 25t30 91v23l-342 497v-523h-93v700h75z" />
    <glyph glyph-name="eng" unicode="&#x14b;" horiz-adv-x="564" 
d="M315 513q88 0 141 -55.5t53 -150.5v-337q0 -95 -49 -142.5t-141 -40.5v84q52 -5 77.5 18.5t25.5 80.5v332q0 60 -33 94t-91 34q-67 0 -106 -41.5t-39 -123.5v-265h-87v500h87v-72q52 85 162 85z" />
    <glyph glyph-name="Omacron" unicode="&#x14c;" horiz-adv-x="800" 
d="M535 778h-270v73h270v-73zM38 350q0 152 105 257q105 106 257 106t257 -106q106 -105 106 -257q0 -151 -106 -257q-105 -106 -257 -106t-257 106q-105 107 -105 257zM670 350q0 116 -78 194q-76 79 -192 79q-115 0 -193 -79q-77 -79 -77 -194q0 -114 77 -194
q78 -78 193 -78q116 0 192 78q78 80 78 194z" />
    <glyph glyph-name="omacron" unicode="&#x14d;" horiz-adv-x="602" 
d="M436 578h-270v73h270v-73zM488 63q-76 -76 -187 -76t-187 76t-76 187t76 187t187 76t187 -76q77 -77 77 -187t-77 -187zM301 72q75 0 126 51t51 127t-51 127t-126 51q-74 0 -125 -51t-51 -127t51 -127t125 -51z" />
    <glyph glyph-name="Ohungarumlaut" unicode="&#x150;" horiz-adv-x="800" 
d="M255 768l73 133h94l-79 -133h-88zM408 768l83 133h94l-89 -133h-88zM38 350q0 -150 105 -257q105 -106 257 -106t257 106q106 106 106 257q0 152 -106 257q-105 106 -257 106t-257 -106q-105 -105 -105 -257zM670 350q0 -114 -78 -194q-76 -78 -192 -78q-115 0 -193 78
q-77 80 -77 194q0 115 77 194q78 79 193 79q116 0 192 -79q78 -78 78 -194z" />
    <glyph glyph-name="ohungarumlaut" unicode="&#x151;" horiz-adv-x="602" 
d="M156 568l73 133h94l-79 -133h-88zM309 568l83 133h94l-89 -133h-88zM488 63q77 77 77 187t-77 187q-76 76 -187 76t-187 -76t-76 -187t76 -187t187 -76t187 76zM301 72q-74 0 -125 51t-51 127t51 127t125 51q75 0 126 -51t51 -127t-51 -127t-126 -51z" />
    <glyph glyph-name="OE" unicode="&#x152;" horiz-adv-x="915" 
d="M578 310v-222h300v-88h-393q-45 -13 -95 -13q-152 0 -252 105q-100 106 -100 258q0 154 100 258q100 105 252 105q50 0 95 -13h388v-88h-295v-215h277v-87h-277zM485 93v515q-43 15 -95 15q-114 0 -187 -78q-73 -77 -73 -195q0 -117 73 -194q73 -78 187 -78q54 0 95 15z
" />
    <glyph glyph-name="oe" unicode="&#x153;" horiz-adv-x="1023" 
d="M986 210h-419q12 -66 60.5 -103.5t118.5 -37.5q101 0 146 73l74 -42q-72 -113 -218 -113q-78 0 -137.5 35.5t-89.5 99.5q-31 -63 -89 -99t-132 -36q-113 0 -188 75q-74 77 -74 188t74 187q75 76 188 76q74 0 132 -36t89 -99q31 63 88.5 99t133.5 36q109 0 177 -78
q69 -77 69 -186q0 -19 -3 -39zM740 431q-69 0 -115.5 -39t-57.5 -105h334q-11 68 -55 106t-106 38zM301 72q75 0 126 51t51 127t-51 127t-126 51q-77 0 -127 -51q-49 -50 -49 -127t49 -127q49 -51 127 -51z" />
    <glyph glyph-name="Racute" unicode="&#x154;" horiz-adv-x="611" 
d="M325 900h105l-101 -132h-84zM593 0h-103l-157 268h-165v-268h-93v700h280q90 0 154 -64q64 -63 64 -153q0 -68 -41 -124q-42 -57 -104 -79zM355 613h-187v-261h187q52 0 88 38q37 38 37 93t-37 92q-36 38 -88 38z" />
    <glyph glyph-name="racute" unicode="&#x155;" horiz-adv-x="328" 
d="M206 700h105l-101 -132h-84zM153 500v-84q43 93 156 93v-91q-64 3 -110 -34t-46 -119v-265h-87v500h87z" />
    <glyph glyph-name="Rcommaaccent" unicode="&#x156;" horiz-adv-x="611" 
d="M428 280l165 -280h-103l-157 268h-165v-268h-93v700h280q90 0 154 -64q64 -63 64 -153q0 -68 -41 -124q-42 -57 -104 -79zM355 613h-187v-261h187q52 0 88 38q37 38 37 93t-37 92q-36 38 -88 38zM343 -248h-65l10 180h85z" />
    <glyph glyph-name="rcommaaccent" unicode="&#x157;" horiz-adv-x="328" 
d="M153 500v-84q43 93 156 93v-91q-64 3 -110 -34t-46 -119v-265h-87v500h87zM124 -248h-65l10 180h85z" />
    <glyph glyph-name="Rcaron" unicode="&#x158;" horiz-adv-x="611" 
d="M352 765h-96l-106 135h93l61 -81l61 81h93zM593 0h-103l-157 268h-165v-268h-93v700h280q90 0 154 -64q64 -63 64 -153q0 -68 -41 -124q-42 -57 -104 -79zM355 613h-187v-261h187q52 0 88 38q37 38 37 93t-37 92q-36 38 -88 38z" />
    <glyph glyph-name="rcaron" unicode="&#x159;" horiz-adv-x="328" 
d="M233 565h-96l-106 135h93l61 -81l61 81h93zM153 500v-84q43 93 156 93v-91q-64 3 -110 -34t-46 -119v-265h-87v500h87z" />
    <glyph glyph-name="Sacute" unicode="&#x15a;" horiz-adv-x="578" 
d="M226 771l80 132h105l-101 -132h-84zM301 -13q107 0 175 54q67 55 67 147q0 70 -35 105q-27 31 -54 46q-38 21 -70 33q-3 1 -37 14l-41 13q-80 25 -114 50q-33 24 -33 70q0 48 35 76t92 28q114 0 159 -108l78 45q-31 71 -93 112t-144 41q-92 0 -156 -54q-64 -52 -64 -144
q0 -69 44 -117q16 -18 51 -36q36 -17 58 -26l67 -22q93 -30 127 -53q38 -26 38 -75q0 -50 -38.5 -79t-109.5 -29q-147 0 -187 127l-80 -46q28 -81 97.5 -126.5t167.5 -45.5z" />
    <glyph glyph-name="sacute" unicode="&#x15b;" horiz-adv-x="458" 
d="M250 703h105l-101 -132h-84zM141 365q0 -48 99 -75q37 -8 62.5 -16.5t56 -25.5t46.5 -45t16 -66q0 -68 -53 -109t-134 -41q-72 0 -124.5 31.5t-74.5 85.5l75 43q12 -36 45 -57t79 -21q45 0 72 17t27 51q0 51 -99 74q-33 9 -50 14t-46.5 18t-44.5 27.5t-27.5 39
t-12.5 54.5q0 65 50 107q51 42 127 42q61 0 108.5 -27.5t71.5 -76.5l-73 -41q-27 64 -107 64q-38 0 -63.5 -18t-25.5 -49z" />
    <glyph glyph-name="Scedilla" unicode="&#x15e;" horiz-adv-x="578" 
d="M543 188q0 -84 -57.5 -138t-154.5 -62v-33q39 -8 62 -29.5t23 -50.5q0 -103 -210 -91v66q134 -11 134 31q0 31 -83 36v73q-82 10 -139 54t-82 115l80 46q40 -127 187 -127q71 0 109.5 29t38.5 79q0 49 -38 75q-34 23 -127 53l-67 22q-22 9 -58 26q-35 18 -51 36
q-44 48 -44 117q0 92 64 144q64 54 156 54q82 0 144 -41t93 -112l-78 -45q-45 108 -159 108q-57 0 -92 -28t-35 -76q0 -46 33 -70q34 -25 114 -50l41 -13q34 -13 37 -14q32 -12 70 -33q27 -15 54 -46q35 -35 35 -105z" />
    <glyph glyph-name="scedilla" unicode="&#x15f;" horiz-adv-x="458" 
d="M421 137q0 -60 -40.5 -99.5t-109.5 -48.5v-34q39 -8 62 -29.5t23 -50.5q0 -103 -210 -91v66q134 -11 134 31q0 31 -83 36v72q-121 16 -162 115l75 43q12 -36 45 -57t79 -21q45 0 72 17t27 51q0 51 -99 74q-33 9 -50 14t-46.5 18t-44.5 27.5t-27.5 39t-12.5 54.5
q0 65 50 107q51 42 127 42q61 0 108.5 -27.5t71.5 -76.5l-73 -41q-27 64 -107 64q-38 0 -63.5 -18t-25.5 -49q0 -48 99 -75q37 -8 62.5 -16.5t56 -25.5t46.5 -45t16 -66z" />
    <glyph glyph-name="Scaron" unicode="&#x160;" horiz-adv-x="578" 
d="M333 768h-96l-106 135h93l61 -81l61 81h93zM306 399l41 -13q34 -13 37 -14q32 -12 70 -33q27 -15 54 -46q35 -35 35 -105q0 -92 -67 -147q-68 -54 -175 -54q-98 0 -167.5 45.5t-97.5 126.5l80 46q40 -127 187 -127q71 0 109.5 29t38.5 79q0 49 -38 75q-34 23 -127 53
l-67 22q-22 9 -58 26q-35 18 -51 36q-44 48 -44 117q0 92 64 144q64 54 156 54q82 0 144 -41t93 -112l-78 -45q-45 108 -159 108q-57 0 -92 -28t-35 -76q0 -46 33 -70q34 -25 114 -50z" />
    <glyph glyph-name="scaron" unicode="&#x161;" horiz-adv-x="458" 
d="M277 568h-96l-106 135h93l61 -81l61 81h93zM141 365q0 -48 99 -75q37 -8 62.5 -16.5t56 -25.5t46.5 -45t16 -66q0 -68 -53 -109t-134 -41q-72 0 -124.5 31.5t-74.5 85.5l75 43q12 -36 45 -57t79 -21q45 0 72 17t27 51q0 51 -99 74q-33 9 -50 14t-46.5 18t-44.5 27.5
t-27.5 39t-12.5 54.5q0 65 50 107q51 42 127 42q61 0 108.5 -27.5t71.5 -76.5l-73 -41q-27 64 -107 64q-38 0 -63.5 -18t-25.5 -49z" />
    <glyph glyph-name="uni0162" unicode="&#x162;" horiz-adv-x="540" 
d="M18 700h505v-88h-207v-612h-92v612h-206v88zM285 -248h-65l10 180h85z" />
    <glyph glyph-name="uni0163" unicode="&#x163;" horiz-adv-x="378" 
d="M338 500v-84h-133v-271q0 -37 14.5 -52.5t44.5 -16t74 1.5v-78q-115 -15 -167.5 19t-52.5 126v271h-99v84h99v114l87 26v-140h133zM248 -248h-65l10 180h85z" />
    <glyph glyph-name="Tcaron" unicode="&#x164;" horiz-adv-x="540" 
d="M317 765h-96l-106 135h93l61 -81l61 81h93zM18 700h505v-88h-207v-612h-92v612h-206v88z" />
    <glyph glyph-name="tcaron" unicode="&#x165;" horiz-adv-x="385" 
d="M266 719h85l-30 -168h-65zM118 614l87 26v-140h133v-84h-133v-271q0 -37 14.5 -52.5t44.5 -16t74 1.5v-78q-115 -15 -167.5 19t-52.5 126v271h-99v84h99v114z" />
    <glyph glyph-name="Tbar" unicode="&#x166;" horiz-adv-x="540" 
d="M523 700v-88h-207v-222h137v-84h-137v-306h-92v306h-136v84h136v222h-206v88h505z" />
    <glyph glyph-name="tbar" unicode="&#x167;" horiz-adv-x="378" 
d="M338 500v-84h-133v-124h91v-70h-91v-77q0 -37 14.5 -52.5t44.5 -16t74 1.5v-78q-115 -15 -167.5 19t-52.5 126v77h-64v70h64v124h-99v84h99v114l87 26v-140h133z" />
    <glyph glyph-name="Umacron" unicode="&#x16a;" horiz-adv-x="658" 
d="M464 775h-270v73h270v-73zM66 235v465h93v-461q0 -75 44.5 -118t125.5 -43t125.5 43t44.5 118v461h92v-465q0 -114 -73 -181t-189 -67q-117 0 -190 67t-73 181z" />
    <glyph glyph-name="umacron" unicode="&#x16b;" horiz-adv-x="564" 
d="M140 648h270v-73h-270v73zM411 235v265h87v-500h-87v72q-52 -85 -162 -85q-88 0 -141 55.5t-53 150.5v307h87v-302q0 -60 33 -94t91 -34q67 0 106 41.5t39 123.5z" />
    <glyph glyph-name="Uring" unicode="&#x16e;" horiz-adv-x="658" 
d="M410 746q-32 -30 -81 -30q-51 0 -82 30q-31 31 -31 77t31 76t82 30q49 0 81 -30t32 -76q0 -45 -32 -77zM329 777q30 -2 42.5 22t0 48t-42.5 21q-21 0 -34 -13t-13 -32q0 -21 13 -33.5t34 -12.5zM66 235v465h93v-461q0 -75 44.5 -118t125.5 -43t125.5 43t44.5 118v461h92
v-465q0 -114 -73 -181t-189 -67q-117 0 -190 67t-73 181z" />
    <glyph glyph-name="uring" unicode="&#x16f;" horiz-adv-x="564" 
d="M356 576q-32 -30 -81 -30q-51 0 -82 30q-31 31 -31 77t31 76q32 30 82 30q49 0 81 -30t32 -76q0 -45 -32 -77zM275 698q-21 0 -34 -13t-13 -32q0 -21 13 -33.5t34 -12.5q30 -2 42.5 22t0 48t-42.5 21zM411 235v265h87v-500h-87v72q-52 -85 -162 -85q-88 0 -141 55.5
t-53 150.5v307h87v-302q0 -60 33 -94t91 -34q67 0 106 41.5t39 123.5z" />
    <glyph glyph-name="Uhungarumlaut" unicode="&#x170;" horiz-adv-x="658" 
d="M184 765l73 133h94l-79 -133h-88zM337 765l83 133h94l-89 -133h-88zM66 235q0 -114 73 -181t190 -67q116 0 189 67t73 181v465h-92v-461q0 -75 -44.5 -118t-125.5 -43t-125.5 43t-44.5 118v461h-93v-465z" />
    <glyph glyph-name="uhungarumlaut" unicode="&#x171;" horiz-adv-x="564" 
d="M203 698h94l-79 -133h-88zM460 698l-89 -133h-88l83 133h94zM411 235v265h87v-500h-87v72q-52 -85 -162 -85q-88 0 -141 55.5t-53 150.5v307h87v-302q0 -60 33 -94t91 -34q67 0 106 41.5t39 123.5z" />
    <glyph glyph-name="Uogonek" unicode="&#x172;" horiz-adv-x="658" 
d="M499 239v461h92v-465q0 -126 -91 -195q-62 -58 -85.5 -91t-23.5 -63q-1 -15 7 -22.5t24 -7.5q19 0 37 8v-64q-30 -13 -66 -13q-41 0 -64 21.5t-23 58.5q0 57 59 122q-30 -2 -36 -2q-117 0 -190 67t-73 181v465h93v-461q0 -75 44.5 -118t125.5 -43t125.5 43t44.5 118z" />
    <glyph glyph-name="uogonek" unicode="&#x173;" horiz-adv-x="564" 
d="M498 500v-500q-68 -65 -68 -114q0 -30 31 -30q19 0 37 8v-64q-30 -13 -66 -13q-40 0 -63.5 21.5t-23.5 58.5q0 53 66 134v71q-52 -85 -162 -85q-88 0 -141 55.5t-53 150.5v307h87v-302q0 -60 33 -94t91 -34q67 0 106 41.5t39 123.5v265h87z" />
    <glyph glyph-name="Wcircumflex" unicode="&#x174;" horiz-adv-x="1000" 
d="M570 765l-61 81l-61 -81h-93l106 135h96l106 -135h-93zM717 124l160 576h98l-201 -700h-108l-166 559l-166 -559h-108l-201 700h98l160 -576l170 576h94z" />
    <glyph glyph-name="wcircumflex" unicode="&#x175;" horiz-adv-x="770" 
d="M445 565l-61 81l-61 -81h-93l106 135h96l106 -135h-93zM545 119l110 381h91l-155 -500h-89l-117 370l-117 -370h-89l-155 500h91l110 -380l118 380h84z" />
    <glyph glyph-name="Ycircumflex" unicode="&#x176;" horiz-adv-x="604" 
d="M359 765l-61 81l-61 -81h-93l106 135h96l106 -135h-93zM492 700h104l-248 -417v-283h-93v284l-247 416h104l190 -328z" />
    <glyph glyph-name="ycircumflex" unicode="&#x177;" horiz-adv-x="515" 
d="M316 565l-61 81l-61 -81h-93l106 135h96l106 -135h-93zM271 108l144 392h93l-204 -531q-33 -85 -90.5 -129.5t-131.5 -39.5v81q92 -7 135 102l9 19l-218 498h93z" />
    <glyph glyph-name="Ydieresis" unicode="&#x178;" horiz-adv-x="604" 
d="M241 781q-15 -15 -37 -15t-38 15q-15 16 -15 38t15 37q16 15 38 15t37 -15t15 -37t-15 -38zM431 781q-15 -15 -37 -15t-38 15q-15 16 -15 38t15 37q16 15 38 15t37 -15t15 -37t-15 -38zM492 700h104l-248 -417v-283h-93v284l-247 416h104l190 -328z" />
    <glyph glyph-name="Zacute" unicode="&#x179;" horiz-adv-x="525" 
d="M288 900h105l-101 -132h-84zM488 620l-339 -532h347v-88h-457v81l338 531h-329v88h440v-80z" />
    <glyph glyph-name="zacute" unicode="&#x17a;" horiz-adv-x="471" 
d="M262 700h105l-101 -132h-84zM423 442l-256 -359h266v-83h-385v58l255 359h-245v83h365v-58z" />
    <glyph glyph-name="Zdotaccent" unicode="&#x17b;" horiz-adv-x="525" 
d="M312 782q-18 -18 -44 -18t-45 18q-18 18 -18 44t18 44q19 19 45 19t44 -19q18 -18 18 -44t-18 -44zM488 620l-339 -532h347v-88h-457v81l338 531h-329v88h440v-80z" />
    <glyph glyph-name="zdotaccent" unicode="&#x17c;" horiz-adv-x="471" 
d="M286 582q-18 -18 -44 -18t-45 18q-18 18 -18 44t18 44q19 19 45 19t44 -19q18 -18 18 -44t-18 -44zM423 442l-256 -359h266v-83h-385v58l255 359h-245v83h365v-58z" />
    <glyph glyph-name="Zcaron" unicode="&#x17d;" horiz-adv-x="525" 
d="M315 765h-96l-106 135h93l61 -81l61 81h93zM488 620l-339 -532h347v-88h-457v81l338 531h-329v88h440v-80z" />
    <glyph glyph-name="zcaron" unicode="&#x17e;" horiz-adv-x="471" 
d="M289 565h-96l-106 135h93l61 -81l61 81h93zM423 442l-256 -359h266v-83h-385v58l255 359h-245v83h365v-58z" />
    <glyph glyph-name="florin" unicode="&#x192;" horiz-adv-x="440" 
d="M440 704v-86q-47 20 -81.5 2.5t-42.5 -66.5l-28 -161h107v-84h-121l-63 -369q-15 -92 -71.5 -128.5t-139.5 -12.5v85q47 -19 81.5 -1.5t42.5 65.5l62 361h-101v84h115l29 169q15 92 71.5 129t139.5 13z" />
    <glyph glyph-name="Scommaaccent" unicode="&#x218;" horiz-adv-x="578" 
d="M301 -13q-98 0 -167.5 45.5t-97.5 126.5l80 46q40 -127 187 -127q71 0 109.5 29t38.5 79q0 49 -38 75q-34 23 -127 53l-67 22q-22 9 -58 26q-35 18 -51 36q-44 48 -44 117q0 92 64 144q64 54 156 54q82 0 144 -41t93 -112l-78 -45q-45 108 -159 108q-57 0 -92 -28
t-35 -76q0 -46 33 -70q34 -25 114 -50l41 -13q34 -13 37 -14q32 -12 70 -33q27 -15 54 -46q35 -35 35 -105q0 -92 -67 -147q-68 -54 -175 -54zM320 -248h-65l10 180h85z" />
    <glyph glyph-name="scommaaccent" unicode="&#x219;" horiz-adv-x="458" 
d="M141 365q0 -48 99 -75q37 -8 62.5 -16.5t56 -25.5t46.5 -45t16 -66q0 -68 -53 -109t-134 -41q-72 0 -124.5 31.5t-74.5 85.5l75 43q12 -36 45 -57t79 -21q45 0 72 17t27 51q0 51 -99 74q-33 9 -50 14t-46.5 18t-44.5 27.5t-27.5 39t-12.5 54.5q0 65 50 107q51 42 127 42
q61 0 108.5 -27.5t71.5 -76.5l-73 -41q-27 64 -107 64q-38 0 -63.5 -18t-25.5 -49zM260 -248h-65l10 180h85z" />
    <glyph glyph-name="uni021A" unicode="&#x21a;" horiz-adv-x="540" 
d="M18 700h505v-88h-207v-612h-92v612h-206v88zM285 -248h-65l10 180h85z" />
    <glyph glyph-name="uni021B" unicode="&#x21b;" horiz-adv-x="378" 
d="M338 500v-84h-133v-271q0 -37 14.5 -52.5t44.5 -16t74 1.5v-78q-115 -15 -167.5 19t-52.5 126v271h-99v84h99v114l87 26v-140h133zM248 -248h-65l10 180h85z" />
    <glyph glyph-name="circumflex" unicode="&#x2c6;" horiz-adv-x="348" 
d="M222 700l106 -135h-93l-61 81l-61 -81h-93l106 135h96z" />
    <glyph glyph-name="caron" unicode="&#x2c7;" horiz-adv-x="348" 
d="M174 619l61 81h93l-106 -135h-96l-106 135h93z" />
    <glyph glyph-name="breve" unicode="&#x2d8;" horiz-adv-x="338" 
d="M169 557q-69 0 -109 36t-40 99h81q0 -65 68 -65t68 65h81q0 -64 -39.5 -99.5t-109.5 -35.5z" />
    <glyph glyph-name="dotaccent" unicode="&#x2d9;" horiz-adv-x="168" 
d="M83 564q-26 0 -44.5 18t-18.5 44t18.5 44.5t44.5 18.5t44 -18.5t18 -44.5t-18.5 -44t-43.5 -18z" />
    <glyph glyph-name="ring" unicode="&#x2da;" horiz-adv-x="266" 
d="M214 576q-32 -30 -81 -30q-51 0 -82 30q-31 31 -31 77t31 76t82 30q49 0 81 -30t32 -76q0 -45 -32 -77zM133 607q30 -2 42.5 22t0 48t-42.5 21q-21 0 -34 -13t-13 -32q0 -21 13 -33.5t34 -12.5z" />
    <glyph glyph-name="ogonek" unicode="&#x2db;" horiz-adv-x="193" 
d="M107 -213q-41 0 -64 21.5t-23 58.5q0 63 70 133h83q-68 -65 -68 -114q-1 -15 7 -22.5t24 -7.5q19 0 37 8v-64q-32 -13 -66 -13z" />
    <glyph glyph-name="tilde" unicode="&#x2dc;" horiz-adv-x="340" 
d="M94 573h-73q0 64 23.5 96.5t58 31t72.5 -28.5q37 -32 54.5 -27.5t17.5 50.5h73q0 -64 -23 -96t-57.5 -30.5t-73.5 28.5q-36 32 -54 27.5t-18 -51.5z" />
    <glyph glyph-name="hungarumlaut" unicode="&#x2dd;" horiz-adv-x="370" 
d="M20 565l73 133h94l-79 -133h-88zM173 565l83 133h94l-89 -133h-88z" />
    <glyph glyph-name="gravecomb" unicode="&#x300;" horiz-adv-x="0" 
d="M-20 568h-84l-101 132h105z" />
    <glyph glyph-name="acutecomb" unicode="&#x301;" horiz-adv-x="0" 
d="M-205 568l80 132h105l-101 -132h-84z" />
    <glyph glyph-name="uni0302" unicode="&#x302;" horiz-adv-x="0" 
d="M-126 700l106 -135h-93l-61 81l-61 -81h-93l106 135h96z" />
    <glyph glyph-name="tildecomb" unicode="&#x303;" horiz-adv-x="0" 
d="M-244 573h-73q0 64 23.5 96.5t58 31t72.5 -28.5q37 -32 54.5 -27.5t17.5 50.5h73q0 -64 -23 -96t-57.5 -30.5t-73.5 28.5q-36 32 -54 27.5t-18 -51.5z" />
    <glyph glyph-name="uni0304" unicode="&#x304;" horiz-adv-x="0" 
d="M-20 575h-270v73h270v-73z" />
    <glyph glyph-name="uni0306" unicode="&#x306;" horiz-adv-x="0" 
d="M-169 557q-69 0 -109 36t-40 99h81q0 -65 68 -65t68 65h81q0 -64 -39.5 -99.5t-109.5 -35.5z" />
    <glyph glyph-name="uni0307" unicode="&#x307;" horiz-adv-x="0" 
d="M-38 582q-18 -18 -44 -18t-44 18q-19 18 -19 44t19 44q18 19 44 19t44 -19q18 -18 18 -44t-18 -44z" />
    <glyph glyph-name="uni0308" unicode="&#x308;" horiz-adv-x="0" 
d="M-225 581q-15 -15 -37 -15t-37 15q-16 16 -16 38t16 37q15 15 37 15t37 -15t15 -37t-15 -38zM-35 581q-15 -15 -37 -15t-37 15q-16 16 -16 38t16 37q15 15 37 15t37 -15t15 -37t-15 -38z" />
    <glyph glyph-name="uni030A" unicode="&#x30a;" horiz-adv-x="0" 
d="M-52 576q-32 -30 -82 -30t-81 30q-32 32 -32 77q0 46 32 76q31 30 81 30t82 -30q31 -30 31 -76t-31 -77zM-134 607q30 -2 42.5 22t0 48t-42.5 21q-21 0 -34 -13t-13 -32q0 -21 12.5 -33.5t34.5 -12.5z" />
    <glyph glyph-name="uni030B" unicode="&#x30b;" horiz-adv-x="0" 
d="M-350 565l73 133h94l-79 -133h-88zM-197 565l83 133h94l-89 -133h-88z" />
    <glyph glyph-name="uni030C" unicode="&#x30c;" horiz-adv-x="0" 
d="M-174 619l61 81h93l-106 -135h-96l-106 135h93z" />
    <glyph glyph-name="uni0312" unicode="&#x312;" horiz-adv-x="0" 
d="M-85 965h65l-10 -180h-85z" />
    <glyph glyph-name="uni0326" unicode="&#x326;" horiz-adv-x="0" 
d="M-50 -248h-65l10 180h85z" />
    <glyph glyph-name="uni0327" unicode="&#x327;" horiz-adv-x="0" 
d="M-105 0v-45q39 -8 62 -29.5t23 -50.5q0 -103 -210 -91v66q134 -11 134 31q0 31 -83 36v83h74z" />
    <glyph glyph-name="uni0328" unicode="&#x328;" horiz-adv-x="0" 
d="M-88 -213q-41 0 -64 21.5t-23 58.5q0 63 70 133h83q-68 -65 -68 -114q-1 -15 7 -22.5t24 -7.5q19 0 37 8v-64q-32 -13 -66 -13z" />
    <glyph glyph-name="uni0394" unicode="&#x394;" horiz-adv-x="638" 
d="M266 700h105l259 -700h-622zM319 591l-181 -504h362z" />
    <glyph glyph-name="uni03A9" unicode="&#x3a9;" horiz-adv-x="795" 
d="M760 355q0 -82 -35.5 -151.5t-99.5 -115.5h123v-88h-275v88q86 24 140 96q55 71 55 166q0 116 -78 194q-76 79 -192 79q-115 0 -193 -79q-77 -79 -77 -194q0 -94 53 -167q54 -71 141 -95v-88h-274v88h122q-64 46 -99.5 115.5t-35.5 151.5q0 151 105 254q106 104 258 104
q151 0 257 -104q105 -103 105 -254z" />
    <glyph glyph-name="pi" unicode="&#x3c0;" horiz-adv-x="655" 
d="M28 500h600v-83h-82v-417h-87v417h-259v-417h-87v417h-85v83z" />
    <glyph glyph-name="uni0401" unicode="&#x401;" horiz-adv-x="530" 
d="M224 781q-15 -15 -37 -15t-38 15q-15 16 -15 38t15 37q16 15 38 15t37 -15t15 -37t-15 -38zM414 781q-15 -15 -37 -15t-38 15q-15 16 -15 38t15 37q16 15 38 15t37 -15t15 -37t-15 -38zM168 310v-222h325v-88h-418v700h413v-88h-320v-215h295v-87h-295z" />
    <glyph glyph-name="uni0402" unicode="&#x402;" horiz-adv-x="700" 
d="M451 470q87 0 138 -50t51 -142v-104q0 -97 -49 -143.5t-144 -39.5v86q54 -5 77 17.5t23 79.5v100q0 112 -105 112q-72 0 -143 -28v-358h-93v612h-188v88h497v-88h-216v-172q72 30 152 30z" />
    <glyph glyph-name="uni0403" unicode="&#x403;" horiz-adv-x="485" 
d="M294 899h105l-101 -132h-84zM75 700h393v-88h-300v-612h-93v700z" />
    <glyph glyph-name="uni0404" unicode="&#x404;" horiz-adv-x="735" 
d="M400 78q72 0 132 34.5t89 91.5l81 -46q-43 -78 -124.5 -124.5t-177.5 -46.5q-158 0 -260 105t-102 258q0 154 102 258q102 105 260 105q97 0 177 -46q82 -47 125 -124l-81 -47q-30 58 -89.5 92.5t-131.5 34.5q-110 0 -181 -64q-73 -65 -86 -165h360v-87h-360
q13 -100 86 -165q71 -64 181 -64z" />
    <glyph glyph-name="uni0405" unicode="&#x405;" horiz-adv-x="578" 
d="M301 -13q-98 0 -167.5 45.5t-97.5 126.5l80 46q40 -127 187 -127q71 0 109.5 29t38.5 79q0 49 -38 75q-34 23 -127 53l-67 22q-22 9 -58 26q-35 18 -51 36q-44 48 -44 117q0 92 64 144q64 54 156 54q82 0 144 -41t93 -112l-78 -45q-45 108 -159 108q-57 0 -92 -28
t-35 -76q0 -46 33 -70q34 -25 114 -50l41 -13q34 -13 37 -14q32 -12 70 -33q27 -15 54 -46q35 -35 35 -105q0 -92 -67 -147q-68 -54 -175 -54z" />
    <glyph glyph-name="uni0406" unicode="&#x406;" horiz-adv-x="243" 
d="M75 0v700h93v-700h-93z" />
    <glyph glyph-name="uni0407" unicode="&#x407;" horiz-adv-x="243" 
d="M63 781q-15 -15 -37 -15t-37 15q-16 16 -16 38t16 37q15 15 37 15t37 -15t15 -37t-15 -38zM253 781q-15 -15 -37 -15t-38 15q-15 16 -15 38t15 37q16 15 38 15t37 -15t15 -37t-15 -38zM75 0v700h93v-700h-93z" />
    <glyph glyph-name="uni0408" unicode="&#x408;" horiz-adv-x="558" 
d="M257 -13q-77 0 -134.5 32.5t-84.5 92.5l79 46q32 -80 140 -80q68 0 105.5 32.5t37.5 94.5v495h92v-495q0 -105 -67 -162q-67 -56 -168 -56z" />
    <glyph glyph-name="uni0409" unicode="&#x409;" horiz-adv-x="984" 
d="M589 413h141q91 0 155 -59q64 -58 64 -148t-64 -148q-62 -58 -155 -58h-234v612h-251v-309q0 -93 -17.5 -157t-50 -96.5t-72 -44t-91.5 -6.5v84q71 -9 104.5 41t33.5 179v397h437v-287zM589 87h141q55 0 90.5 33t35.5 86t-36 86.5t-90 33.5h-141v-239z" />
    <glyph glyph-name="uni040A" unicode="&#x40a;" horiz-adv-x="973" 
d="M578 413h141q91 0 155 -59q64 -58 64 -148t-64 -148q-62 -58 -155 -58h-234v326h-317v-326h-93v700h93v-287h317v287h93v-287zM578 87h141q55 0 90.5 33t35.5 86t-36 86.5t-90 33.5h-141v-239z" />
    <glyph glyph-name="uni040B" unicode="&#x40b;" horiz-adv-x="705" 
d="M451 470q87 0 138 -50t51 -142v-278h-93v274q0 112 -105 112q-72 0 -143 -28v-358h-93v612h-188v88h497v-88h-216v-172q72 30 152 30z" />
    <glyph glyph-name="uni040C" unicode="&#x40c;" horiz-adv-x="592" 
d="M314 899h105l-101 -132h-84zM265 360l319 -360h-114l-302 336v-336h-93v700h93v-316l292 316h114z" />
    <glyph glyph-name="uni040E" unicode="&#x40e;" horiz-adv-x="580" 
d="M160 850h270v-76h-270v76zM308 300l168 400h94l-225 -534q-75 -176 -241 -166v86q57 -6 93.5 16.5t60.5 79.5l7 16l-237 502h94z" />
    <glyph glyph-name="uni040F" unicode="&#x40f;" horiz-adv-x="658" 
d="M490 88v612h93v-700h-208v-134h-92v134h-208v700h93v-612h322z" />
    <glyph glyph-name="uni0410" unicode="&#x410;" horiz-adv-x="643" 
d="M635 0h-99l-57 157h-315l-57 -157h-99l261 700h105zM321 589l-125 -345h251z" />
    <glyph glyph-name="uni0411" unicode="&#x411;" horiz-adv-x="585" 
d="M168 425h170q90 0 154 -62q63 -61 63 -150q0 -90 -63 -152q-61 -61 -154 -61h-263v700h420v-88h-327v-187zM168 87h170q52 0 88 36q37 36 37 90q0 53 -37 89q-36 36 -88 36h-170v-251z" />
    <glyph glyph-name="uni0412" unicode="&#x412;" horiz-adv-x="615" 
d="M475 363q49 -24 77 -67t28 -98q0 -84 -59 -141t-144 -57h-302v700h280q83 0 139 -55q57 -55 57 -136q0 -94 -76 -146zM355 613h-187v-214h187q44 0 74 31t30 76q0 44 -31 75q-30 32 -73 32zM168 87h209q47 0 79 33t32 81q0 47 -33 80q-31 33 -78 33h-209v-227z" />
    <glyph glyph-name="uni0413" unicode="&#x413;" horiz-adv-x="485" 
d="M75 700h393v-88h-300v-612h-93v700z" />
    <glyph glyph-name="uni0414" unicode="&#x414;" horiz-adv-x="695" 
d="M588 700v-612h75v-222h-93v134h-462v-134h-93v222h61q65 82 65 246v366h447zM181 88h314v525h-261v-281q0 -158 -53 -244z" />
    <glyph glyph-name="uni0415" unicode="&#x415;" horiz-adv-x="530" 
d="M168 310v-222h325v-88h-418v700h413v-88h-320v-215h295v-87h-295z" />
    <glyph glyph-name="uni0416" unicode="&#x416;" horiz-adv-x="868" 
d="M570 358l281 -358h-106l-265 336v-336h-92v336l-265 -336h-105l280 358l-270 342h105l255 -321v321h92v-321l255 321h106z" />
    <glyph glyph-name="uni0417" unicode="&#x417;" horiz-adv-x="564" 
d="M415 362q114 -49 114 -171q0 -90 -68 -147q-67 -57 -178 -57q-98 0 -160.5 43t-88.5 118l79 45q31 -118 170 -118q72 0 112.5 32t40.5 87t-38 87.5t-104 32.5h-82v85h59q63 0 101.5 31.5t38.5 82.5t-36 82t-98 31q-116 0 -155 -103l-78 45q63 145 233 145q101 0 163 -56
q63 -55 63 -142q0 -101 -88 -153z" />
    <glyph glyph-name="uni0418" unicode="&#x418;" horiz-adv-x="678" 
d="M603 0h-93v522l-360 -522h-75v700h93v-523l360 523h75v-700z" />
    <glyph glyph-name="uni0419" unicode="&#x419;" horiz-adv-x="678" 
d="M474 775h-270v76h270v-76zM603 0h-93v522l-360 -522h-75v700h93v-523l360 523h75v-700z" />
    <glyph glyph-name="uni041A" unicode="&#x41a;" horiz-adv-x="592" 
d="M265 360l319 -360h-114l-302 336v-336h-93v700h93v-316l292 316h114z" />
    <glyph glyph-name="uni041B" unicode="&#x41b;" horiz-adv-x="689" 
d="M14 0v84q71 -10 104.5 40t33.5 179v397h462v-700h-93v612h-276v-309q0 -93 -17.5 -157t-50 -96t-72 -43.5t-91.5 -6.5z" />
    <glyph glyph-name="uni041C" unicode="&#x41c;" horiz-adv-x="805" 
d="M625 700h105v-700h-92v547l-229 -381h-12l-229 380v-546h-93v700h105l223 -370z" />
    <glyph glyph-name="uni041D" unicode="&#x41d;" horiz-adv-x="675" 
d="M508 403v297h92v-700h-92v315h-340v-315h-93v700h93v-297h340z" />
    <glyph glyph-name="uni041E" unicode="&#x41e;" horiz-adv-x="800" 
d="M38 350q0 152 105 257q105 106 257 106t257 -106q106 -105 106 -257q0 -151 -106 -257q-105 -106 -257 -106t-257 106q-105 107 -105 257zM670 350q0 116 -78 194q-76 79 -192 79q-115 0 -193 -79q-77 -79 -77 -194q0 -114 77 -194q78 -78 193 -78q116 0 192 78
q78 80 78 194z" />
    <glyph glyph-name="uni041F" unicode="&#x41f;" horiz-adv-x="658" 
d="M75 700h508v-700h-93v612h-322v-612h-93v700z" />
    <glyph glyph-name="uni0420" unicode="&#x420;" horiz-adv-x="590" 
d="M75 700h254q96 0 161 -65t65 -160t-65 -160t-161 -65h-161v-250h-93v700zM168 337h161q59 0 96 39q38 41 38 99q0 60 -38 99t-96 39h-161v-276z" />
    <glyph glyph-name="uni0421" unicode="&#x421;" horiz-adv-x="739" 
d="M404 -13q-160 0 -263 105q-103 104 -103 258t103 258q103 105 263 105q95 0 176 -46t126 -124l-81 -47q-30 58 -89.5 92.5t-131.5 34.5q-122 0 -198 -78q-76 -77 -76 -195q0 -117 76 -194q76 -78 198 -78q72 0 131.5 34.5t89.5 91.5l81 -46q-44 -78 -125 -125
q-80 -46 -177 -46z" />
    <glyph glyph-name="uni0422" unicode="&#x422;" horiz-adv-x="540" 
d="M18 700h505v-88h-207v-612h-92v612h-206v88z" />
    <glyph glyph-name="uni0423" unicode="&#x423;" horiz-adv-x="580" 
d="M308 300l168 400h94l-225 -534q-75 -176 -241 -166v86q57 -6 93.5 16.5t60.5 79.5l7 16l-237 502h94z" />
    <glyph glyph-name="uni0424" unicode="&#x424;" horiz-adv-x="809" 
d="M450 74v-79h-91v79q-150 11 -241 82q-90 72 -90 194t90 194q91 71 241 82v79h91v-79q152 -11 241 -82q91 -72 91 -194t-91 -194q-89 -71 -241 -82zM450 541v-382q115 8 177 56.5t62 134.5t-62 134.5t-177 56.5zM120 350q0 -86 62 -134t177 -56v381q-115 -8 -177 -56.5
t-62 -134.5z" />
    <glyph glyph-name="uni0425" unicode="&#x425;" horiz-adv-x="590" 
d="M348 361l225 -361h-106l-172 276l-172 -276h-105l225 360l-212 340h105l159 -255l159 255h105z" />
    <glyph glyph-name="uni0426" unicode="&#x426;" horiz-adv-x="690" 
d="M583 700v-612h75v-222h-93v134h-490v700h93v-612h322v612h93z" />
    <glyph glyph-name="uni0427" unicode="&#x427;" horiz-adv-x="628" 
d="M460 370v330h93v-700h-93v282q-82 -39 -172 -39q-102 0 -165 57q-63 58 -63 150v250h93v-244q0 -57 36.5 -91t99.5 -34q90 0 171 39z" />
    <glyph glyph-name="uni0428" unicode="&#x428;" horiz-adv-x="948" 
d="M780 88v612h93v-700h-798v700h93v-612h260v612h92v-612h260z" />
    <glyph glyph-name="uni0429" unicode="&#x429;" horiz-adv-x="980" 
d="M873 700v-612h75v-222h-93v134h-780v700h93v-612h260v612h92v-612h260v612h93z" />
    <glyph glyph-name="uni042A" unicode="&#x42a;" horiz-adv-x="698" 
d="M436 0h-253v612h-183v88h275v-250h161q97 0 162 -65t65 -160q0 -96 -65 -161q-64 -64 -162 -64zM275 363v-276h161q58 0 96 39t38 99t-38 99t-96 39h-161z" />
    <glyph glyph-name="uni042B" unicode="&#x42b;" horiz-adv-x="794" 
d="M329 0h-254v700h93v-250h161q96 0 161 -65t65 -160q0 -96 -65 -161q-64 -64 -161 -64zM719 0h-93v700h93v-700zM168 363v-276h161q58 0 96 39t38 99t-38 99t-96 39h-161z" />
    <glyph glyph-name="uni042C" unicode="&#x42c;" horiz-adv-x="590" 
d="M168 450h161q96 0 161 -65t65 -160q0 -96 -65 -161q-64 -64 -161 -64h-254v700h93v-250zM168 87h161q58 0 96 39t38 99q0 58 -38 98q-37 40 -96 40h-161v-276z" />
    <glyph glyph-name="uni042D" unicode="&#x42d;" horiz-adv-x="735" 
d="M335 713q158 0 260 -105q102 -104 102 -258q0 -153 -102 -258t-260 -105q-96 0 -177.5 46.5t-124.5 124.5l81 46q29 -57 89 -91.5t132 -34.5q110 0 181 64q73 65 86 165h-360v87h360q-13 100 -86 165q-71 64 -181 64q-72 0 -131.5 -34.5t-89.5 -92.5l-81 47
q43 77 125 124q80 46 177 46z" />
    <glyph glyph-name="uni042E" unicode="&#x42e;" horiz-adv-x="1045" 
d="M645 713q152 0 257 -106q106 -105 106 -257q0 -151 -106 -257q-105 -106 -257 -106q-143 0 -243 94t-114 235h-120v-316h-93v700h93v-296h123q19 133 118 221q98 88 236 88zM915 350q0 116 -78 194q-76 79 -192 79q-115 0 -193 -79q-77 -79 -77 -194q0 -114 77 -194
q78 -78 193 -78t192 78q78 80 78 194z" />
    <glyph glyph-name="uni042F" unicode="&#x42f;" horiz-adv-x="621" 
d="M266 700h280v-700h-92v268h-139l-181 -268h-105l186 274q-72 16 -119 76q-47 59 -47 133q0 90 63 153q64 64 154 64zM266 352h188v261h-188q-50 0 -88 -38q-37 -37 -37 -92t37 -93q38 -38 88 -38z" />
    <glyph glyph-name="uni0430" unicode="&#x430;" 
d="M480 414v86h87v-500h-87v86q-64 -99 -189 -99q-106 0 -179 76q-74 77 -74 187q0 109 74 186t179 77q125 0 189 -99zM302 71q76 0 127 51q51 53 51 128q0 76 -51 127q-51 52 -127 52q-75 0 -126 -52q-51 -51 -51 -127q0 -75 51 -128q51 -51 126 -51z" />
    <glyph glyph-name="uni0431" unicode="&#x431;" horiz-adv-x="567" 
d="M293 -13q-111 0 -183 73q-72 74 -72 188q0 129 37 197q38 69 154 125q6 3 14.5 7t21 9.5t21.5 9.5l54 24q80 40 85 96l70 -40q-7 -35 -23 -56q-1 -2 -6 -8.5t-7 -9t-6.5 -7t-9 -8.5t-11.5 -8q-37 -23 -53 -30q-6 -3 -12.5 -6t-10.5 -5l-6 -3l-33 -14l-32 -13
q-67 -29 -99 -59t-46 -76q31 38 78.5 58t97.5 20q95 0 159 -64q66 -65 66 -165q0 -102 -70 -169q-71 -66 -178 -66zM454 222q0 67 -43.5 109.5t-114.5 42.5q-63 0 -116 -41q-51 -41 -51 -106q0 -68 47 -112t117 -44q71 0 115 43q46 43 46 108z" />
    <glyph glyph-name="uni0432" unicode="&#x432;" horiz-adv-x="504" 
d="M399 257q77 -32 77 -116q0 -64 -42 -102.5t-118 -38.5h-250v500h230q74 0 115.5 -37t41.5 -99q0 -72 -54 -107zM292 422h-141v-131h141q76 0 76 67q0 64 -76 64zM151 79h160q38 0 58.5 18t20.5 51q0 31 -20.5 48.5t-58.5 17.5h-160v-135z" />
    <glyph glyph-name="uni0433" unicode="&#x433;" horiz-adv-x="404" 
d="M66 500h328v-84h-241v-416h-87v500z" />
    <glyph glyph-name="uni0434" unicode="&#x434;" horiz-adv-x="593" 
d="M496 500v-417h69v-217h-86v134h-375v-134h-86v217h61q48 66 48 185v232h369zM178 83h232v336h-197v-151q0 -110 -35 -185z" />
    <glyph glyph-name="uni0435" unicode="&#x435;" horiz-adv-x="583" 
d="M546 210h-419q13 -66 61 -103.5t120 -37.5q99 0 144 73l74 -42q-74 -113 -220 -113q-118 0 -194 74q-74 76 -74 189q0 114 73 188q73 75 189 75q110 0 179 -78q70 -76 70 -186q0 -19 -3 -39zM300 431q-69 0 -115.5 -39t-57.5 -106h334q-11 69 -55 107t-106 38z" />
    <glyph glyph-name="uni0436" unicode="&#x436;" horiz-adv-x="698" 
d="M471 258l210 -258h-102l-187 237v-237h-86v237l-187 -237h-101l209 258l-199 242h101l177 -221v221h86v-221l177 221h102z" />
    <glyph glyph-name="uni0437" unicode="&#x437;" horiz-adv-x="447" 
d="M336 256q83 -35 83 -119q0 -65 -51 -107.5t-141 -42.5q-150 0 -201 120l73 43q28 -82 129 -82q49 0 77 21t28 56q0 30 -22.5 49t-60.5 19h-73v79h54q38 0 59 18.5t21 50.5q0 33 -25 52.5t-67 19.5q-84 0 -114 -71l-71 41q53 110 185 110q80 0 128.5 -41.5t48.5 -103.5
q0 -76 -60 -112z" />
    <glyph glyph-name="uni0438" unicode="&#x438;" horiz-adv-x="565" 
d="M152 149l277 351h70v-500h-86v351l-277 -351h-70v500h86v-351z" />
    <glyph glyph-name="uni0439" unicode="&#x439;" horiz-adv-x="565" 
d="M418 575h-270v76h270v-76zM152 149l277 351h70v-500h-86v351l-277 -351h-70v500h86v-351z" />
    <glyph glyph-name="uni043A" unicode="&#x43a;" horiz-adv-x="504" 
d="M242 258l247 -258h-108l-228 237v-237h-87v500h87v-221l216 221h112z" />
    <glyph glyph-name="uni043B" unicode="&#x43b;" horiz-adv-x="549" 
d="M112 500h371v-500h-87v416h-197v-204q0 -120 -48 -170.5t-141 -41.5v82q52 -7 77 23.5t25 108.5v286z" />
    <glyph glyph-name="uni043C" unicode="&#x43c;" 
d="M473 500h93v-500h-85v363l-159 -256h-11l-159 256v-363h-86v500h93l157 -253z" />
    <glyph glyph-name="uni043D" unicode="&#x43d;" horiz-adv-x="565" 
d="M412 292v208h87v-500h-87v209h-259v-209h-87v500h87v-208h259z" />
    <glyph glyph-name="uni043E" unicode="&#x43e;" horiz-adv-x="602" 
d="M488 63q-76 -76 -187 -76t-187 76t-76 187t76 187t187 76t187 -76q77 -77 77 -187t-77 -187zM301 72q75 0 126 51t51 127t-51 127t-126 51q-74 0 -125 -51t-51 -127t51 -127t125 -51z" />
    <glyph glyph-name="uni043F" unicode="&#x43f;" horiz-adv-x="565" 
d="M66 500h433v-500h-87v417h-259v-417h-87v500z" />
    <glyph glyph-name="uni0440" unicode="&#x440;" 
d="M342 513q105 0 179 -77t74 -186q0 -110 -74 -187q-73 -76 -179 -76q-124 0 -189 99v-286h-87v700h87v-86q65 99 189 99zM331 71q75 0 126 51q51 53 51 128q0 76 -51 127q-51 52 -126 52q-76 0 -127 -52q-51 -51 -51 -127q0 -75 51 -128q51 -51 127 -51z" />
    <glyph glyph-name="uni0441" unicode="&#x441;" horiz-adv-x="547" 
d="M301 -13q-113 0 -188 75q-75 76 -75 188t75 187q75 76 188 76q74 0 133 -35.5t88 -95.5l-73 -42q-19 40 -58.5 64t-89.5 24q-75 0 -126 -51q-50 -52 -50 -127q0 -74 50 -126q51 -51 126 -51q50 0 90 23.5t61 63.5l74 -43q-33 -60 -93 -95t-132 -35z" />
    <glyph glyph-name="uni0442" unicode="&#x442;" horiz-adv-x="448" 
d="M10 500h428v-84h-170v-416h-87v416h-171v84z" />
    <glyph glyph-name="uni0443" unicode="&#x443;" horiz-adv-x="515" 
d="M271 108l144 392h93l-204 -531q-32 -85 -90 -129.5t-132 -39.5v81q91 -7 135 100l8 18l-217 501h92z" />
    <glyph glyph-name="uni0444" unicode="&#x444;" horiz-adv-x="675" 
d="M381 -10v-190h-86v190q-117 13 -187 85q-70 71 -70 175t70 175q70 72 187 85v190h86v-190q117 -13 187 -85q70 -71 70 -175t-70 -175q-70 -72 -187 -85zM124 250q0 -70 45.5 -117.5t125.5 -58.5v352q-79 -10 -125 -57.5t-46 -118.5zM381 426v-352q79 11 124.5 58.5
t45.5 117.5t-45.5 117.5t-124.5 58.5z" />
    <glyph glyph-name="uni0445" unicode="&#x445;" horiz-adv-x="515" 
d="M309 258l191 -258h-102l-140 189l-141 -189h-102l192 257l-181 243h103l129 -174l129 174h102z" />
    <glyph glyph-name="uni0446" unicode="&#x446;" horiz-adv-x="595" 
d="M486 500v-417h82v-217h-86v134h-416v500h87v-417h246v417h87z" />
    <glyph glyph-name="uni0447" unicode="&#x447;" horiz-adv-x="534" 
d="M381 261v239h87v-500h-87v180q-61 -26 -135 -26q-97 0 -149 46t-52 134v166h87v-161q0 -55 29.5 -79.5t90.5 -24.5q69 0 129 26z" />
    <glyph glyph-name="uni0448" unicode="&#x448;" horiz-adv-x="818" 
d="M664 83v417h87v-500h-685v500h87v-417h212v417h87v-417h212z" />
    <glyph glyph-name="uni0449" unicode="&#x449;" horiz-adv-x="843" 
d="M746 500v-417h69v-217h-86v134h-663v500h87v-417h210v417h87v-417h209v417h87z" />
    <glyph glyph-name="uni044A" unicode="&#x44a;" horiz-adv-x="551" 
d="M226 320h124q74 0 124 -45t50 -115t-50 -115t-124 -45h-211v416h-139v84h226v-180zM226 81h124q38 0 63 22t25 57t-25.5 57.5t-62.5 22.5h-124v-159z" />
    <glyph glyph-name="uni044B" unicode="&#x44b;" horiz-adv-x="670" 
d="M153 320h124q75 0 124 -45q50 -44 50 -115t-50 -116q-50 -44 -124 -44h-211v500h87v-180zM516 0v500h87v-500h-87zM153 81h124q38 0 63 22t25 57t-25.5 57.5t-62.5 22.5h-124v-159z" />
    <glyph glyph-name="uni044C" unicode="&#x44c;" horiz-adv-x="479" 
d="M153 320h124q75 0 124 -45q50 -44 50 -115t-50 -116q-50 -44 -124 -44h-211v500h87v-180zM153 81h124q38 0 63 22t25 57t-25.5 57.5t-62.5 22.5h-124v-159z" />
    <glyph glyph-name="uni044D" unicode="&#x44d;" horiz-adv-x="538" 
d="M246 513q113 0 184 -74t71 -189q0 -113 -71 -189q-71 -74 -185 -74q-80 0 -140 35.5t-87 96.5l74 43q16 -42 56 -66.5t97 -24.5q65 0 109 37.5t56 100.5h-223v82h223q-12 63 -55.5 100.5t-107.5 37.5q-53 0 -92.5 -24t-58.5 -66l-75 43q30 61 90 96t135 35z" />
    <glyph glyph-name="uni044E" unicode="&#x44e;" horiz-adv-x="804" 
d="M503 513q110 0 186 -76q77 -77 77 -187t-77 -187q-76 -76 -186 -76q-99 0 -171 63q-73 63 -86 159h-93v-209h-87v500h87v-208h93q14 96 86 158q74 63 171 63zM503 72q74 0 125 51t51 127t-51 127t-125 51q-75 0 -126 -51t-51 -127t51 -127t126 -51z" />
    <glyph glyph-name="uni044F" unicode="&#x44f;" horiz-adv-x="506" 
d="M227 500h213v-500h-86v180h-73l-140 -180h-106l146 185q-57 14 -91.5 56t-34.5 98q0 69 49 115t123 46zM230 258h124v161h-124q-38 0 -63.5 -22.5t-25.5 -58.5q0 -35 25.5 -57.5t63.5 -22.5z" />
    <glyph glyph-name="uni0451" unicode="&#x451;" horiz-adv-x="583" 
d="M236 582q-15 -15 -37 -15t-38 15q-15 16 -15 38t15 37q16 15 38 15t37 -15t15 -37t-15 -38zM426 582q-15 -15 -37 -15t-38 15q-15 16 -15 38t15 37q16 15 38 15t37 -15t15 -37t-15 -38zM546 210h-419q13 -66 61 -103.5t120 -37.5q99 0 144 73l74 -42q-74 -113 -220 -113
q-118 0 -194 74q-74 76 -74 189q0 114 73 188q73 75 189 75q110 0 179 -78q70 -76 70 -186q0 -19 -3 -39zM300 431q-69 0 -115.5 -39t-57.5 -106h334q-11 69 -55 107t-106 38z" />
    <glyph glyph-name="uni0452" unicode="&#x452;" horiz-adv-x="573" 
d="M324 513q88 0 141 -55.5t53 -150.5v-337q0 -97 -49 -143.5t-144 -39.5v84q55 -5 80.5 18.5t25.5 80.5v332q0 60 -33 94t-91 34q-67 0 -106 -41.5t-39 -123.5v-265h-87v569h-67v64h67v67h87v-67h143v-64h-143v-141q52 85 162 85z" />
    <glyph glyph-name="uni0453" unicode="&#x453;" horiz-adv-x="404" 
d="M229 700h105l-101 -132h-84zM66 500h328v-84h-241v-416h-87v500z" />
    <glyph glyph-name="uni0454" unicode="&#x454;" horiz-adv-x="538" 
d="M446 162l74 -43q-27 -61 -87 -96.5t-140 -35.5q-114 0 -185 74q-71 76 -71 189q0 116 70 189q71 74 185 74q75 0 135 -35t90 -96l-75 -43q-19 42 -58.5 66t-92.5 24q-64 0 -107.5 -37.5t-55.5 -100.5h223v-82h-223q12 -63 56 -100.5t109 -37.5q57 0 97 24.5t56 66.5z" />
    <glyph glyph-name="uni0455" unicode="&#x455;" horiz-adv-x="458" 
d="M141 365q0 -48 99 -75q37 -8 62.5 -16.5t56 -25.5t46.5 -45t16 -66q0 -68 -53 -109t-134 -41q-72 0 -124.5 31.5t-74.5 85.5l75 43q12 -36 45 -57t79 -21q45 0 72 17t27 51q0 51 -99 74q-33 9 -50 14t-46.5 18t-44.5 27.5t-27.5 39t-12.5 54.5q0 65 50 107q51 42 127 42
q61 0 108.5 -27.5t71.5 -76.5l-73 -41q-27 64 -107 64q-38 0 -63.5 -18t-25.5 -49z" />
    <glyph glyph-name="uni0456" unicode="&#x456;" horiz-adv-x="220" 
d="M110 591q-25 0 -42 17t-17 41t17 41.5t42 17.5q24 0 41 -17.5t17 -41.5t-17 -41t-41 -17zM153 0h-87v500h87v-500z" />
    <glyph glyph-name="uni0457" unicode="&#x457;" horiz-adv-x="220" 
d="M52 581q-15 -15 -37 -15t-37 15q-16 16 -16 38t16 37q15 15 37 15t37 -15t15 -37t-15 -38zM242 581q-15 -15 -37 -15t-38 15q-15 16 -15 38t15 37q16 15 38 15t37 -15t15 -37t-15 -38zM153 0h-87v500h87v-500z" />
    <glyph glyph-name="uni0458" unicode="&#x458;" horiz-adv-x="241" 
d="M132 591q-25 0 -42 17t-17 41t17 41.5t42 17.5q24 0 41 -17.5t17 -41.5t-17 -41t-41 -17zM88 -30v530h87v-530q0 -97 -49 -143.5t-144 -39.5v84q55 -5 80.5 18.5t25.5 80.5z" />
    <glyph glyph-name="uni0459" unicode="&#x459;" horiz-adv-x="781" 
d="M473 303h118q72 0 117 -41.5t45 -110.5t-45 -110t-117 -41h-205v416h-187v-204q0 -119 -48 -169.5t-141 -44.5v82q52 -6 77 25t25 109v286h361v-197zM473 81h119q35 0 56.5 18t21.5 52t-22 52.5t-56 18.5h-119v-141z" />
    <glyph glyph-name="uni045A" unicode="&#x45a;" horiz-adv-x="789" 
d="M479 303h119q70 0 117 -41t47 -111q0 -69 -47 -110t-117 -41h-206v220h-241v-220h-87v500h87v-197h241v197h87v-197zM479 81h119q35 0 56.5 18t21.5 52t-21.5 52.5t-56.5 18.5h-119v-141z" />
    <glyph glyph-name="uni045B" unicode="&#x45b;" horiz-adv-x="573" 
d="M324 513q88 0 141 -55.5t53 -150.5v-307h-87v302q0 60 -33 94t-91 34q-67 0 -106 -41.5t-39 -123.5v-265h-87v569h-67v64h67v67h87v-67h143v-64h-143v-141q52 85 162 85z" />
    <glyph glyph-name="uni045C" unicode="&#x45c;" horiz-adv-x="504" 
d="M274 700h105l-101 -132h-84zM242 258l247 -258h-108l-228 237v-237h-87v500h87v-221l216 221h112z" />
    <glyph glyph-name="uni045E" unicode="&#x45e;" horiz-adv-x="515" 
d="M121 651h270v-76h-270v76zM271 108l144 392h93l-204 -531q-32 -85 -90 -129.5t-132 -39.5v81q91 -7 135 100l8 18l-217 501h92z" />
    <glyph glyph-name="uni045F" unicode="&#x45f;" horiz-adv-x="565" 
d="M412 83v417h87v-500h-173v-134h-86v134h-174v500h87v-417h259z" />
    <glyph glyph-name="uni0490" unicode="&#x490;" horiz-adv-x="485" 
d="M375 700v120h93v-208h-300v-612h-93v700h300z" />
    <glyph glyph-name="uni0491" unicode="&#x491;" horiz-adv-x="404" 
d="M308 500v103h86v-187h-241v-416h-87v500h242z" />
    <glyph glyph-name="Wgrave" unicode="&#x1e80;" horiz-adv-x="1000" 
d="M577 768h-84l-101 132h105zM226 0h108l166 559l166 -559h108l201 700h-98l-160 -576l-170 576h-94l-170 -576l-160 576h-98z" />
    <glyph glyph-name="wgrave" unicode="&#x1e81;" horiz-adv-x="770" 
d="M372 700l80 -132h-84l-101 132h105zM545 119l110 381h91l-155 -500h-89l-117 370l-117 -370h-89l-155 500h91l110 -380l118 380h84z" />
    <glyph glyph-name="Wacute" unicode="&#x1e82;" horiz-adv-x="1000" 
d="M450 768l80 132h105l-101 -132h-84zM226 0h108l166 559l166 -559h108l201 700h-98l-160 -576l-170 576h-94l-170 -576l-160 576h-98z" />
    <glyph glyph-name="wacute" unicode="&#x1e83;" horiz-adv-x="770" 
d="M405 700h105l-101 -132h-84zM545 119l110 381h91l-155 -500h-89l-117 370l-117 -370h-89l-155 500h91l110 -380l118 380h84z" />
    <glyph glyph-name="Wdieresis" unicode="&#x1e84;" horiz-adv-x="1000" 
d="M452 781q-15 -15 -37 -15t-38 15q-15 16 -15 38t15 37q16 15 38 15t37 -15t15 -37t-15 -38zM642 781q-15 -15 -37 -15t-38 15q-15 16 -15 38t15 37q16 15 38 15t37 -15t15 -37t-15 -38zM334 0h-108l-201 700h98l160 -576l170 576h94l170 -576l160 576h98l-201 -700h-108
l-166 559z" />
    <glyph glyph-name="wdieresis" unicode="&#x1e85;" horiz-adv-x="770" 
d="M327 581q-15 -15 -37 -15t-38 15q-15 16 -15 38t15 37q16 15 38 15t37 -15t15 -37t-15 -38zM517 581q-15 -15 -37 -15t-38 15q-15 16 -15 38t15 37q16 15 38 15t37 -15t15 -37t-15 -38zM545 119l110 381h91l-155 -500h-89l-117 370l-117 -370h-89l-155 500h91l110 -380
l118 380h84z" />
    <glyph glyph-name="Ygrave" unicode="&#x1ef2;" horiz-adv-x="604" 
d="M286 900l80 -132h-84l-101 132h105zM492 700h104l-248 -417v-283h-93v284l-247 416h104l190 -328z" />
    <glyph glyph-name="ygrave" unicode="&#x1ef3;" horiz-adv-x="515" 
d="M243 700l80 -132h-84l-101 132h105zM271 108l144 392h93l-204 -531q-33 -85 -90.5 -129.5t-131.5 -39.5v81q92 -7 135 102l9 19l-218 498h93z" />
    <glyph glyph-name="endash" unicode="&#x2013;" horiz-adv-x="655" 
d="M580 265h-505v84h505v-84z" />
    <glyph glyph-name="emdash" unicode="&#x2014;" horiz-adv-x="755" 
d="M680 265h-605v84h605v-84z" />
    <glyph glyph-name="quoteleft" unicode="&#x2018;" horiz-adv-x="253" 
d="M157 457h-100l65 243h75z" />
    <glyph glyph-name="quoteright" unicode="&#x2019;" horiz-adv-x="253" 
d="M96 701h100l-65 -243h-75z" />
    <glyph glyph-name="quotesinglbase" unicode="&#x201a;" horiz-adv-x="253" 
d="M96 103h100l-65 -243h-75z" />
    <glyph glyph-name="quotedblleft" unicode="&#x201c;" horiz-adv-x="408" 
d="M157 457h-100l65 243h75zM312 457h-100l65 243h75z" />
    <glyph glyph-name="quotedblright" unicode="&#x201d;" horiz-adv-x="408" 
d="M96 701h100l-65 -243h-75zM251 701h100l-65 -243h-75z" />
    <glyph glyph-name="quotedblbase" unicode="&#x201e;" horiz-adv-x="408" 
d="M96 103h100l-65 -243h-75zM251 103h100l-65 -243h-75z" />
    <glyph glyph-name="dagger" unicode="&#x2020;" horiz-adv-x="480" 
d="M284 545h141v-84h-141v-461h-87v461h-142v84h142v155h87v-155z" />
    <glyph glyph-name="daggerdbl" unicode="&#x2021;" horiz-adv-x="480" 
d="M425 545v-84h-141v-222h141v-84h-141v-155h-87v155h-142v84h142v222h-142v84h142v155h87v-155h141z" />
    <glyph glyph-name="bullet" unicode="&#x2022;" horiz-adv-x="320" 
d="M240 271q-32 -33 -79 -33t-80 33t-33 80t33 79q33 33 80 33t79 -33q33 -32 33 -79t-33 -80z" />
    <glyph glyph-name="ellipsis" unicode="&#x2026;" horiz-adv-x="648" 
d="M121 -11q-27 0 -46 19t-19 46t19 46t46 19q28 0 46.5 -19t18.5 -46t-18.5 -46t-46.5 -19zM324 -11q-27 0 -46 19t-19 46t19 46t46 19q28 0 46.5 -19t18.5 -46t-18.5 -46t-46.5 -19zM526 -11q-27 0 -46 19t-19 46t19 46t46 19q28 0 46.5 -19t18.5 -46t-18.5 -46t-46.5 -19
z" />
    <glyph glyph-name="perthousand" unicode="&#x2030;" horiz-adv-x="1089" 
d="M213 403q-68 0 -113 45t-45 110q0 64 45 109q46 46 113 46q68 0 113 -45t45 -110t-45 -110q-44 -45 -113 -45zM133 558q0 -35 22.5 -58.5t57.5 -23.5t57.5 24t22.5 58t-22.5 57.5t-57.5 23.5t-57.5 -23.5t-22.5 -57.5zM150 71l-48 28l465 520l49 -27zM628 33
q-45 -45 -113 -45t-113 45t-45 110t45 110t113 45t113 -45t45 -110t-45 -110zM989 33q-45 -45 -113 -45t-113 45t-45 110t45 110t113 45t113 -45t45 -110t-45 -110zM457 85q23 -23 58 -23q34 0 57 23q23 24 23 58t-23 57q-22 24 -57 24t-58 -24q-22 -23 -22 -57t22 -58z
M818 85q23 -23 58 -23q34 0 57 23q23 24 23 58t-23 57q-23 24 -57 24q-36 0 -58 -24q-22 -23 -22 -57t22 -58z" />
    <glyph glyph-name="guilsinglleft" unicode="&#x2039;" horiz-adv-x="340" 
d="M178 492h94l-110 -183l110 -182h-94l-110 182z" />
    <glyph glyph-name="guilsinglright" unicode="&#x203a;" horiz-adv-x="340" 
d="M68 492h94l110 -183l-110 -182h-94l110 182z" />
    <glyph glyph-name="fraction" unicode="&#x2044;" horiz-adv-x="210" 
d="M340 700l-400 -700h-70l400 700h70z" />
    <glyph glyph-name="Euro" unicode="&#x20ac;" horiz-adv-x="600" 
d="M499 173l77 -44q-29 -69 -85 -105.5t-131 -36.5q-109 0 -179.5 73.5t-88.5 202.5h-73v65h67v22q0 24 1 31h-68v64h74q20 125 90 196.5t177 71.5q154 0 215 -139l-77 -44q-42 93 -138 93q-68 0 -112.5 -46t-60.5 -132h237v-64h-244q-1 -7 -1 -31v-22h245v-65h-238
q14 -89 59 -137t115 -48q98 0 139 95z" />
    <glyph glyph-name="uni20BD" unicode="&#x20bd;" horiz-adv-x="594" 
d="M356 268h-161v-81h248v-68h-248v-119h-92v119h-85v68h85v81h-85v84h85v348h253q91 0 155 -64q64 -63 64 -153t-64 -153q-64 -62 -155 -62zM356 613h-161v-261h161q51 0 89 38q38 40 38 93q0 55 -37 92q-38 38 -90 38z" />
    <glyph glyph-name="uni2116" unicode="&#x2116;" horiz-adv-x="1024" 
d="M829 402q-67 0 -113 45q-45 45 -45 110t45 110t113 45t113 -45t45 -110t-45 -110q-44 -45 -113 -45zM510 178v522h93v-700h-75l-360 523v-523h-93v700h75zM772 500q22 -23 57 -23t57 23t22 57t-22 57t-57 23t-57 -23t-22 -57t22 -57zM975 255h-292v83h292v-83z" />
    <glyph glyph-name="trademark" unicode="&#x2122;" horiz-adv-x="468" 
d="M38 700h160v-43h-56v-157h-47v157h-57v43zM326 608l58 92h46v-200h-46v124l-56 -88h-5l-56 88v-124h-46v200h46z" />
    <glyph glyph-name="estimated" unicode="&#x212e;" horiz-adv-x="810" 
d="M775 350q0 -15 -15 -15h-560q-15 0 -15 -15v-192q0 -12 7 -19q84 -89 233 -89q146 0 231 97q8 9 18 9h37q10 0 13 -6t-4 -13q-110 -117 -295 -117q-177 0 -283 103q-107 104 -107 257t103 256q104 104 267 104q162 0 266 -104t104 -256zM625 380v192q0 12 -7 19
q-84 89 -213 89t-213 -89q-7 -7 -7 -19v-192q0 -15 15 -15h410q15 0 15 15z" />
    <glyph glyph-name="oneeighth" unicode="&#x215b;" horiz-adv-x="804" 
d="M192 700v-400h-77v319l-88 -26l-19 65l117 42h67zM124 0l400 700h70l-400 -700h-70zM718 211q63 -34 63 -104q0 -55 -40 -87.5t-107 -32.5t-107 32.5t-40 87.5q0 69 63 104q-50 30 -50 86q0 52 38 84t96 32t96 -32t38 -84q0 -56 -50 -86zM634 344q-30 0 -46 -13.5
t-16 -36.5q0 -24 16 -38.5t46 -14.5q29 0 45.5 14.5t16.5 38.5q0 23 -16.5 36.5t-45.5 13.5zM634 176q-34 0 -53 -15.5t-19 -43.5q0 -27 19 -43t53 -16t53 16t19 43t-19.5 43t-52.5 16z" />
    <glyph glyph-name="threeeighths" unicode="&#x215c;" horiz-adv-x="901" 
d="M316 418q0 -60 -40.5 -95.5t-108.5 -35.5q-106 0 -147 86l65 37q22 -51 82 -51q35 0 53.5 16t18.5 43t-20 43.5t-53 16.5h-9l-34 50l84 100h-172v72h263v-66l-84 -100q48 -10 75 -40.5t27 -75.5zM221 0l400 700h70l-400 -700h-70zM815 211q63 -34 63 -104
q0 -55 -40 -87.5t-107 -32.5t-107 32.5t-40 87.5q0 69 63 104q-50 30 -50 86q0 52 38 84t96 32t96 -32t38 -84q0 -56 -50 -86zM731 344q-30 0 -46 -13.5t-16 -36.5q0 -24 16 -38.5t46 -14.5q29 0 45.5 14.5t16.5 38.5q0 23 -16.5 36.5t-45.5 13.5zM731 176q-34 0 -53 -15.5
t-19 -43.5q0 -27 19 -43t53 -16t53 16t19 43t-19.5 43t-52.5 16z" />
    <glyph glyph-name="fiveeighths" unicode="&#x215d;" horiz-adv-x="889" 
d="M307 417q0 -60 -39 -95t-105 -35q-106 0 -146 87l65 36q22 -52 80 -52q34 0 52.5 16t18.5 44t-19 45.5t-52 17.5h-124l15 219h237v-71h-172l-5 -79h52q64 0 103 -35.5t39 -97.5zM209 0l400 700h70l-400 -700h-70zM803 211q63 -34 63 -104q0 -55 -40 -87.5t-107 -32.5
t-107 32.5t-40 87.5q0 69 63 104q-50 30 -50 86q0 52 38 84t96 32t96 -32t38 -84q0 -56 -50 -86zM719 344q-30 0 -46 -13.5t-16 -36.5q0 -24 16 -38.5t46 -14.5q29 0 45.5 14.5t16.5 38.5q0 23 -16.5 36.5t-45.5 13.5zM719 176q-34 0 -53 -15.5t-19 -43.5q0 -27 19 -43
t53 -16t53 16t19 43t-19.5 43t-52.5 16z" />
    <glyph glyph-name="seveneighths" unicode="&#x215e;" horiz-adv-x="846" 
d="M8 700h269v-61l-141 -339h-81l138 328h-185v72zM166 0l400 700h70l-400 -700h-70zM760 211q63 -34 63 -104q0 -55 -40 -87.5t-107 -32.5t-107 32.5t-40 87.5q0 69 63 104q-50 30 -50 86q0 52 38 84t96 32t96 -32t38 -84q0 -56 -50 -86zM676 344q-30 0 -46 -13.5
t-16 -36.5q0 -24 16 -38.5t46 -14.5q29 0 45.5 14.5t16.5 38.5q0 23 -16.5 36.5t-45.5 13.5zM676 176q-34 0 -53 -15.5t-19 -43.5q0 -27 19 -43t53 -16t53 16t19 43t-19.5 43t-52.5 16z" />
    <glyph glyph-name="arrowleft" unicode="&#x2190;" horiz-adv-x="813" 
d="M214 392h544v-84h-544l258 -258h-117l-300 300l300 300h117z" />
    <glyph glyph-name="arrowup" unicode="&#x2191;" horiz-adv-x="710" 
d="M355 700l300 -300v-117l-256 256v-539h-87v540l-257 -257v117z" />
    <glyph glyph-name="arrowright" unicode="&#x2192;" horiz-adv-x="813" 
d="M341 650h117l300 -300l-300 -300h-117l258 258h-544v84h544z" />
    <glyph glyph-name="arrowdown" unicode="&#x2193;" horiz-adv-x="710" 
d="M399 700v-539l256 256v-117l-300 -300l-300 300v117l257 -257v540h87z" />
    <glyph glyph-name="arrowboth" unicode="&#x2194;" horiz-adv-x="1055" 
d="M627 608h116l257 -258l-257 -257h-116l214 215h-628l215 -215h-116l-257 257l257 258h116l-215 -216h629z" />
    <glyph glyph-name="arrowupdn" unicode="&#x2195;" horiz-adv-x="625" 
d="M570 566v-116l-214 214v-628l214 214v-116l-257 -257l-258 257v116l214 -213v626l-214 -213v116l258 257z" />
    <glyph glyph-name="uni2196" unicode="&#x2196;" horiz-adv-x="640" 
d="M198 514l387 -387l-61 -61l-387 387v-363l-82 82v424h424l82 -82h-363z" />
    <glyph glyph-name="uni2197" unicode="&#x2197;" horiz-adv-x="640" 
d="M79 514l82 82h424v-424l-82 -82v363l-387 -387l-61 61l387 387h-363z" />
    <glyph glyph-name="uni2198" unicode="&#x2198;" horiz-adv-x="640" 
d="M503 226v364l82 -82v-424h-424l-82 82h363l-387 387l61 60z" />
    <glyph glyph-name="uni2199" unicode="&#x2199;" horiz-adv-x="640" 
d="M524 613l61 -60l-387 -387h363l-82 -82h-424v424l82 82v-364z" />
    <glyph glyph-name="partialdiff" unicode="&#x2202;" horiz-adv-x="579" 
d="M235 713q121 0 205 -101q84 -100 84 -262q0 -171 -75 -267t-191 -96q-97 0 -154 60q-56 62 -56 153q0 102 60 167q61 64 168 64q85 0 160 -48q-7 106 -62 176q-54 69 -145 70q-69 0 -125 -34v82q56 36 131 36zM260 71q74 0 120.5 61t54.5 169q-65 50 -153 50
q-68 0 -107.5 -39.5t-39.5 -110.5q0 -59 33 -94.5t92 -35.5z" />
    <glyph glyph-name="emptyset" unicode="&#x2205;" horiz-adv-x="804" 
d="M747 720l-91 -112q108 -106 108 -258q0 -150 -106 -256t-256 -106q-112 0 -204 63l-58 -71h-82l91 111q-109 106 -109 259q0 150 106 256t256 106q112 0 204 -63l58 71h83zM110 350q0 -120 83 -206l370 452q-71 48 -161 48q-121 0 -207 -86q-85 -85 -85 -208zM402 56
q121 0 207 86q85 85 85 208q0 122 -82 205l-370 -451q74 -48 160 -48z" />
    <glyph glyph-name="product" unicode="&#x220f;" horiz-adv-x="640" 
d="M162 -200h-87v900h490v-900h-87v816h-316v-816z" />
    <glyph glyph-name="summation" unicode="&#x2211;" horiz-adv-x="548" 
d="M515 -200h-470v80l231 380l-216 359v81h440v-84h-339l215 -356l-229 -376h368v-84z" />
    <glyph glyph-name="minus" unicode="&#x2212;" horiz-adv-x="545" 
d="M488 309h-430v83h430v-83z" />
    <glyph glyph-name="radical" unicode="&#x221a;" horiz-adv-x="655" 
d="M368 0h-88l-132 224h-93v84h143l118 -205l233 697h91z" />
    <glyph glyph-name="infinity" unicode="&#x221e;" horiz-adv-x="803" 
d="M581 515q71 0 120 -47q48 -47 48 -118q0 -72 -48 -119q-47 -46 -120 -46q-92 0 -179 101q-87 -101 -180 -101q-73 0 -120 46q-48 47 -48 119t48 118q49 47 120 47q93 0 180 -101q87 101 179 101zM224 264q64 0 127 86q-63 86 -127 86q-37 0 -60.5 -24t-23.5 -62t23.5 -62
t60.5 -24zM579 264q37 0 60.5 24t23.5 62t-23.5 62t-60.5 24q-63 0 -126 -86q63 -86 126 -86z" />
    <glyph glyph-name="integral" unicode="&#x222b;" horiz-adv-x="440" 
d="M0 -203v86q47 -19 79.5 -2t40.5 66l104 614q16 94 72 129.5t144 11.5v-85q-54 18 -87.5 1t-41.5 -65l-104 -614q-15 -94 -70 -130t-137 -12z" />
    <glyph glyph-name="approxequal" unicode="&#x2248;" horiz-adv-x="586" 
d="M284 394q-49 28 -81.5 32t-49.5 -10t-30 -46l-68 28q26 90 89 111t157 -31q75 -39 107.5 -31.5t47.5 63.5l75 -35q-25 -89 -87.5 -110.5t-159.5 29.5zM130 190l-75 35q25 89 88.5 111t157.5 -30q49 -29 82 -32.5t50 10.5t30 46l68 -28q-55 -186 -247 -80
q-73 38 -106 30.5t-48 -62.5z" />
    <glyph glyph-name="notequal" unicode="&#x2260;" horiz-adv-x="535" 
d="M480 493v-83h-156l-53 -120h209v-83h-246l-64 -142h-60l64 142h-119v83h156l53 120h-209v83h246l64 142h60l-64 -142h119z" />
    <glyph glyph-name="lessequal" unicode="&#x2264;" horiz-adv-x="523" 
d="M55 458l413 160v-94l-308 -107l308 -106v-94l-413 159v82zM468 85h-413v83h413v-83z" />
    <glyph glyph-name="greaterequal" unicode="&#x2265;" horiz-adv-x="523" 
d="M55 524v94l413 -160v-82l-413 -159v94l308 106zM468 85h-413v83h413v-83z" />
    <glyph glyph-name="lozenge" unicode="&#x25ca;" horiz-adv-x="545" 
d="M312 0h-78l-186 350l186 350h78l186 -350zM141 350l132 -246l131 246l-131 246z" />
    <glyph glyph-name="NULL" horiz-adv-x="0" 
 />
    <glyph glyph-name="CR" horiz-adv-x="333" 
 />
    <glyph glyph-name="i.loclTRK" horiz-adv-x="220" 
d="M154 582q-18 -18 -44 -18t-45 18q-18 18 -18 44t18 44q19 19 45 19t44 -19q18 -18 18 -44t-18 -44zM153 0h-87v500h87v-500z" />
    <glyph glyph-name="f_f_j" horiz-adv-x="802" 
d="M464 500h272v-530q0 -97 -49 -143.5t-144 -39.5v84q55 -5 80.5 18.5t25.5 80.5v446h-185v-416h-87v416h-186v-416h-87v416h-80v84h80v15q0 102 57 153.5t162 44.5v-84q-132 11 -132 -114v-15h186v25q0 198 218 198q45 0 103 -13v-79q-62 8 -103 8q-69 0 -100 -26t-31 -88
v-25z" />
    <glyph glyph-name="f_j" horiz-adv-x="530" 
d="M191 500h272v-530q0 -97 -49 -143.5t-143 -39.5v84q54 -5 79.5 18.5t25.5 80.5v446h-185v-416h-87v416h-80v84h80v15q0 198 219 198q44 0 103 -13v-79q-66 8 -103 8q-69 0 -100.5 -26t-31.5 -88v-15z" />
    <glyph glyph-name="uni0414.loclBGR" horiz-adv-x="710" 
d="M408 700l210 -612h70v-222h-93v134h-480v-134h-92v222h69l211 612h105zM355 590l-166 -502h332z" />
    <glyph glyph-name="uni041B.loclBGR" horiz-adv-x="621" 
d="M8 0l250 700h105l251 -700h-101l-202 584l-203 -584h-100z" />
    <glyph glyph-name="uni0424.loclBGR" horiz-adv-x="849" 
d="M470 -10v-90h-90v90q-154 13 -248 110t-94 250q0 152 94 249q95 98 248 111v90h90v-90q153 -13 248 -111q94 -97 94 -249q0 -153 -94 -250t-248 -110zM380 75v551q-117 -13 -183.5 -86t-66.5 -190t66.5 -190t183.5 -85zM470 626v-551q117 12 183 85t66 190t-66 190
t-183 86z" />
    <glyph glyph-name="uni0414.ss01" horiz-adv-x="695" 
d="M588 700v-612h75v-88h-648v88h61q65 82 65 246v366h447zM181 88h314v525h-261v-281q0 -158 -53 -244z" />
    <glyph glyph-name="uni0426.ss01" horiz-adv-x="690" 
d="M583 700v-612h75v-88h-583v700h93v-612h322v612h93z" />
    <glyph glyph-name="uni0429.ss01" horiz-adv-x="980" 
d="M873 700v-612h75v-88h-873v700h93v-612h260v612h92v-612h260v612h93z" />
    <glyph glyph-name="uni0414.loclBGR.ss01" horiz-adv-x="710" 
d="M408 700l210 -612h70v-88h-665v88h69l211 612h105zM355 590l-166 -502h332z" />
    <glyph glyph-name="uni0432.loclBGR" horiz-adv-x="569" 
d="M406 403q60 -21 92.5 -72.5t32.5 -125.5q0 -103 -61.5 -160.5t-170.5 -57.5t-171 65t-62 178v236q0 112 59 180q60 67 162 67q84 0 135.5 -47t51.5 -123q0 -77 -68 -140zM287 630q-62 0 -98 -44.5t-36 -119.5v-73l85 17q46 8 76 8q74 56 74 120q0 41 -27.5 66.5
t-73.5 25.5zM444 205q0 76 -56.5 109.5t-149.5 13.5l-85 -17v-81q0 -74 39 -116t107 -42t106.5 35t38.5 98z" />
    <glyph glyph-name="uni0433.loclBGR" horiz-adv-x="458" 
d="M353 151l75 -44q-24 -55 -76.5 -87.5t-122.5 -32.5q-82 0 -135 41t-53 109q0 49 27 82t70 47q17 6 48 14.5t50 15t40 16t31 23t10 30.5q0 31 -25 49t-61 18q-81 0 -110 -68l-73 42q25 49 73.5 78t109.5 29q75 0 124 -42q50 -42 50 -107q0 -48 -27 -80.5t-71 -47.5
q-15 -5 -47.5 -13.5t-50 -14.5t-39 -16t-31.5 -23.5t-10 -30.5q0 -34 27 -51.5t73 -17.5q44 0 77.5 22.5t46.5 59.5z" />
    <glyph glyph-name="uni0434.loclBGR" 
d="M481 414v86h86v-479q0 -111 -75 -172q-76 -62 -180 -62q-84 0 -145 31.5t-92 90.5l76 43q41 -84 163 -84q78 0 122.5 41t44.5 112v71q-66 -100 -188 -100q-108 0 -181 76q-74 77 -74 185t74 184q73 76 181 76q123 0 188 -99zM481 253q0 75 -51 126t-127 51t-127 -51
t-51 -126q0 -76 51 -127t127 -51t127 51t51 127z" />
    <glyph glyph-name="uni0436.loclBGR" horiz-adv-x="698" 
d="M471 258l210 -258h-102l-187 235v-235h-86v235l-187 -235h-101l209 258l-199 242h101l177 -220v420h86v-420l177 220h102z" />
    <glyph glyph-name="uni0438.loclBGR" horiz-adv-x="564" 
d="M411 235v265h87v-500h-87v72q-52 -85 -162 -85q-88 0 -141 55.5t-53 150.5v307h87v-302q0 -60 33 -94t91 -34q67 0 106 41.5t39 123.5z" />
    <glyph glyph-name="uni0439.loclBGR" horiz-adv-x="564" 
d="M140 651h270v-76h-270v76zM411 235v265h87v-500h-87v72q-52 -85 -162 -85q-88 0 -141 55.5t-53 150.5v307h87v-302q0 -60 33 -94t91 -34q67 0 106 41.5t39 123.5z" />
    <glyph glyph-name="uni043A.loclBGR" horiz-adv-x="504" 
d="M242 258l247 -258h-108l-228 237v-237h-87v700h87v-421l216 221h112z" />
    <glyph glyph-name="uni043B.loclBGR" horiz-adv-x="518" 
d="M310 500l200 -500h-94l-157 407l-157 -407h-94l200 500h102z" />
    <glyph glyph-name="uni043F.loclBGR" horiz-adv-x="564" 
d="M315 513q88 0 141 -55.5t53 -150.5v-307h-87v302q0 60 -33 94t-91 34q-67 0 -106 -41.5t-39 -123.5v-265h-87v500h87v-72q52 85 162 85z" />
    <glyph glyph-name="uni0442.loclBGR" horiz-adv-x="849" 
d="M606 513q85 0 136.5 -55t51.5 -147v-311h-87v308q0 57 -29.5 89.5t-80.5 32.5q-58 0 -90.5 -38.5t-32.5 -113.5v-278h-87v308q0 57 -28.5 89.5t-77.5 32.5q-57 0 -92.5 -39.5t-35.5 -112.5v-278h-87v500h87v-67q51 80 149 80q101 0 147 -85q52 85 157 85z" />
    <glyph glyph-name="uni0446.loclBGR" horiz-adv-x="601" 
d="M533 83h41v-217h-86v138q-55 13 -72 70q-56 -87 -167 -87q-88 0 -140.5 55.5t-52.5 150.5v307h87v-301q0 -62 32.5 -95.5t90.5 -33.5q67 0 106 41.5t39 123.5v265h87v-382q0 -16 9.5 -25.5t25.5 -9.5z" />
    <glyph glyph-name="uni0448.loclBGR" horiz-adv-x="849" 
d="M696 222v278h87v-500h-87v67q-51 -80 -149 -80q-101 0 -147 85q-52 -85 -157 -85q-85 0 -136.5 55t-51.5 147v311h87v-308q0 -57 29.5 -89.5t80.5 -32.5q58 0 90.5 38.5t32.5 113.5v278h87v-308q0 -57 28.5 -89.5t77.5 -32.5q57 0 92.5 39.5t35.5 112.5z" />
    <glyph glyph-name="uni0449.loclBGR" horiz-adv-x="886" 
d="M818 83h41v-217h-86v138q-53 14 -71 66q-53 -83 -152 -83q-103 0 -149 85q-52 -85 -158 -85q-85 0 -136 55t-51 147v311h87v-307q0 -59 29 -91t80 -32q58 0 91 38.5t33 113.5v278h87v-307q0 -59 28 -91t78 -32q56 0 91.5 39.5t35.5 112.5v278h87v-382q0 -16 9.5 -25.5
t25.5 -9.5z" />
    <glyph glyph-name="uni044C.loclBGR" horiz-adv-x="483" 
d="M142 346h116q94 0 146 -46t52 -128q0 -77 -56 -131t-144 -54q-93 0 -146 52q-54 53 -54 135v326h86v-154zM256 71q50 0 81 31q33 32 33 70q0 44 -29.5 68.5t-82.5 24.5h-116v-91q0 -44 31.5 -73.5t82.5 -29.5z" />
    <glyph glyph-name="uni044A.loclBGR" horiz-adv-x="568" 
d="M225 346h116q94 0 146 -46t52 -128q0 -77 -56 -131q-55 -54 -144 -54q-93 0 -146 52q-54 53 -54 135v243h-139v83h225v-154zM339 71q50 0 81 31q33 32 33 70q0 44 -29.5 68.5t-82.5 24.5h-116v-91q0 -44 31.5 -73.5t82.5 -29.5z" />
    <glyph glyph-name="uni044E.loclBGR" horiz-adv-x="804" 
d="M503 513q110 0 186 -76q77 -77 77 -187t-77 -187q-76 -76 -186 -76q-99 0 -171 63q-73 63 -86 159h-93v-209h-87v700h87v-408h93q14 96 86 158q74 63 171 63zM503 72q74 0 125 51t51 127t-51 127t-125 51q-75 0 -126 -51t-51 -127t51 -127t126 -51z" />
    <glyph glyph-name="zero.sinf" horiz-adv-x="410" 
d="M334 -115q-46 -58 -129 -58q-82 0 -130 58q-47 59 -47 155t47 155q48 58 130 58q83 0 129 -58q48 -59 48 -155t-48 -155zM132 -62q26 -35 73 -35t73 35t26 102t-26 102t-73 35t-73 -35t-26 -102t26 -102z" />
    <glyph glyph-name="one.sinf" horiz-adv-x="248" 
d="M8 198l117 42h67v-400h-77v319l-88 -26z" />
    <glyph glyph-name="two.sinf" horiz-adv-x="344" 
d="M315 -160h-286v57l162 153q39 36 39 77q0 24 -16.5 38.5t-44.5 14.5q-55 0 -79 -58l-64 36q41 95 143 95q61 0 100 -35.5t39 -88.5q0 -68 -64 -126l-101 -91h172v-72z" />
    <glyph glyph-name="three.sinf" horiz-adv-x="347" 
d="M298 174l-84 -100q48 -10 75 -40.5t27 -75.5q0 -60 -40.5 -95.5t-108.5 -35.5q-106 0 -147 86l65 37q23 -51 82 -51q35 0 53.5 16t18.5 43t-20 43.5t-53 16.5h-9l-34 50l84 100h-172v72h263v-66z" />
    <glyph glyph-name="four.sinf" horiz-adv-x="355" 
d="M289 -18h47v-71h-47v-71h-76v71h-199v71l142 258h83l-140 -258h114v88h76v-88z" />
    <glyph glyph-name="five.sinf" horiz-adv-x="331" 
d="M117 90h52q64 0 103 -35.5t39 -97.5q0 -60 -39 -95t-105 -35q-106 0 -146 87l65 36q22 -52 80 -52q34 0 52.5 16t18.5 44t-19 45.5t-52 17.5h-124l15 219h237v-71h-172z" />
    <glyph glyph-name="six.sinf" horiz-adv-x="337" 
d="M163 108h5q67 0 108 -40q42 -40 42 -100t-43 -100q-43 -41 -107 -41t-107 41q-42 40 -42 100q0 47 25 81l121 191h87zM113 -83q21 -20 55 -20t55 20q21 19 21 51t-21 51t-55 19t-55 -19q-20 -19 -20 -51t20 -51z" />
    <glyph glyph-name="seven.sinf" horiz-adv-x="296" 
d="M8 168v72h269v-61l-141 -339h-81l138 328h-185z" />
    <glyph glyph-name="eight.sinf" horiz-adv-x="340" 
d="M254 51q63 -35 63 -104q0 -55 -40 -87.5t-107 -32.5t-107 32.5t-40 87.5q0 69 63 104q-50 30 -50 86q0 52 38 84t96 32t96 -32t38 -84q0 -56 -50 -86zM170 184q-30 0 -46 -13.5t-16 -36.5q0 -24 16 -38.5t46 -14.5q29 0 45.5 14.5t16.5 38.5q0 23 -16.5 36.5t-45.5 13.5z
M170 16q-34 0 -53 -15.5t-19 -43.5q0 -27 19 -43t53 -16t53 16t19 43t-19.5 43t-52.5 16z" />
    <glyph glyph-name="nine.sinf" horiz-adv-x="337" 
d="M318 112q0 -47 -25 -81l-121 -191h-87l89 132h-5q-67 0 -108 40q-42 40 -42 100t42 100q44 41 108 41t107 -41q42 -40 42 -100zM114 163q-21 -19 -21 -51t21 -51q20 -19 55 -19t54 19q21 19 21 51t-21 51q-20 20 -54 20q-33 0 -55 -20z" />
    <glyph glyph-name="zero.tf" horiz-adv-x="573" 
d="M485 86q-70 -99 -199 -99q-128 0 -199 99q-71 100 -71 264t71 264q71 99 199 99q129 0 199 -99q71 -100 71 -264t-71 -264zM109 350q0 -130 46 -201t131 -71t131.5 70.5t46.5 201.5t-46.5 202t-131.5 71t-131 -71t-46 -202z" />
    <glyph glyph-name="one.tf" horiz-adv-x="573" 
d="M346 700v-612h200v-88h-510v88h218v512l-149 -44l-23 80l184 64h80z" />
    <glyph glyph-name="two.tf" horiz-adv-x="573" 
d="M533 0h-492v76l254 223q69 60 100 102.5t31 87.5q0 61 -38.5 97.5t-104.5 36.5q-109 0 -158 -109l-78 45q33 74 96 114t141 40q103 0 168 -61q67 -61 67 -161q0 -66 -39.5 -125t-121.5 -128l-178 -148h353v-90z" />
    <glyph glyph-name="three.tf" horiz-adv-x="573" 
d="M506 618l-165 -203q90 -15 142.5 -68.5t52.5 -137.5q0 -105 -72 -163q-73 -59 -184 -59q-91 0 -159.5 42.5t-95.5 117.5l78 46q16 -54 62.5 -84.5t112.5 -30.5q78 0 122 34t44 97q0 62 -44 96.5t-122 34.5h-22l-39 57l175 216h-344v87h458v-82z" />
    <glyph glyph-name="four.tf" horiz-adv-x="573" 
d="M469 220h85v-87h-85v-133h-93v133h-360v87l251 480h100l-251 -480h260v183h93v-183z" />
    <glyph glyph-name="five.tf" horiz-adv-x="573" 
d="M169 427h120q106 0 177 -59q70 -58 70 -161t-72 -162q-70 -58 -176 -58q-91 0 -160 42.5t-96 117.5l79 46q15 -53 61.5 -84t113.5 -31q73 0 115.5 34.5t42.5 94.5q0 62 -42.5 96t-115.5 34h-215l26 363h412v-87h-327z" />
    <glyph glyph-name="six.tf" horiz-adv-x="573" 
d="M279 460q118 0 189 -65t71 -171t-71 -172q-71 -65 -189 -65q-119 0 -190 65q-70 66 -70 172q0 88 49 149l234 327h109l-174 -242q38 2 42 2zM155 116q44 -40 124 -40t123 40q44 41 44 108t-44 108q-43 40 -123 40t-124 -40q-44 -41 -44 -108t44 -108z" />
    <glyph glyph-name="seven.tf" horiz-adv-x="573" 
d="M35 612v88h500v-83l-278 -617h-97l275 612h-400z" />
    <glyph glyph-name="eight.tf" horiz-adv-x="573" 
d="M431 362q53 -26 82.5 -70.5t29.5 -99.5q0 -96 -69.5 -150.5t-187.5 -54.5t-187 55t-69 150q0 55 29.5 99.5t82.5 70.5q-88 55 -88 153q0 93 65 146q65 52 167 52t167 -52q66 -51 66 -146q0 -98 -88 -153zM286 624q-66 0 -103 -28.5t-37 -82.5q0 -53 38 -82.5t102 -29.5
q66 0 103.5 29.5t37.5 82.5q0 54 -37 82.5t-104 28.5zM164 108q44 -32 122 -32t122 32q43 31 43 90q0 58 -43 89q-44 32 -122 32t-122 -32q-42 -32 -42 -89q0 -58 42 -90z" />
    <glyph glyph-name="nine.tf" horiz-adv-x="573" 
d="M554 476q0 -83 -47 -145l-237 -331h-108l173 242q-34 -2 -41 -2q-118 0 -189 65t-71 171t71 171q71 66 189 66t189 -66q71 -65 71 -171zM461 476q0 69 -44 108.5t-123 39.5q-78 0 -123 -39.5t-45 -108.5q0 -68 44.5 -107.5t123.5 -39.5q78 0 122.5 39t44.5 108z" />
    <glyph glyph-name="zero.dnom" horiz-adv-x="410" 
d="M334 45q-46 -58 -129 -58q-82 0 -130 58q-47 59 -47 155t47 155q48 58 130 58q83 0 129 -58q48 -59 48 -155t-48 -155zM132 98q26 -35 73 -35t73 35t26 102t-26 102t-73 35t-73 -35t-26 -102t26 -102z" />
    <glyph glyph-name="one.dnom" horiz-adv-x="254" 
d="M8 358l117 42h67v-400h-77v319l-88 -26z" />
    <glyph glyph-name="two.dnom" horiz-adv-x="345" 
d="M315 0h-286v57l162 153q39 36 39 77q0 24 -16.5 38.5t-44.5 14.5q-55 0 -79 -58l-64 36q41 95 143 95q61 0 100 -35.5t39 -88.5q0 -68 -64 -126l-101 -91h172v-72z" />
    <glyph glyph-name="three.dnom" horiz-adv-x="351" 
d="M298 334l-84 -100q48 -10 75 -40.5t27 -75.5q0 -60 -40.5 -95.5t-108.5 -35.5q-106 0 -147 86l65 37q22 -51 82 -51q35 0 53.5 16t18.5 43t-20 43.5t-53 16.5h-9l-34 50l84 100h-172v72h263v-66z" />
    <glyph glyph-name="four.dnom" horiz-adv-x="355" 
d="M289 142h47v-71h-47v-71h-76v71h-199v71l142 258h83l-140 -258h114v88h76v-88z" />
    <glyph glyph-name="five.dnom" horiz-adv-x="339" 
d="M113 250h52q64 0 103 -35.5t39 -97.5q0 -60 -39 -95t-105 -35q-106 0 -146 87l65 36q22 -52 80 -52q34 0 52.5 16t18.5 44t-19 45.5t-52 17.5h-124l15 219h237v-71h-172z" />
    <glyph glyph-name="six.dnom" horiz-adv-x="337" 
d="M163 268h5q67 0 108 -40q42 -40 42 -100q0 -61 -43 -101q-41 -40 -107 -40t-107 40q-42 41 -42 101q0 47 25 81l121 191h87zM113 76q21 -19 55 -19t55 19q21 20 21 52t-21 51t-55 19t-55 -19q-20 -20 -20 -51q0 -32 20 -52z" />
    <glyph glyph-name="seven.dnom" horiz-adv-x="296" 
d="M8 328v72h269v-61l-141 -339h-81l138 328h-185z" />
    <glyph glyph-name="eight.dnom" horiz-adv-x="340" 
d="M254 211q63 -34 63 -104q0 -55 -40 -87.5t-107 -32.5t-107 32.5t-40 87.5q0 69 63 104q-50 30 -50 86q0 52 38 84t96 32t96 -32t38 -84q0 -56 -50 -86zM170 344q-30 0 -46 -13.5t-16 -36.5q0 -24 16 -38.5t46 -14.5q29 0 45.5 14.5t16.5 38.5q0 23 -16.5 36.5t-45.5 13.5
zM170 176q-34 0 -53 -15.5t-19 -43.5q0 -27 19 -43t53 -16t53 16t19 43t-19.5 43t-52.5 16z" />
    <glyph glyph-name="nine.dnom" horiz-adv-x="337" 
d="M318 272q0 -47 -25 -81l-121 -191h-87l89 132h-5q-67 0 -108 40q-42 40 -42 100t42 100q44 41 108 41t107 -41q42 -40 42 -100zM244 272q0 32 -20.5 51.5t-54.5 19.5t-55 -19.5t-21 -51.5t21 -51t55 -19t54.5 19.5t20.5 50.5z" />
    <glyph glyph-name="zero.numr" horiz-adv-x="410" 
d="M334 345q-46 -58 -129 -58q-82 0 -130 58q-47 59 -47 155t47 155q48 58 130 58q83 0 129 -58q48 -59 48 -155t-48 -155zM132 398q26 -35 73 -35t73 35t26 102t-26 102t-73 35t-73 -35t-26 -102t26 -102z" />
    <glyph glyph-name="one.numr" horiz-adv-x="254" 
d="M8 658l117 42h67v-400h-77v319l-88 -26z" />
    <glyph glyph-name="two.numr" horiz-adv-x="345" 
d="M315 300h-286v57l162 153q39 36 39 77q0 24 -16.5 38.5t-44.5 14.5q-55 0 -79 -58l-64 36q41 95 143 95q61 0 100 -35.5t39 -88.5q0 -68 -64 -126l-101 -91h172v-72z" />
    <glyph glyph-name="three.numr" horiz-adv-x="351" 
d="M298 634l-84 -100q48 -10 75 -40.5t27 -75.5q0 -60 -40.5 -95.5t-108.5 -35.5q-106 0 -147 86l65 37q22 -51 82 -51q35 0 53.5 16t18.5 43t-20 43.5t-53 16.5h-9l-34 50l84 100h-172v72h263v-66z" />
    <glyph glyph-name="four.numr" horiz-adv-x="355" 
d="M289 442h47v-71h-47v-71h-76v71h-199v71l142 258h83l-140 -258h114v88h76v-88z" />
    <glyph glyph-name="five.numr" horiz-adv-x="339" 
d="M113 550h52q64 0 103 -35.5t39 -97.5q0 -60 -39 -95t-105 -35q-106 0 -146 87l65 36q22 -52 80 -52q34 0 52.5 16t18.5 44t-19 45.5t-52 17.5h-124l15 219h237v-71h-172z" />
    <glyph glyph-name="six.numr" horiz-adv-x="337" 
d="M163 568h5q67 0 108 -40q42 -40 42 -100q0 -61 -43 -101q-41 -40 -107 -40t-107 40q-42 41 -42 101q0 47 25 81l121 191h87zM113 376q21 -19 55 -19t55 19q21 20 21 52t-21 51t-55 19t-55 -19q-20 -20 -20 -51q0 -32 20 -52z" />
    <glyph glyph-name="seven.numr" horiz-adv-x="296" 
d="M8 628v72h269v-61l-141 -339h-81l138 328h-185z" />
    <glyph glyph-name="eight.numr" horiz-adv-x="340" 
d="M254 511q63 -35 63 -104q0 -55 -40 -87.5t-107 -32.5t-107 32.5t-40 87.5q0 69 63 104q-50 30 -50 86q0 52 38 84t96 32t96 -32t38 -84q0 -56 -50 -86zM170 644q-30 0 -46 -13.5t-16 -36.5q0 -24 16 -38.5t46 -14.5q29 0 45.5 14.5t16.5 38.5q0 23 -16.5 36.5t-45.5 13.5
zM170 476q-34 0 -53 -15.5t-19 -43.5q0 -27 19 -43t53 -16t53 16t19 43t-19.5 43t-52.5 16z" />
    <glyph glyph-name="nine.numr" horiz-adv-x="337" 
d="M318 572q0 -47 -25 -81l-121 -191h-87l89 132h-5q-67 0 -108 40q-42 41 -42 100q0 60 42 100q44 41 108 41t107 -41q42 -40 42 -100zM114 623q-21 -19 -21 -51t21 -51q20 -19 55 -19t54 19q21 19 21 51t-21 51q-20 20 -54 20q-33 0 -55 -20z" />
    <glyph glyph-name="zero.sups" horiz-adv-x="410" 
d="M334 505q-46 -58 -129 -58q-82 0 -130 58q-47 59 -47 155t47 155q48 58 130 58q83 0 129 -58q48 -59 48 -155t-48 -155zM132 558q26 -35 73 -35t73 35t26 102t-26 102t-73 35t-73 -35t-26 -102t26 -102z" />
    <glyph glyph-name="one.sups" horiz-adv-x="254" 
d="M8 818l117 42h67v-400h-77v319l-88 -26z" />
    <glyph glyph-name="two.sups" horiz-adv-x="345" 
d="M315 460h-286v57l162 153q39 36 39 77q0 24 -16.5 38.5t-44.5 14.5q-55 0 -79 -58l-64 36q41 95 143 95q61 0 100 -35.5t39 -88.5q0 -68 -64 -126l-101 -91h172v-72z" />
    <glyph glyph-name="three.sups" horiz-adv-x="351" 
d="M298 794l-84 -100q48 -10 75 -40.5t27 -75.5q0 -60 -40.5 -95.5t-108.5 -35.5q-106 0 -147 86l65 37q22 -51 82 -51q35 0 53.5 16t18.5 43t-20 43.5t-53 16.5h-9l-34 50l84 100h-172v72h263v-66z" />
    <glyph glyph-name="four.sups" horiz-adv-x="355" 
d="M289 602h47v-71h-47v-71h-76v71h-199v71l142 258h83l-140 -258h114v88h76v-88z" />
    <glyph glyph-name="five.sups" horiz-adv-x="339" 
d="M113 710h52q64 0 103 -35.5t39 -97.5q0 -60 -39 -95t-105 -35q-106 0 -146 87l65 36q22 -52 80 -52q34 0 52.5 16t18.5 44t-19 45.5t-52 17.5h-124l15 219h237v-71h-172z" />
    <glyph glyph-name="six.sups" horiz-adv-x="337" 
d="M163 728h5q67 0 108 -40q42 -40 42 -100q0 -61 -43 -101q-41 -40 -107 -40t-107 40q-42 41 -42 101q0 47 25 81l121 191h87zM113 536q21 -19 55 -19t55 19q21 20 21 52t-21 51t-55 19t-55 -19q-20 -20 -20 -51q0 -32 20 -52z" />
    <glyph glyph-name="seven.sups" horiz-adv-x="296" 
d="M8 788v72h269v-61l-141 -339h-81l138 328h-185z" />
    <glyph glyph-name="eight.sups" horiz-adv-x="340" 
d="M254 671q63 -34 63 -104q0 -55 -40 -87.5t-107 -32.5t-107 32.5t-40 87.5q0 70 63 104q-50 30 -50 86q0 52 38 84t96 32t96 -32t38 -84q0 -56 -50 -86zM170 804q-30 0 -46 -13.5t-16 -36.5q0 -24 16 -38.5t46 -14.5q29 0 45.5 14.5t16.5 38.5q0 23 -16.5 36.5t-45.5 13.5
zM170 636q-34 0 -53 -15.5t-19 -43.5q0 -27 19 -43t53 -16t53 16t19 43t-19.5 43t-52.5 16z" />
    <glyph glyph-name="nine.sups" horiz-adv-x="337" 
d="M318 732q0 -47 -25 -81l-121 -191h-87l89 132h-5q-67 0 -108 40q-42 40 -42 100t42 100q44 41 108 41t107 -41q42 -40 42 -100zM114 783q-21 -19 -21 -51t21 -51q20 -19 55 -19t54 19q21 19 21 51t-21 51q-20 20 -54 20q-33 0 -55 -20z" />
    <glyph glyph-name="cent.tf" horiz-adv-x="573" 
d="M464 260l74 -43q-33 -60 -93 -95t-132 -35q-31 0 -65 8l-31 -95h-53l36 111q-69 31 -109.5 95t-40.5 144q0 112 75 187q75 76 188 76q29 0 48 -4l29 91h53l-34 -105q86 -32 125 -113l-73 -42q-26 52 -78 74l-109 -337q15 -4 39 -4q50 0 90 23.5t61 63.5zM137 350
q0 -51 24 -92t66 -64l107 333q-5 1 -21 1q-75 0 -126 -51q-50 -52 -50 -127z" />
    <glyph glyph-name="dollar.tf" horiz-adv-x="573" 
d="M538 186q0 -81 -56 -134.5t-149 -62.5v-89h-62v88q-176 11 -236 160l80 46q36 -106 156 -117v242q-89 28 -141 67q-61 46 -61 136q0 82 57 132q56 50 145 58v88h62v-89q139 -16 190 -142l-78 -45q-31 84 -112 97v-230q87 -27 142 -67q63 -45 63 -138zM161 522
q0 -39 25.5 -64t84.5 -46v211q-52 -5 -81 -32t-29 -69zM333 299v-221q53 7 82.5 35t29.5 71q0 42 -25.5 67.5t-86.5 47.5z" />
    <glyph glyph-name="Euro.tf" horiz-adv-x="573" 
d="M472 184l76 -43q-25 -73 -79.5 -113.5t-127.5 -40.5q-102 0 -168 73.5t-83 202.5h-66v65h60v22q0 24 1 31h-61v64h67q18 126 83.5 197t166.5 71q72 0 125 -38t78 -107l-77 -44q-15 48 -48 73.5t-78 25.5q-62 0 -103 -46t-55 -132h221v-64h-227q-1 -7 -1 -31v-22h228v-65
h-222q13 -89 54.5 -137t104.5 -48q46 0 80.5 28t50.5 78z" />
    <glyph glyph-name="florin.tf" horiz-adv-x="573" 
d="M545 704v-86q-112 39 -137 -64l-41 -161h141v-84h-163l-94 -369q-49 -187 -223 -141v85q110 -37 136 64l92 361h-139v84h161l43 169q48 189 224 142z" />
    <glyph glyph-name="uni20BD.tf" horiz-adv-x="573" 
d="M326 268h-138v-81h225v-68h-225v-119h-93v119h-85v68h85v81h-85v84h85v348h231q91 0 155 -64q64 -63 64 -153t-64 -153q-64 -62 -155 -62zM326 613h-138v-261h138q51 0 89 38q38 40 38 93q0 55 -37 92q-38 38 -90 38z" />
    <glyph glyph-name="sterling.tf" horiz-adv-x="573" 
d="M210 284v-194h353v-90h-533v90h87v194h-69v82h69v134q0 102 62 158q62 55 148 55q71 0 122 -36t78 -102l-78 -44q-33 92 -121 92q-52 0 -85 -32.5t-33 -92.5v-132h224v-82h-224z" />
    <glyph glyph-name="yen.tf" horiz-adv-x="573" 
d="M464 700h103l-215 -348h155v-65h-174v-55h174v-66h-174v-166h-93v166h-173v66h173v55h-173v65h155l-216 348h103l178 -292z" />
    <glyph glyph-name="brevecy" horiz-adv-x="320" 
d="M295 575h-270v76h270v-76z" />
    <hkern g1="R,Racute,Rcommaaccent,Rcaron"
	g2="S,Sacute,Scedilla,Scaron,Scommaaccent,uni</font>
</defs>
</svg>
