<?xml version="1.0" standalone="no"?>
<!DOCTYPE svg PUBLIC "-//W3C//DTD SVG 1.1//EN" "http://www.w3.org/Graphics/SVG/1.1/DTD/svg11.dtd" >
<svg xmlns="http://www.w3.org/2000/svg" xmlns:xlink="http://www.w3.org/1999/xlink" version="1.1">
<metadata>
Created by FontForge 20170731 at Fri Jul 22 02:26:37 2016
 By Aleksey,,,
Copyright (c) 2016 by Radomir Tinkov. All rights reserved.
</metadata>
<defs>
<font id="Gilroy-Bold" horiz-adv-x="626" >
  <font-face 
    font-family="Gilroy"
    font-weight="700"
    font-stretch="normal"
    units-per-em="1000"
    panose-1="0 0 8 0 0 0 0 0 0 0"
    ascent="773"
    descent="-227"
    x-height="500"
    cap-height="700"
    bbox="-415 -263 1094 975"
    underline-thickness="50"
    underline-position="-200"
    unicode-range="U+0020-FB02"
  />
<missing-glyph horiz-adv-x="500" 
d="M93 800h317v-1000h-317v1000zM333 700v33h-165v-33h65v-37h-66v-33h166v33h-66v37h66zM267 534v70h-100v-104h166v34h-66zM200 570h33v-36h-33v36zM333 440v33h-166v-33h66v-37h-66v-33h100v70h66zM333 313v100h-33v-66h-133v-34h166zM333 178v113h-100v-56h34v23h33v-47
h-100v80h-33v-113h166zM333 5v113h-166v-113h166zM200 85h100v-47h-100v47zM333 -51v33h-166v-33h70l-70 -47v-33h166v33h-102l70 47h32z" />
    <glyph glyph-name="fi" unicode="fi" horiz-adv-x="557" 
d="M222 500h276v-500h-129v376h-147v-376h-129v376h-72v124h72v5q0 209 235 209q50 0 117 -14v-118q-72 8 -117 8q-56 0 -81 -19t-25 -66v-5z" />
    <glyph glyph-name="fl" unicode="fl" horiz-adv-x="557" 
d="M328 714q65 0 170 -21v-693h-129v600q-9 1 -41 1q-106 0 -106 -96v-5h83v-124h-83v-376h-129v376h-72v124h72v5q0 209 235 209z" />
    <glyph glyph-name="f_f" unicode="ff" horiz-adv-x="605" 
d="M605 724v-124q-106 7 -106 -85v-15h106v-124h-106v-376h-129v376h-148v-376h-129v376h-72v124h72v5q0 107 59.5 161.5t175.5 47.5v-124q-106 7 -106 -85v-5h148v15q0 107 60 161.5t175 47.5z" />
    <glyph glyph-name="f_f_i" unicode="ffi" horiz-adv-x="834" 
d="M499 500h276v-500h-129v376h-147v-376h-129v376h-148v-376h-129v376h-72v124h72v5q0 107 59.5 161.5t175.5 47.5v-124q-106 7 -106 -85v-5h148v15q0 209 235 209q51 0 118 -14v-118q-74 8 -118 8q-55 0 -80.5 -19t-25.5 -66v-15z" />
    <glyph glyph-name="f_f_l" unicode="ffl" horiz-adv-x="834" 
d="M605 724q67 0 170 -21v-703h-129v610q-9 1 -41 1q-106 0 -106 -96v-15h84v-124h-84v-376h-129v376h-148v-376h-129v376h-72v124h72v5q0 107 59.5 161.5t175.5 47.5v-124q-106 7 -106 -85v-5h148v15q0 209 235 209z" />
    <glyph glyph-name=".notdef" horiz-adv-x="500" 
d="M93 800h317v-1000h-317v1000zM333 700v33h-165v-33h65v-37h-66v-33h166v33h-66v37h66zM267 534v70h-100v-104h166v34h-66zM200 570h33v-36h-33v36zM333 440v33h-166v-33h66v-37h-66v-33h100v70h66zM333 313v100h-33v-66h-133v-34h166zM333 178v113h-100v-56h34v23h33v-47
h-100v80h-33v-113h166zM333 5v113h-166v-113h166zM200 85h100v-47h-100v47zM333 -51v33h-166v-33h70l-70 -47v-33h166v33h-102l70 47h32z" />
    <glyph glyph-name=".null" horiz-adv-x="0" 
 />
    <glyph glyph-name="nonmarkingreturn" horiz-adv-x="333" 
 />
    <glyph glyph-name="space" unicode=" " horiz-adv-x="250" 
 />
    <glyph glyph-name="exclam" unicode="!" horiz-adv-x="268" 
d="M185 235h-102l-27 265v200h155v-200zM194 12q-25 -25 -60 -25t-60 25t-25 60t25 60t60 25t60 -25t25 -60t-25 -60z" />
    <glyph glyph-name="quotedbl" unicode="&#x22;" horiz-adv-x="378" 
d="M148 470h-88l-17 230h122zM318 470h-88l-17 230h122z" />
    <glyph glyph-name="numbersign" unicode="#" horiz-adv-x="616" 
d="M593 493l-16 -98h-108l-15 -90h109l-16 -97h-110l-26 -158h-102l26 158h-102l-26 -158h-101l26 158h-109l16 97h110l15 90h-111l16 98h111l26 157h101l-26 -157h102l26 157h102l-26 -157h108zM250 305h102l15 90h-102z" />
    <glyph glyph-name="dollar" unicode="$" horiz-adv-x="549" 
d="M524 196q0 -86 -55 -141.5t-147 -66.5v-88h-67v87q-84 6 -144 47t-86 111l119 69q32 -81 111 -91v173h-1l-2 1q-61 22 -109 52q-81 51 -87 162q0 89 57 141q60 54 142 61v87h67v-89q136 -17 192 -141l-116 -68q-24 60 -76 73v-167q97 -39 125 -59q77 -56 77 -153z
M193 510q0 -22 14 -38.5t48 -33.5v140q-62 -12 -62 -68zM322 269v-144q64 13 64 70q0 45 -64 74z" />
    <glyph glyph-name="percent" unicode="%" horiz-adv-x="765" 
d="M334 431q-49 -47 -120 -47q-72 0 -121 48q-48 48 -48 117t48 117q50 48 121 48q72 0 120 -48q48 -46 48 -117q0 -70 -48 -118zM176 71l-60 35l456 507l61 -34zM168 503q18 -18 45 -18t45 18q18 19 18 46t-18 45t-45 18t-45 -18q-17 -18 -17 -45t17 -46zM672 36
q-48 -48 -120 -48t-120 48t-48 117t48 117t120 48t120 -48t48 -117t-48 -117zM614 153q0 27 -17.5 45.5t-44.5 18.5t-44.5 -18.5t-17.5 -45.5t17.5 -45.5t44.5 -18.5t44.5 18.5t17.5 45.5z" />
    <glyph glyph-name="ampersand" unicode="&#x26;" horiz-adv-x="673" 
d="M562 139l90 -99l-110 -63l-64 69q-81 -60 -188 -60t-177 56q-68 57 -68 152q0 63 30.5 115.5t86.5 85.5q-34 53 -34 117q0 89 62 145q62 57 157 57q76 0 135 -39t88 -111l-118 -68q-28 84 -103 84q-36 0 -59.5 -21t-23.5 -53q0 -27 12.5 -49.5t44.5 -56.5l150 -164
q22 45 34 116l116 -66q-20 -82 -61 -147zM299 113q53 0 93 25l-151 164q-2 2 -2 3q-55 -34 -55 -97q0 -44 30 -69.5t85 -25.5z" />
    <glyph glyph-name="quotesingle" unicode="'" horiz-adv-x="208" 
d="M148 470h-88l-17 230h122z" />
    <glyph glyph-name="parenleft" unicode="(" horiz-adv-x="307" 
d="M292 -100h-129q-110 220 -110 450t110 450h129q-110 -220 -110 -450t110 -450z" />
    <glyph glyph-name="parenright" unicode=")" horiz-adv-x="307" 
d="M144 -100h-129q110 220 110 450t-110 450h129q110 -220 110 -450t-110 -450z" />
    <glyph glyph-name="asterisk" unicode="*" horiz-adv-x="398" 
d="M255 601l91 8v-80l-91 7l55 -70l-68 -42l-43 84l-43 -84l-67 42l54 70l-90 -7v80l90 -8l-54 71l67 42l43 -84l43 84l68 -42z" />
    <glyph glyph-name="plus" unicode="+" horiz-adv-x="555" 
d="M338 411h165v-121h-165v-165h-121v165h-164v121h164v164h121v-164z" />
    <glyph glyph-name="comma" unicode="," horiz-adv-x="278" 
d="M89 138h140l-75 -278h-105z" />
    <glyph glyph-name="hyphen" unicode="-" horiz-adv-x="505" 
d="M440 240h-375v124h375v-124z" />
    <glyph glyph-name="period" unicode="." horiz-adv-x="268" 
d="M194 12q-25 -25 -60 -25t-60 25t-25 60t25 60t60 25t60 -25t25 -60t-25 -60z" />
    <glyph glyph-name="slash" unicode="/" horiz-adv-x="523" 
d="M490 800l-400 -900h-57l400 900h57z" />
    <glyph glyph-name="zero" unicode="0" horiz-adv-x="630" 
d="M315 -14q-131 0 -206 99q-74 101 -74 265t74 264q75 100 206 100q133 0 206 -100q74 -100 74 -264t-74 -265q-73 -99 -206 -99zM458 350q0 112 -36.5 171t-106.5 59t-106 -59t-36 -171t36 -170.5t106 -58.5t106.5 59t36.5 170z" />
    <glyph glyph-name="one" unicode="1" horiz-adv-x="387" 
d="M11 635l184 65h120v-700h-138v554l-132 -37z" />
    <glyph glyph-name="two" unicode="2" horiz-adv-x="531" 
d="M495 0h-468v103l239 246q80 85 80 140q0 41 -25.5 66t-65.5 25q-80 0 -117 -82l-116 68q32 71 93.5 109.5t137.5 38.5q95 0 163 -60q68 -59 68 -160q0 -109 -115 -224l-137 -137h263v-133z" />
    <glyph glyph-name="three" unicode="3" horiz-adv-x="545" 
d="M484 586l-131 -170q73 -21 116.5 -74t43.5 -126q0 -108 -73 -169q-71 -61 -177 -61q-83 0 -147 38.5t-93 109.5l118 68q25 -81 122 -81q53 0 82.5 25.5t29.5 69.5q0 43 -29.5 69t-82.5 26h-30l-53 80l138 180h-274v129h440v-114z" />
    <glyph glyph-name="four" unicode="4" horiz-adv-x="580" 
d="M491 247h75v-128h-75v-119h-139v119h-331v128l233 453h148l-232 -453h182v166h139v-166z" />
    <glyph glyph-name="five" unicode="5" horiz-adv-x="548" 
d="M208 445h72q102 0 170 -61q69 -60 69 -168t-73 -169q-71 -61 -177 -61q-86 0 -150.5 38.5t-93.5 111.5l118 69q25 -84 126 -84q53 0 82.5 25.5t29.5 69.5q0 43 -29 69t-79 26h-212l28 389h397v-129h-269z" />
    <glyph glyph-name="six" unicode="6" horiz-adv-x="553" 
d="M440 700l-155 -227q109 -3 177 -71t68 -172q0 -107 -71 -176q-71 -68 -183 -68t-183 68q-70 67 -70 176q0 79 41 141l218 329h158zM393 230q0 50 -33 81.5t-84 31.5t-83.5 -31t-32.5 -82t32.5 -82.5t83.5 -31.5t84 31.5t33 82.5z" />
    <glyph glyph-name="seven" unicode="7" horiz-adv-x="490" 
d="M13 568v132h452v-117l-237 -583h-146l230 568h-299z" />
    <glyph glyph-name="eight" unicode="8" horiz-adv-x="568" 
d="M438 364q97 -58 97 -169q0 -97 -67.5 -153t-183.5 -56q-117 0 -184 56t-67 153q0 110 96 169q-73 52 -73 145q0 97 65 151q66 54 163 54q98 0 162 -54q65 -54 65 -151q0 -93 -73 -145zM349 562q-25 22 -65 22t-65 -22t-25 -60q0 -39 25 -61t65 -22t65 22t25 61
q0 38 -25 60zM398 213q0 45 -31 70.5t-83 25.5t-83 -25.5t-31 -70.5t31 -71t83 -26t83 26t31 71z" />
    <glyph glyph-name="nine" unicode="9" horiz-adv-x="553" 
d="M530 471q0 -81 -42 -142h1l-218 -329h-158l156 228q-109 1 -178 69q-68 68 -68 174q0 108 70 175q71 68 183 68t183 -68t71 -175zM160 471q0 -51 33 -82.5t83 -31.5q52 0 84.5 31.5t32.5 82.5t-32.5 82t-84.5 31q-50 0 -83 -31.5t-33 -81.5z" />
    <glyph glyph-name="colon" unicode=":" horiz-adv-x="268" 
d="M194 370q-25 -25 -60 -25t-60 25t-25 60t25 60t60 25t60 -25t25 -60t-25 -60zM194 12q-25 -25 -60 -25t-60 25t-25 60t25 60t60 25t60 -25t25 -60t-25 -60z" />
    <glyph glyph-name="semicolon" unicode=";" horiz-adv-x="279" 
d="M205 370q-25 -25 -60 -25t-60 25t-25 60t25 60t60 25t60 -25t25 -60t-25 -60zM89 138h140l-75 -278h-105z" />
    <glyph glyph-name="less" unicode="&#x3c;" horiz-adv-x="528" 
d="M45 408l438 190v-134l-291 -114l291 -113v-134l-438 190v115z" />
    <glyph glyph-name="equal" unicode="=" horiz-adv-x="525" 
d="M480 393h-435v121h435v-121zM480 186h-435v121h435v-121z" />
    <glyph glyph-name="greater" unicode="&#x3e;" horiz-adv-x="528" 
d="M45 464v134l438 -190v-115l-438 -190v134l291 113z" />
    <glyph glyph-name="question" unicode="?" horiz-adv-x="553" 
d="M333 235h-138q0 41 25 81t59 67q84 68 84 124q0 35 -24 54t-67 19q-84 0 -119 -89l-118 68q30 73 95 114t147 41q90 0 157 -53q67 -52 67 -144q0 -41 -17.5 -77.5t-42 -62t-49 -48t-42 -46.5t-17.5 -48zM324 12q-25 -25 -60 -25t-60 25t-25 60t25 60t60 25t60 -25t25 -60
t-25 -60z" />
    <glyph glyph-name="at" unicode="@" horiz-adv-x="779" 
d="M397 612q106 0 188 -52q80 -50 121 -126.5t41 -163.5q0 -102 -44 -159.5t-115 -57.5q-101 0 -132 79q-37 -46 -99 -46q-64 0 -106 46q-41 47 -41 118q0 70 41 117q42 47 106 47q54 0 91 -37v26h107v-231q0 -73 58 -73q44 0 70 44t26 127q0 130 -90 219q-91 89 -222 89
q-138 0 -233 -95q-94 -94 -94 -233q0 -142 98 -235t247 -93q96 0 162 25v-36q-69 -23 -162 -23q-164 0 -273 103q-109 102 -109 259q0 150 104 256q105 106 260 106zM384 182q28 0 45.5 19t17.5 49q0 31 -17.5 49.5t-45.5 18.5q-29 0 -47 -18.5t-18 -49.5q0 -30 18 -49
t47 -19z" />
    <glyph glyph-name="A" unicode="A" horiz-adv-x="668" 
d="M665 0h-150l-42 126h-279l-42 -126h-149l245 700h171zM334 541l-96 -286h192z" />
    <glyph glyph-name="B" unicode="B" horiz-adv-x="605" 
d="M488 363q92 -53 92 -160q0 -89 -63 -146t-155 -57h-297v700h276q89 0 151 -56t62 -141q0 -87 -66 -140zM341 571h-138v-154h138q32 0 53.5 22t21.5 55t-21 55t-54 22zM203 129h159q35 0 58 23.5t23 59.5q0 35 -23 58.5t-58 23.5h-159v-165z" />
    <glyph glyph-name="C" unicode="C" horiz-adv-x="726" 
d="M397 -14q-157 0 -261 105q-103 104 -103 259q0 156 103 259q104 105 261 105q95 0 175.5 -44.5t125.5 -120.5l-119 -69q-26 47 -74 73.5t-108 26.5q-102 0 -165 -64q-62 -65 -62 -166q0 -100 62 -165q63 -64 165 -64q60 0 108.5 26.5t73.5 72.5l119 -69
q-45 -76 -125.5 -120.5t-175.5 -44.5z" />
    <glyph glyph-name="D" unicode="D" horiz-adv-x="713" 
d="M65 700h278q144 0 240 -101q97 -100 97 -249t-97 -249q-96 -101 -240 -101h-278v700zM203 132h140q91 0 148 60q57 62 57 158q0 97 -57 157q-57 61 -148 61h-140v-436z" />
    <glyph glyph-name="E" unicode="E" horiz-adv-x="530" 
d="M203 289v-157h295v-132h-433v700h428v-132h-290v-149h265v-130h-265z" />
    <glyph glyph-name="F" unicode="F" horiz-adv-x="519" 
d="M483 700v-132h-280v-166h272v-132h-272v-270h-138v700h418z" />
    <glyph glyph-name="G" unicode="G" horiz-adv-x="785" 
d="M401 376h351v-54q0 -150 -96 -243t-248 -93q-162 0 -269 105q-106 106 -106 258q0 153 105 259q106 106 262 106q97 0 178 -44t127 -119l-118 -68q-25 43 -76 70t-112 27q-101 0 -165 -66q-64 -64 -64 -165q0 -99 65 -164q65 -64 174 -64q79 0 132 35t72 98h-212v122z
" />
    <glyph glyph-name="H" unicode="H" horiz-adv-x="665" 
d="M463 422v278h137v-700h-137v290h-260v-290h-138v700h138v-278h260z" />
    <glyph glyph-name="I" unicode="I" horiz-adv-x="268" 
d="M65 0v700h138v-700h-138z" />
    <glyph glyph-name="J" unicode="J" horiz-adv-x="569" 
d="M264 -14q-165 0 -231 133l119 68q33 -66 112 -66q54 0 81.5 25.5t27.5 71.5v482h137v-482q0 -110 -69 -171q-68 -61 -177 -61z" />
    <glyph glyph-name="K" unicode="K" horiz-adv-x="615" 
d="M343 360l269 -360h-159l-250 328v-328h-138v700h138v-309l240 309h159z" />
    <glyph glyph-name="L" unicode="L" horiz-adv-x="483" 
d="M203 700v-568h267v-132h-405v700h138z" />
    <glyph glyph-name="M" unicode="M" horiz-adv-x="815" 
d="M608 700h142v-700h-137v454l-197 -325h-16l-197 324v-453h-138v700h142l201 -331z" />
    <glyph glyph-name="N" unicode="N" horiz-adv-x="673" 
d="M470 273v427h138v-700h-105l-300 428v-428h-138v700h105z" />
    <glyph glyph-name="O" unicode="O" horiz-adv-x="792" 
d="M654 91q-106 -105 -258 -105t-258 105q-105 107 -105 259q0 153 105 258q106 106 258 106t258 -106q106 -105 106 -258t-106 -259zM235 185q64 -64 161 -64t161 64q65 65 65 165t-65 165t-161 65t-161 -65t-65 -165t65 -165z" />
    <glyph glyph-name="P" unicode="P" horiz-adv-x="590" 
d="M65 700h261q100 0 170 -68q69 -68 69 -167t-69 -167q-70 -68 -170 -68h-123v-230h-138v700zM203 359h123q44 0 73 30.5t29 75.5q0 46 -29 76t-73 30h-123v-212z" />
    <glyph glyph-name="Q" unicode="Q" horiz-adv-x="797" 
d="M760 350q0 -135 -86 -236l72 -75l-98 -87l-76 79q-81 -45 -176 -45q-150 0 -257 105q-106 106 -106 259t106 258q106 106 257 106t257 -106q107 -105 107 -258zM396 121q40 0 78 13l-115 120l98 87l123 -128q42 60 42 137q0 100 -65 165t-161 65t-161 -65t-65 -165
q0 -99 65 -164t161 -65z" />
    <glyph glyph-name="R" unicode="R" horiz-adv-x="614" 
d="M598 0h-149l-141 243h-105v-243h-138v700h280q97 0 165 -68t68 -164q0 -65 -37 -120.5t-98 -83.5zM345 571h-142v-207h142q39 0 67 30.5t28 73.5t-28 73t-67 30z" />
    <glyph glyph-name="S" unicode="S" horiz-adv-x="583" 
d="M304 -14q-103 0 -174 46t-101 127l118 69q41 -107 161 -107q56 0 84 20t28 54q0 37 -33 57q-33 21 -118 45q-92 28 -145 65q-66 49 -66 144q0 96 67 151q67 57 163 57q84 0 149 -41t101 -116l-116 -67q-42 90 -134 90q-42 0 -67 -19.5t-25 -50.5q0 -33 27 -54
q30 -21 106 -44l48 -16q13 -4 45 -17q30 -11 44 -21q49 -30 66 -62q26 -42 26 -99q0 -97 -71 -154t-183 -57z" />
    <glyph glyph-name="T" unicode="T" horiz-adv-x="540" 
d="M13 700h515v-132h-189v-568h-138v568h-188v132z" />
    <glyph glyph-name="U" unicode="U" horiz-adv-x="653" 
d="M326 -14q-117 0 -192 66t-75 177v471h137v-460q0 -56 32.5 -87.5t97.5 -31.5t97.5 31.5t32.5 87.5v460h138v-471q0 -111 -75 -177t-193 -66z" />
    <glyph glyph-name="V" unicode="V" horiz-adv-x="647" 
d="M409 0h-171l-235 700h150l171 -538l170 538h151z" />
    <glyph glyph-name="W" unicode="W" horiz-adv-x="999" 
d="M368 0h-157l-196 700h145l134 -519l146 519h118l147 -519l134 519h145l-196 -700h-157l-132 462z" />
    <glyph glyph-name="X" unicode="X" horiz-adv-x="610" 
d="M383 360l215 -360h-157l-136 228l-136 -228h-156l214 359l-203 341h156l125 -210l125 210h156z" />
    <glyph glyph-name="Y" unicode="Y" horiz-adv-x="621" 
d="M463 700h156l-240 -427v-273h-137v273l-239 427h156l152 -292z" />
    <glyph glyph-name="Z" unicode="Z" horiz-adv-x="535" 
d="M503 591l-291 -459h297v-132h-473v110l291 458h-284v132h460v-109z" />
    <glyph glyph-name="bracketleft" unicode="[" horiz-adv-x="310" 
d="M290 800v-124h-108v-652h108v-124h-237v900h237z" />
    <glyph glyph-name="backslash" unicode="\" horiz-adv-x="523" 
d="M490 -100h-57l-400 900h57z" />
    <glyph glyph-name="bracketright" unicode="]" horiz-adv-x="310" 
d="M20 800h237v-900h-237v124h108v652h-108v124z" />
    <glyph glyph-name="asciicircum" unicode="^" horiz-adv-x="560" 
d="M231 700h98l191 -330h-139l-101 182l-101 -182h-139z" />
    <glyph glyph-name="underscore" unicode="_" horiz-adv-x="520" 
d="M488 -171h-455v124h455v-124z" />
    <glyph glyph-name="grave" unicode="`" horiz-adv-x="275" 
d="M255 563h-124l-111 137h155z" />
    <glyph glyph-name="a" unicode="a" 
d="M439 441v59h129v-500h-129v59q-58 -73 -163 -73q-100 0 -172 76q-71 77 -71 188q0 110 71 187q72 77 172 77q105 0 163 -73zM201 148q39 -39 99 -39t99 39q40 40 40 102t-40 101q-39 40 -99 40t-99 -40q-39 -39 -39 -101t39 -102z" />
    <glyph glyph-name="b" unicode="b" 
d="M350 514q101 0 172 -77q72 -77 72 -187q0 -112 -72 -188q-70 -76 -172 -76q-105 0 -162 73v-59h-129v700h129v-259q57 73 162 73zM227 148q39 -39 99 -39t99 39q40 40 40 102t-40 101q-39 40 -99 40t-99 -40q-39 -39 -39 -101t39 -102z" />
    <glyph glyph-name="c" unicode="c" horiz-adv-x="536" 
d="M297 -14q-113 0 -189 76q-75 76 -75 188t75 188q76 76 189 76q73 0 133 -35t91 -94l-111 -65q-15 31 -45.5 49t-68.5 18q-58 0 -96 -38.5t-38 -98.5q0 -58 38 -98q38 -38 96 -38q39 0 69.5 17.5t45.5 48.5l112 -64q-33 -60 -93.5 -95t-132.5 -35z" />
    <glyph glyph-name="d" unicode="d" 
d="M438 441v259h129v-700h-129v59q-57 -73 -162 -73q-101 0 -173 76q-71 77 -71 188q0 110 71 187q72 77 173 77q105 0 162 -73zM200 148q41 -39 100 -39q60 0 99 39q39 40 39 102t-39 101q-39 40 -99 40t-100 -40q-39 -39 -39 -101t39 -102z" />
    <glyph glyph-name="e" unicode="e" horiz-adv-x="581" 
d="M545 197h-377q25 -94 141 -94q74 0 112 50l104 -60q-74 -107 -218 -107q-124 0 -199 75t-75 189q0 112 74 188q73 76 190 76q111 0 181 -76q72 -76 72 -188q0 -21 -5 -53zM166 297h255q-11 49 -44.5 75t-79.5 26q-52 0 -86 -26.5t-45 -74.5z" />
    <glyph glyph-name="f" unicode="f" horiz-adv-x="328" 
d="M328 714v-124q-106 7 -106 -85v-5h106v-124h-106v-376h-129v376h-72v124h72v5q0 107 59.5 161.5t175.5 47.5z" />
    <glyph glyph-name="g" unicode="g" 
d="M442 438v62h126v-476q0 -115 -77 -177q-76 -61 -184 -61q-170 0 -237 122l110 63q37 -70 131 -70q61 0 96 32t35 91v54q-57 -76 -160 -76q-106 0 -178 74q-71 76 -71 182t72 181t177 75q103 0 160 -76zM442 258q0 60 -40 97q-39 39 -100 39q-60 0 -101 -39
q-39 -37 -39 -97t39.5 -98.5t100.5 -38.5t100.5 38.5t39.5 98.5z" />
    <glyph glyph-name="h" unicode="h" horiz-adv-x="577" 
d="M337 514q83 0 135 -55q54 -56 54 -152v-307h-129v291q0 49 -26.5 76t-72.5 27q-51 0 -80.5 -31.5t-29.5 -92.5v-270h-129v700h129v-256q46 70 149 70z" />
    <glyph glyph-name="i" unicode="i" horiz-adv-x="247" 
d="M123 560q-32 0 -55.5 23.5t-23.5 55.5t23.5 56t55.5 24q33 0 56.5 -24t23.5 -56t-23.5 -55.5t-56.5 -23.5zM188 0h-129v500h129v-500z" />
    <glyph glyph-name="j" unicode="j" horiz-adv-x="264" 
d="M141 560q-33 0 -56.5 23.5t-23.5 55.5t23.5 56t56.5 24q32 0 55.5 -24t23.5 -56t-23.5 -55.5t-55.5 -23.5zM76 -10v510h129v-510q0 -110 -53.5 -160.5t-164.5 -43.5v124q46 -3 67.5 16t21.5 64z" />
    <glyph glyph-name="k" unicode="k" horiz-adv-x="525" 
d="M313 253l207 -253h-150l-182 227v-227h-129v700h129v-420l172 220h154z" />
    <glyph glyph-name="l" unicode="l" horiz-adv-x="247" 
d="M188 0h-129v730h129v-730z" />
    <glyph glyph-name="m" unicode="m" horiz-adv-x="852" 
d="M612 514q86 0 137.5 -56t51.5 -150v-308h-129v299q0 45 -22 70t-62 25q-44 0 -68.5 -29t-24.5 -84v-281h-129v299q0 45 -22 70t-62 25q-43 0 -68.5 -29.5t-25.5 -83.5v-281h-129v500h129v-53q45 67 139 67q93 0 136 -72q49 72 149 72z" />
    <glyph glyph-name="n" unicode="n" horiz-adv-x="577" 
d="M337 514q83 0 135 -55q54 -56 54 -152v-307h-129v291q0 49 -26.5 76t-72.5 27q-51 0 -80.5 -31.5t-29.5 -92.5v-270h-129v500h129v-56q46 70 149 70z" />
    <glyph glyph-name="o" unicode="o" horiz-adv-x="594" 
d="M485 62q-76 -76 -188 -76t-188 76t-76 188q0 111 76 187q77 77 188 77t188 -77t77 -187q0 -111 -77 -188zM200 151q39 -39 97 -39t97 39t39 99t-39 99t-97 39t-97 -39q-38 -40 -38 -99t38 -99z" />
    <glyph glyph-name="p" unicode="p" 
d="M350 514q101 0 172 -77q72 -77 72 -187q0 -112 -72 -188q-70 -76 -172 -76q-105 0 -162 73v-259h-129v700h129v-59q57 73 162 73zM227 148q39 -39 99 -39t99 39q40 40 40 102t-40 101q-39 40 -99 40t-99 -40q-39 -39 -39 -101t39 -102z" />
    <glyph glyph-name="q" unicode="q" 
d="M438 441v59h129v-700h-129v259q-57 -73 -162 -73q-101 0 -173 76q-71 77 -71 188q0 110 71 187q72 77 173 77q105 0 162 -73zM200 148q41 -39 100 -39q60 0 99 39q39 40 39 102t-39 101q-39 40 -99 40t-100 -40q-39 -39 -39 -101t39 -102z" />
    <glyph glyph-name="r" unicode="r" horiz-adv-x="356" 
d="M188 500v-86q17 47 58 71.5t94 24.5v-144q-59 8 -106 -24q-46 -31 -46 -103v-239h-129v500h129z" />
    <glyph glyph-name="s" unicode="s" horiz-adv-x="465" 
d="M178 358q0 -32 91 -55q32 -7 58 -16.5t52.5 -27t41.5 -46.5t15 -67q0 -77 -58 -119q-58 -41 -143 -41q-154 0 -210 119l112 63q23 -65 98 -65q69 0 69 43q0 32 -91 55q-34 9 -58 18t-52 26.5t-42.5 45t-14.5 64.5q0 74 54 116q55 43 136 43q61 0 111 -27.5t79 -78.5
l-110 -60q-24 51 -80 51q-25 0 -41.5 -11.5t-16.5 -29.5z" />
    <glyph glyph-name="t" unicode="t" horiz-adv-x="385" 
d="M345 500v-124h-113v-208q0 -26 13 -38t38 -13.5t62 0.5v-117q-131 -15 -186.5 24.5t-55.5 143.5v208h-87v124h87v101l129 39v-140h113z" />
    <glyph glyph-name="u" unicode="u" horiz-adv-x="577" 
d="M389 230v270h129v-500h-129v56q-46 -70 -149 -70q-82 0 -136 55q-53 56 -53 152v307h129v-291q0 -49 26.5 -76t72.5 -27q51 0 80.5 31.5t29.5 92.5z" />
    <glyph glyph-name="v" unicode="v" horiz-adv-x="533" 
d="M266 150l122 350h142l-190 -500h-147l-190 500h142z" />
    <glyph glyph-name="w" unicode="w" horiz-adv-x="770" 
d="M537 192l85 308h137l-159 -500h-123l-92 303l-92 -303h-123l-159 500h137l85 -307l91 307h122z" />
    <glyph glyph-name="x" unicode="x" horiz-adv-x="525" 
d="M337 256l183 -256h-149l-108 152l-109 -152h-149l183 255l-175 245h149l101 -141l101 141h148z" />
    <glyph glyph-name="y" unicode="y" horiz-adv-x="525" 
d="M274 164l111 336h138l-182 -500q-39 -108 -103.5 -156.5t-160.5 -43.5v120q51 -1 82 22t49 74l-205 484h141z" />
    <glyph glyph-name="z" unicode="z" horiz-adv-x="474" 
d="M428 414l-212 -293h222v-121h-395v86l211 293h-201v121h375v-86z" />
    <glyph glyph-name="braceleft" unicode="{" horiz-adv-x="359" 
d="M339 17v-124q-210 -15 -210 186v148q0 40 -18 52.5t-61 9.5v125q43 -3 61 9.5t18 52.5v148q0 201 210 186v-124q-43 5 -62 -8.5t-19 -53.5v-148q0 -91 -60 -124q60 -34 60 -125v-148q0 -40 19 -53.5t62 -8.5z" />
    <glyph glyph-name="bar" unicode="|" horiz-adv-x="259" 
d="M194 -200h-129v920h129v-920z" />
    <glyph glyph-name="braceright" unicode="}" horiz-adv-x="359" 
d="M20 -107v124q43 -5 62 8.5t19 53.5v148q0 91 60 125q-60 33 -60 124v148q0 40 -19 53.5t-62 8.5v124q210 15 210 -186v-148q0 -40 18 -52.5t61 -9.5v-125q-43 3 -61 -9.5t-18 -52.5v-148q0 -201 -210 -186z" />
    <glyph glyph-name="asciitilde" unicode="~" horiz-adv-x="599" 
d="M449 443l105 -51q-26 -98 -95 -128t-155 15q-76 37 -105.5 32.5t-48.5 -56.5l-105 50q26 97 95 127.5t155 -13.5q79 -36 105.5 -32.5t48.5 56.5z" />
    <glyph glyph-name="exclamdown" unicode="&#xa1;" horiz-adv-x="268" 
d="M74 488q25 25 60 25t60 -25t25 -60t-25 -60t-60 -25t-60 25t-25 60t25 60zM56 0l27 265h102l26 -265v-200h-155v200z" />
    <glyph glyph-name="cent" unicode="&#xa2;" horiz-adv-x="536" 
d="M411 280l112 -64q-33 -60 -93.5 -95t-132.5 -35q-36 0 -61 7l-30 -93h-58l35 110q-69 31 -109.5 95t-40.5 145q0 111 75 188q76 76 189 76q29 0 48 -4l29 90h58l-34 -106q83 -33 123 -109l-111 -65q-17 35 -52 52l-82 -257q4 -1 20 -1q39 0 69.5 17.5t45.5 48.5zM162 350
q0 -79 61 -116l82 253h-9q-58 0 -96 -38.5t-38 -98.5z" />
    <glyph glyph-name="sterling" unicode="&#xa3;" horiz-adv-x="581" 
d="M243 274v-141h327v-133h-537v133h73v141h-61v121h61v100q0 106 65 162q66 57 155 57q76 0 132.5 -38.5t84.5 -107.5l-119 -68q-26 80 -95 80q-38 0 -62 -23.5t-24 -66.5v-95h203v-121h-203z" />
    <glyph glyph-name="currency" unicode="&#xa4;" horiz-adv-x="543" 
d="M486 350q0 -76 -45 -131l70 -70l-38 -38l-71 71q-54 -42 -130 -42q-73 0 -131 41l-70 -70l-38 38l69 70q-45 56 -45 131q0 74 45 132l-69 69l38 38l70 -70q59 42 131 42t130 -42l71 70l38 -38l-70 -70q45 -59 45 -131zM272 262q38 0 62.5 25t24.5 63q0 39 -24.5 63.5
t-62.5 24.5q-39 0 -63 -24.5t-24 -63.5t24 -63.5t63 -24.5z" />
    <glyph glyph-name="yen" unicode="&#xa5;" horiz-adv-x="601" 
d="M463 700h156l-190 -338h102v-80h-147l-5 -9v-36h152v-81h-152v-156h-137v156h-171v81h171v36l-5 9h-166v80h121l-189 338h156l152 -292z" />
    <glyph glyph-name="brokenbar" unicode="&#xa6;" horiz-adv-x="259" 
d="M194 350h-129v370h129v-370zM194 -200h-129v370h129v-370z" />
    <glyph glyph-name="section" unicode="&#xa7;" horiz-adv-x="542" 
d="M505 284q0 -77 -59 -128q33 -41 33 -100q0 -80 -57 -124q-58 -44 -144 -44q-169 0 -221 126l115 66q27 -78 106 -78q72 0 72 54q0 24 -34 46q-5 4 -52 24q-8 4 -31.5 13t-30.5 12q-76 33 -114.5 72.5t-38.5 101.5q0 78 62 125q-30 39 -30 99q0 78 55 121q56 44 136 44
q67 0 120.5 -32.5t79.5 -93.5l-106 -58q-31 70 -94 70q-28 0 -45 -13.5t-17 -37.5q0 -19 18 -36q22 -19 38 -26l61 -25q4 -1 7.5 -2.5t7.5 -3t5 -2.5q70 -29 107 -60q51 -42 51 -110zM178 332q0 -46 81 -78l40 -15l54 -20q23 20 23 50q0 28 -20.5 45.5t-68.5 36.5l-85 32
q-24 -18 -24 -51z" />
    <glyph glyph-name="dieresis" unicode="&#xa8;" horiz-adv-x="365" 
d="M135 568q-19 -19 -47 -19t-48 19q-20 20 -20 48t20 48t48 20t47 -20q20 -20 20 -48t-20 -48zM325 568q-19 -19 -47 -19t-48 19q-20 20 -20 48t20 48t48 20t47 -20q20 -20 20 -48t-20 -48z" />
    <glyph glyph-name="copyright" unicode="&#xa9;" horiz-adv-x="789" 
d="M651 94q-106 -106 -256 -106t-256 106t-106 256t106 256t256 106t256 -106t106 -256t-106 -256zM395 22q135 0 229 96q95 97 95 232t-95 232q-94 96 -229 96t-230 -96q-95 -97 -95 -232t95 -232q95 -96 230 -96zM398 154q-82 0 -140 58t-58 138t58 138t140 58
q52 0 97 -25.5t70 -70.5l-96 -56q-21 41 -74 41q-37 0 -60.5 -24.5t-23.5 -60.5t23.5 -60.5t60.5 -24.5q51 0 74 42l97 -57q-25 -44 -70.5 -70t-97.5 -26z" />
    <glyph glyph-name="guillemotleft" unicode="&#xab;" horiz-adv-x="545" 
d="M173 497h119l-110 -188l110 -187h-119l-110 187zM363 497h119l-110 -188l110 -187h-119l-110 187z" />
    <glyph glyph-name="logicalnot" unicode="&#xac;" horiz-adv-x="550" 
d="M45 290v121h460v-240h-129v119h-331z" />
    <glyph glyph-name="registered" unicode="&#xae;" horiz-adv-x="789" 
d="M139 606q106 106 256 106t256 -106t106 -256t-106 -256t-256 -106t-256 106t-106 256t106 256zM395 22q135 0 229 96q95 97 95 232t-95 232q-94 96 -229 96t-230 -96q-95 -97 -95 -232t95 -232q95 -96 230 -96zM550 412q0 -72 -55 -111l76 -136h-115l-53 110h-38v-110
h-107v370h149q61 0 102 -34.5t41 -88.5zM398 438h-33v-73h33q21 0 33 10t12 26q0 37 -45 37z" />
    <glyph glyph-name="overscore" unicode="&#xaf;" horiz-adv-x="330" 
d="M310 564h-290v105h290v-105z" />
    <glyph glyph-name="degree" unicode="&#xb0;" horiz-adv-x="401" 
d="M201 480q-72 0 -120 48q-48 50 -48 117q0 69 48 117t120 48t120 -48t48 -117t-48 -117q-47 -48 -120 -48zM158 602q17 -17 43 -17t42 17q17 17 17 43t-17 43q-16 17 -42 17t-43 -17q-16 -17 -16 -43t16 -43z" />
    <glyph glyph-name="plusminus" unicode="&#xb1;" horiz-adv-x="555" 
d="M338 648v-146h165v-121h-165v-146h-121v146h-164v121h164v146h121zM503 53h-450v121h450v-121z" />
    <glyph glyph-name="acute" unicode="&#xb4;" horiz-adv-x="275" 
d="M20 563l80 137h155l-111 -137h-124z" />
    <glyph glyph-name="uni00B5" unicode="&#xb5;" horiz-adv-x="617" 
d="M558 121h36v-121h-60q-75 0 -111 50q-46 -64 -145 -64q-53 0 -90 22v-208h-129v700h129v-290q0 -50 26.5 -77t72.5 -27q51 0 80.5 31.5t29.5 92.5v270h129v-347q0 -32 32 -32z" />
    <glyph glyph-name="paragraph" unicode="&#xb6;" horiz-adv-x="669" 
d="M240 700h383v-113h-62v-787h-121v787h-79v-787h-121v470q-89 0 -152 63t-63 152t63 152t152 63z" />
    <glyph glyph-name="middot" unicode="&#xb7;" horiz-adv-x="268" 
d="M194 287q-25 -25 -60 -25t-60 25t-25 60t25 60t60 25t60 -25t25 -60t-25 -60z" />
    <glyph glyph-name="cedilla" unicode="&#xb8;" horiz-adv-x="260" 
d="M170 0v-46q31 -7 50.5 -27t19.5 -51q0 -105 -220 -92v91q108 -7 108 20q0 21 -63 25v80h105z" />
    <glyph glyph-name="guillemotright" unicode="&#xbb;" horiz-adv-x="545" 
d="M63 497h119l110 -188l-110 -187h-119l110 187zM253 497h119l110 -188l-110 -187h-119l110 187z" />
    <glyph glyph-name="onequarter" unicode="&#xbc;" horiz-adv-x="814" 
d="M217 700v-400h-107v292l-82 -23l-25 88l120 43h94zM117 0l400 700h90l-400 -700h-90zM757 162h41v-98h-41v-64h-102v64h-187v98l129 238h114l-123 -238h67v69h102v-69z" />
    <glyph glyph-name="onehalf" unicode="&#xbd;" horiz-adv-x="813" 
d="M217 700v-400h-107v292l-82 -23l-25 88l120 43h94zM117 0l400 700h90l-400 -700h-90zM706 159l-65 -62h139v-97h-299v70l150 149q35 33 35 61q0 16 -11 26t-30 10q-41 0 -62 -51l-87 50q42 99 150 99q64 0 106 -35.5t42 -90.5q0 -61 -68 -129z" />
    <glyph glyph-name="threequarters" unicode="&#xbe;" horiz-adv-x="895" 
d="M321 421q0 -65 -41 -100t-114 -35q-115 0 -156 89l90 52q17 -47 66 -47q48 0 48 41q0 18 -14 29t-37 11h-19l-40 58l69 84h-145v97h275v-79l-72 -86q43 -12 66.5 -41.5t23.5 -72.5zM198 0l400 700h90l-400 -700h-90zM838 162h41v-98h-41v-64h-102v64h-187v98l129 238h114
l-123 -238h67v69h102v-69z" />
    <glyph glyph-name="questiondown" unicode="&#xbf;" horiz-adv-x="553" 
d="M229 488q25 25 60 25t60 -25t25 -60t-25 -60t-60 -25t-60 25t-25 60t25 60zM220 265h138q0 -67 -60 -125q-7 -7 -34.5 -33t-38.5 -38t-23 -34t-12 -42q0 -35 24 -54t67 -19q84 0 119 89l118 -68q-30 -73 -95 -114t-147 -41q-90 0 -158 53q-66 53 -66 144q0 41 17.5 77.5
t42 62t49 48t42 46.5t17.5 48z" />
    <glyph glyph-name="Agrave" unicode="&#xc0;" horiz-adv-x="668" 
d="M336 900l80 -137h-124l-111 137h155zM665 0h-150l-42 126h-279l-42 -126h-149l245 700h171zM334 541l-96 -286h192z" />
    <glyph glyph-name="Aacute" unicode="&#xc1;" horiz-adv-x="668" 
d="M334 900h155l-111 -137h-124zM665 0h-150l-42 126h-279l-42 -126h-149l245 700h171zM334 541l-96 -286h192z" />
    <glyph glyph-name="Acircumflex" unicode="&#xc2;" horiz-adv-x="668" 
d="M374 755l-43 65l-44 -65h-128l106 145h131l106 -145h-128zM665 0h-150l-42 126h-279l-42 -126h-149l245 700h171zM334 541l-96 -286h192z" />
    <glyph glyph-name="Atilde" unicode="&#xc3;" horiz-adv-x="668" 
d="M321 784q-29 21 -41 16t-12 -40h-104q0 46 10.5 78.5t28.5 48.5t41.5 20.5t49.5 -2.5t52 -24q29 -21 40.5 -16t11.5 40h105q0 -58 -16.5 -94t-43 -47t-58 -6t-64.5 26zM665 0h-150l-42 126h-279l-42 -126h-149l245 700h171zM334 541l-96 -286h192z" />
    <glyph glyph-name="Adieresis" unicode="&#xc4;" horiz-adv-x="668" 
d="M286 768q-19 -19 -47 -19t-48 19q-20 20 -20 48t20 48t48 20t47 -20q20 -20 20 -48t-20 -48zM476 768q-19 -19 -47 -19t-48 19q-20 20 -20 48t20 48t48 20t47 -20q20 -20 20 -48t-20 -48zM665 0h-150l-42 126h-279l-42 -126h-149l245 700h171zM334 541l-96 -286h192z" />
    <glyph glyph-name="Aring" unicode="&#xc5;" horiz-adv-x="668" 
d="M665 0h-150l-42 126h-279l-42 -126h-149l239 684q-34 34 -34 84q0 51 35.5 84.5t90.5 33.5q56 0 91 -33.5t35 -84.5q0 -52 -35 -85zM334 805q-18 0 -28.5 -10.5t-10.5 -26.5q0 -17 10.5 -27.5t28.5 -10.5q40 0 40 38q0 37 -40 37zM334 541l-96 -286h192z" />
    <glyph glyph-name="AE" unicode="&#xc6;" horiz-adv-x="880" 
d="M584 289v-157h264v-132h-398v126h-221l-74 -126h-155l414 700h429v-132h-259v-149h236v-130h-236zM450 501l-145 -246h145v246z" />
    <glyph glyph-name="Ccedilla" unicode="&#xc7;" horiz-adv-x="726" 
d="M397 121q60 0 108.5 26.5t73.5 72.5l119 -69q-38 -64 -101.5 -106t-141.5 -55v-36q31 -7 50.5 -27t19.5 -51q0 -105 -220 -92v91q108 -7 108 20q0 21 -63 25v69q-141 17 -229 117q-88 101 -88 244q0 156 103 259q104 105 261 105q95 0 175.5 -44.5t125.5 -120.5l-119 -69
q-26 47 -74 73.5t-108 26.5q-102 0 -165 -64q-62 -65 -62 -166q0 -100 62 -165q63 -64 165 -64z" />
    <glyph glyph-name="Egrave" unicode="&#xc8;" horiz-adv-x="530" 
d="M281 900l80 -137h-124l-111 137h155zM203 289v-157h295v-132h-433v700h428v-132h-290v-149h265v-130h-265z" />
    <glyph glyph-name="Eacute" unicode="&#xc9;" horiz-adv-x="530" 
d="M279 900h155l-111 -137h-124zM203 289v-157h295v-132h-433v700h428v-132h-290v-149h265v-130h-265z" />
    <glyph glyph-name="Ecircumflex" unicode="&#xca;" horiz-adv-x="530" 
d="M319 755l-43 65l-44 -65h-128l106 145h131l106 -145h-128zM203 289v-157h295v-132h-433v700h428v-132h-290v-149h265v-130h-265z" />
    <glyph glyph-name="Edieresis" unicode="&#xcb;" horiz-adv-x="530" 
d="M231 768q-19 -19 -47 -19t-48 19q-20 20 -20 48t20 48t48 20t47 -20q20 -20 20 -48t-20 -48zM421 768q-19 -19 -47 -19t-48 19q-20 20 -20 48t20 48t48 20t47 -20q20 -20 20 -48t-20 -48zM203 289v-157h295v-132h-433v700h428v-132h-290v-149h265v-130h-265z" />
    <glyph glyph-name="Igrave" unicode="&#xcc;" horiz-adv-x="268" 
d="M216 763h-124l-111 137h155zM65 700v-700h138v700h-138z" />
    <glyph glyph-name="Iacute" unicode="&#xcd;" horiz-adv-x="268" 
d="M54 763l80 137h155l-111 -137h-124zM65 700v-700h138v700h-138z" />
    <glyph glyph-name="Icircumflex" unicode="&#xce;" horiz-adv-x="268" 
d="M174 755l-43 65l-44 -65h-128l106 145h131l106 -145h-128zM203 0h-138v700h138v-700z" />
    <glyph glyph-name="Idieresis" unicode="&#xcf;" horiz-adv-x="268" 
d="M86 768q-19 -19 -47 -19t-48 19q-20 20 -20 48t20 48t48 20t47 -20q20 -20 20 -48t-20 -48zM276 768q-19 -19 -47 -19t-48 19q-20 20 -20 48t20 48t48 20t47 -20q20 -20 20 -48t-20 -48zM65 0v700h138v-700h-138z" />
    <glyph glyph-name="Eth" unicode="&#xd0;" horiz-adv-x="748" 
d="M100 700h278q144 0 240 -101q97 -100 97 -249t-97 -249q-96 -101 -240 -101h-278v281h-78v124h78v295zM238 132h140q91 0 148 60q57 62 57 158q0 97 -57 157q-57 61 -148 61h-140v-163h159v-124h-159v-149z" />
    <glyph glyph-name="Ntilde" unicode="&#xd1;" horiz-adv-x="673" 
d="M263 760h-104q0 46 10.5 78.5t28.5 48.5t41.5 20.5t49.5 -2.5t52 -24q29 -21 40.5 -16t11.5 40h105q0 -58 -16.5 -94t-43 -47t-58 -6t-64.5 26q-29 21 -41 16t-12 -40zM470 273v427h138v-700h-105l-300 428v-428h-138v700h105z" />
    <glyph glyph-name="Ograve" unicode="&#xd2;" horiz-adv-x="792" 
d="M478 771h-124l-111 137h155zM654 91q106 106 106 259t-106 258q-106 106 -258 106t-258 -106q-105 -105 -105 -258q0 -152 105 -259q106 -105 258 -105t258 105zM235 185q-65 65 -65 165t65 165t161 65t161 -65t65 -165t-65 -165q-64 -64 -161 -64t-161 64z" />
    <glyph glyph-name="Oacute" unicode="&#xd3;" horiz-adv-x="792" 
d="M316 771l80 137h155l-111 -137h-124zM654 91q106 106 106 259t-106 258q-106 106 -258 106t-258 -106q-105 -105 -105 -258q0 -152 105 -259q106 -105 258 -105t258 105zM235 185q-65 65 -65 165t65 165t161 65t161 -65t65 -165t-65 -165q-64 -64 -161 -64t-161 64z" />
    <glyph glyph-name="Ocircumflex" unicode="&#xd4;" horiz-adv-x="792" 
d="M436 763l-43 65l-44 -65h-128l106 145h131l106 -145h-128zM138 608q106 106 258 106t258 -106q106 -105 106 -258t-106 -259q-106 -105 -258 -105t-258 105q-105 107 -105 259q0 153 105 258zM235 185q64 -64 161 -64t161 64q65 65 65 165t-65 165t-161 65t-161 -65
t-65 -165t65 -165z" />
    <glyph glyph-name="Otilde" unicode="&#xd5;" horiz-adv-x="792" 
d="M330 768h-104q0 46 10.5 78.5t28.5 48.5t41.5 20.5t49.5 -2.5t52 -24q29 -21 40.5 -16t11.5 40h105q0 -58 -16.5 -94t-43 -47t-58 -6t-64.5 26q-29 21 -41 16t-12 -40zM654 91q-106 -105 -258 -105t-258 105q-105 107 -105 259q0 153 105 258q106 106 258 106t258 -106
q106 -105 106 -258t-106 -259zM235 185q64 -64 161 -64t161 64q65 65 65 165t-65 165t-161 65t-161 -65t-65 -165t65 -165z" />
    <glyph glyph-name="Odieresis" unicode="&#xd6;" horiz-adv-x="792" 
d="M348 776q-19 -19 -47 -19t-48 19q-20 20 -20 48t20 48t48 20t47 -20q20 -20 20 -48t-20 -48zM538 776q-19 -19 -47 -19t-48 19q-20 20 -20 48t20 48t48 20t47 -20q20 -20 20 -48t-20 -48zM654 91q-106 -105 -258 -105t-258 105q-105 107 -105 259q0 153 105 258
q106 106 258 106t258 -106q106 -105 106 -258t-106 -259zM235 185q64 -64 161 -64t161 64q65 65 65 165t-65 165t-161 65t-161 -65t-65 -165t65 -165z" />
    <glyph glyph-name="multiply" unicode="&#xd7;" horiz-adv-x="512" 
d="M376 555l86 -84l-121 -121l121 -121l-86 -84l-120 120l-120 -120l-86 84l121 121l-121 121l86 84l120 -120z" />
    <glyph glyph-name="Oslash" unicode="&#xd8;" horiz-adv-x="798" 
d="M719 672l-55 -67q102 -105 102 -255q0 -153 -106 -259q-106 -105 -258 -105q-111 0 -201 60l-47 -57l-68 40l55 66q-102 107 -102 255q0 153 105 258q106 106 258 106q110 0 202 -60l47 57zM176 350q0 -89 52 -150l290 350q-54 30 -116 30q-96 0 -161 -65t-65 -165z
M402 121q97 0 161 64q65 65 65 165q0 88 -51 150l-290 -350q53 -29 115 -29z" />
    <glyph glyph-name="Ugrave" unicode="&#xd9;" horiz-adv-x="653" 
d="M408 763h-124l-111 137h155zM326 -14q118 0 193 66t75 177v471h-138v-460q0 -56 -32.5 -87.5t-97.5 -31.5t-97.5 31.5t-32.5 87.5v460h-137v-471q0 -111 75 -177t192 -66z" />
    <glyph glyph-name="Uacute" unicode="&#xda;" horiz-adv-x="653" 
d="M246 763l80 137h155l-111 -137h-124zM326 -14q118 0 193 66t75 177v471h-138v-460q0 -56 -32.5 -87.5t-97.5 -31.5t-97.5 31.5t-32.5 87.5v460h-137v-471q0 -111 75 -177t192 -66z" />
    <glyph glyph-name="Ucircumflex" unicode="&#xdb;" horiz-adv-x="653" 
d="M366 755l-43 65l-44 -65h-128l106 145h131l106 -145h-128zM456 240v460h138v-471q0 -111 -75 -177t-193 -66q-117 0 -192 66t-75 177v471h137v-460q0 -56 32.5 -87.5t97.5 -31.5t97.5 31.5t32.5 87.5z" />
    <glyph glyph-name="Udieresis" unicode="&#xdc;" horiz-adv-x="653" 
d="M278 768q-19 -19 -47 -19t-48 19q-20 20 -20 48t20 48t48 20t47 -20q20 -20 20 -48t-20 -48zM468 768q-19 -19 -47 -19t-48 19q-20 20 -20 48t20 48t48 20t47 -20q20 -20 20 -48t-20 -48zM326 -14q-117 0 -192 66t-75 177v471h137v-460q0 -56 32.5 -87.5t97.5 -31.5
t97.5 31.5t32.5 87.5v460h138v-471q0 -111 -75 -177t-193 -66z" />
    <glyph glyph-name="Yacute" unicode="&#xdd;" horiz-adv-x="621" 
d="M310 900h155l-111 -137h-124zM463 700h156l-240 -427v-273h-137v273l-239 427h156l152 -292z" />
    <glyph glyph-name="Thorn" unicode="&#xde;" horiz-adv-x="590" 
d="M203 585h127q98 0 166 -69q69 -68 69 -166t-69 -167q-68 -68 -166 -68h-127v-115h-138v700h138v-115zM203 244h127q41 0 69.5 30.5t28.5 75.5t-28.5 75.5t-69.5 30.5h-127v-212z" />
    <glyph glyph-name="germandbls" unicode="&#xdf;" horiz-adv-x="537" 
d="M279 -6v114q113 -11 113 59q0 29 -30 69l-60 83q-29 43 -29 71q0 27 31 70q32 44 32 72q0 27 -19 45.5t-49 18.5q-36 0 -58 -22.5t-22 -64.5v-509h-129v508q0 95 58 150q59 56 156 56q87 0 140 -48q52 -46 52 -114q0 -32 -15 -63.5t-30 -55t-15 -35.5q0 -32 58 -104
q24 -30 41 -71t17 -78q0 -77 -57 -120q-55 -43 -185 -31z" />
    <glyph glyph-name="agrave" unicode="&#xe0;" 
d="M311 700l80 -137h-124l-111 137h155zM439 441v59h129v-500h-129v59q-58 -73 -163 -73q-100 0 -172 76q-71 77 -71 188q0 110 71 187q72 77 172 77q105 0 163 -73zM201 148q39 -39 99 -39t99 39q40 40 40 102t-40 101q-39 40 -99 40t-99 -40q-39 -39 -39 -101t39 -102z
" />
    <glyph glyph-name="aacute" unicode="&#xe1;" 
d="M309 700h155l-111 -137h-124zM439 441v59h129v-500h-129v59q-58 -73 -163 -73q-100 0 -172 76q-71 77 -71 188q0 110 71 187q72 77 172 77q105 0 163 -73zM201 148q39 -39 99 -39t99 39q40 40 40 102t-40 101q-39 40 -99 40t-99 -40q-39 -39 -39 -101t39 -102z" />
    <glyph glyph-name="acircumflex" unicode="&#xe2;" 
d="M349 555l-43 65l-44 -65h-128l106 145h131l106 -145h-128zM439 441v59h129v-500h-129v59q-58 -73 -163 -73q-100 0 -172 76q-71 77 -71 188q0 110 71 187q72 77 172 77q105 0 163 -73zM201 148q39 -39 99 -39t99 39q40 40 40 102t-40 101q-39 40 -99 40t-99 -40
q-39 -39 -39 -101t39 -102z" />
    <glyph glyph-name="atilde" unicode="&#xe3;" 
d="M296 584q-29 21 -41 16t-12 -40h-104q0 46 10.5 78.5t28.5 48.5t41.5 20.5t49.5 -2.5t52 -24q29 -21 40.5 -16t11.5 40h105q0 -58 -16.5 -94t-43 -47t-58 -6t-64.5 26zM439 441v59h129v-500h-129v59q-58 -73 -163 -73q-100 0 -172 76q-71 77 -71 188q0 110 71 187
q72 77 172 77q105 0 163 -73zM201 148q39 -39 99 -39t99 39q40 40 40 102t-40 101q-39 40 -99 40t-99 -40q-39 -39 -39 -101t39 -102z" />
    <glyph glyph-name="adieresis" unicode="&#xe4;" 
d="M261 568q-19 -19 -47 -19t-48 19q-20 20 -20 48t20 48t48 20t47 -20q20 -20 20 -48t-20 -48zM451 568q-19 -19 -47 -19t-48 19q-20 20 -20 48t20 48t48 20t47 -20q20 -20 20 -48t-20 -48zM439 441v59h129v-500h-129v59q-58 -73 -163 -73q-100 0 -172 76q-71 77 -71 188
q0 110 71 187q72 77 172 77q105 0 163 -73zM201 148q39 -39 99 -39t99 39q40 40 40 102t-40 101q-39 40 -99 40t-99 -40q-39 -39 -39 -101t39 -102z" />
    <glyph glyph-name="aring" unicode="&#xe5;" 
d="M309 539q-55 0 -90.5 34t-35.5 85t35.5 84.5t90.5 33.5q56 0 91 -33.5t35 -84.5q0 -52 -35 -85.5t-91 -33.5zM309 695q-18 0 -28.5 -10.5t-10.5 -26.5q0 -17 10.5 -27.5t28.5 -10.5q40 0 40 38q0 37 -40 37zM439 441v59h129v-500h-129v59q-58 -73 -163 -73
q-100 0 -172 76q-71 77 -71 188q0 110 71 187q72 77 172 77q105 0 163 -73zM201 148q39 -39 99 -39t99 39q40 40 40 102t-40 101q-39 40 -99 40t-99 -40q-39 -39 -39 -101t39 -102z" />
    <glyph glyph-name="ae" unicode="&#xe6;" horiz-adv-x="988" 
d="M952 197h-377q28 -94 140 -94q75 0 113 50l104 -60q-74 -107 -202 -107q-105 0 -170 77v-63h-121v59q-58 -73 -163 -73q-100 0 -172 76q-71 77 -71 188q0 110 71 187q72 77 172 77q105 0 163 -73v59h121v-62q63 76 166 76q108 0 169 -75q62 -76 62 -189q0 -21 -5 -53z
M573 298h255q-11 49 -43.5 74.5t-79.5 25.5q-51 0 -85.5 -26t-46.5 -74zM201 148q39 -39 99 -39t99 39q40 40 40 102t-40 101q-39 40 -99 40t-99 -40q-39 -39 -39 -101t39 -102z" />
    <glyph glyph-name="ccedilla" unicode="&#xe7;" horiz-adv-x="536" 
d="M411 180l112 -64q-55 -99 -168 -124v-38q31 -7 50.5 -27t19.5 -51q0 -105 -220 -92v91q108 -7 108 20q0 21 -63 25v70q-96 16 -157 88q-60 72 -60 172q0 112 75 188q76 76 189 76q73 0 133 -35t91 -94l-111 -65q-15 31 -45.5 49t-68.5 18q-58 0 -96 -38.5t-38 -98.5
q0 -58 38 -98q38 -38 96 -38q39 0 69.5 17.5t45.5 48.5z" />
    <glyph glyph-name="egrave" unicode="&#xe8;" horiz-adv-x="581" 
d="M293 704l80 -137h-124l-111 137h155zM545 197h-377q25 -94 141 -94q74 0 112 50l104 -60q-74 -107 -218 -107q-124 0 -199 75t-75 189q0 112 74 188q73 76 190 76q111 0 181 -76q72 -76 72 -188q0 -21 -5 -53zM166 297h255q-11 49 -44.5 75t-79.5 26q-52 0 -86 -26.5
t-45 -74.5z" />
    <glyph glyph-name="eacute" unicode="&#xe9;" horiz-adv-x="581" 
d="M291 704h155l-111 -137h-124zM545 197h-377q25 -94 141 -94q74 0 112 50l104 -60q-74 -107 -218 -107q-124 0 -199 75t-75 189q0 112 74 188q73 76 190 76q111 0 181 -76q72 -76 72 -188q0 -21 -5 -53zM166 297h255q-11 49 -44.5 75t-79.5 26q-52 0 -86 -26.5t-45 -74.5z
" />
    <glyph glyph-name="ecircumflex" unicode="&#xea;" horiz-adv-x="581" 
d="M331 559l-43 65l-44 -65h-128l106 145h131l106 -145h-128zM545 197h-377q25 -94 141 -94q74 0 112 50l104 -60q-74 -107 -218 -107q-124 0 -199 75t-75 189q0 112 74 188q73 76 190 76q111 0 181 -76q72 -76 72 -188q0 -21 -5 -53zM166 297h255q-11 49 -44.5 75t-79.5 26
q-52 0 -86 -26.5t-45 -74.5z" />
    <glyph glyph-name="edieresis" unicode="&#xeb;" horiz-adv-x="581" 
d="M243 572q-19 -19 -47 -19t-48 19q-20 20 -20 48t20 48t48 20t47 -20q20 -20 20 -48t-20 -48zM433 572q-19 -19 -47 -19t-48 19q-20 20 -20 48t20 48t48 20t47 -20q20 -20 20 -48t-20 -48zM545 197h-377q25 -94 141 -94q74 0 112 50l104 -60q-74 -107 -218 -107
q-124 0 -199 75t-75 189q0 112 74 188q73 76 190 76q111 0 181 -76q72 -76 72 -188q0 -21 -5 -53zM166 297h255q-11 49 -44.5 75t-79.5 26q-52 0 -86 -26.5t-45 -74.5z" />
    <glyph glyph-name="igrave" unicode="&#xec;" horiz-adv-x="247" 
d="M184 555h-124l-67 145h148zM188 0v500h-129v-500h129z" />
    <glyph glyph-name="iacute" unicode="&#xed;" horiz-adv-x="247" 
d="M60 555l42 145h148l-66 -145h-124zM59 0h129v500h-129v-500z" />
    <glyph glyph-name="icircumflex" unicode="&#xee;" horiz-adv-x="247" 
d="M155 555l-31 54l-32 -54h-128l94 145h131l93 -145h-127zM188 0h-129v500h129v-500z" />
    <glyph glyph-name="idieresis" unicode="&#xef;" horiz-adv-x="247" 
d="M86 572q-20 -19 -48 -19t-47 19q-20 20 -20 48t20 48q19 20 47 20t48 -20t20 -48t-20 -48zM256 572q-20 -19 -48 -19t-48 19q-19 20 -19 48t19 48q20 20 48 20t48 -20t20 -48t-20 -48zM188 0h-129v500h129v-500z" />
    <glyph glyph-name="eth" unicode="&#xf0;" horiz-adv-x="571" 
d="M329 590l164 -220q46 -62 46 -140q0 -110 -74 -176q-73 -66 -179 -66t-179 66q-74 66 -74 176q0 99 71 165q72 67 172 60l-58 80l-127 -63v90l79 39l-72 99h149l33 -44l118 58v-90zM286 109q55 0 89.5 33t34.5 88q0 40 -21 70q-38 47 -103 47q-55 0 -89.5 -32t-34.5 -85
q0 -56 34.5 -88.5t89.5 -32.5z" />
    <glyph glyph-name="ntilde" unicode="&#xf1;" horiz-adv-x="577" 
d="M285 592q-29 21 -41 16t-12 -40h-104q0 46 10.5 78.5t28.5 48.5t41.5 20.5t49.5 -2.5t52 -24q29 -21 40.5 -16t11.5 40h105q0 -58 -16.5 -94t-43 -47t-58 -6t-64.5 26zM337 514q83 0 135 -55q54 -56 54 -152v-307h-129v291q0 49 -26.5 76t-72.5 27q-51 0 -80.5 -31.5
t-29.5 -92.5v-270h-129v500h129v-56q46 70 149 70z" />
    <glyph glyph-name="ograve" unicode="&#xf2;" horiz-adv-x="594" 
d="M379 571h-124l-111 137h155zM485 62q77 77 77 188q0 110 -77 187t-188 77t-188 -77q-76 -76 -76 -187q0 -112 76 -188t188 -76t188 76zM200 151q-38 40 -38 99t38 99q39 39 97 39t97 -39t39 -99t-39 -99t-97 -39t-97 39z" />
    <glyph glyph-name="oacute" unicode="&#xf3;" horiz-adv-x="594" 
d="M217 571l80 137h155l-111 -137h-124zM485 62q77 77 77 188q0 110 -77 187t-188 77t-188 -77q-76 -76 -76 -187q0 -112 76 -188t188 -76t188 76zM200 151q-38 40 -38 99t38 99q39 39 97 39t97 -39t39 -99t-39 -99t-97 -39t-97 39z" />
    <glyph glyph-name="ocircumflex" unicode="&#xf4;" horiz-adv-x="594" 
d="M337 563l-43 65l-44 -65h-128l106 145h131l106 -145h-128zM109 437q77 77 188 77t188 -77t77 -187q0 -111 -77 -188q-76 -76 -188 -76t-188 76t-76 188q0 111 76 187zM200 151q39 -39 97 -39t97 39t39 99t-39 99t-97 39t-97 -39q-38 -40 -38 -99t38 -99z" />
    <glyph glyph-name="otilde" unicode="&#xf5;" horiz-adv-x="594" 
d="M231 568h-104q0 46 10.5 78.5t28.5 48.5t41.5 20.5t49.5 -2.5t52 -24q29 -21 40.5 -16t11.5 40h105q0 -58 -16.5 -94t-43 -47t-58 -6t-64.5 26q-29 21 -41 16t-12 -40zM485 62q-76 -76 -188 -76t-188 76t-76 188q0 111 76 187q77 77 188 77t188 -77t77 -187
q0 -111 -77 -188zM200 151q39 -39 97 -39t97 39t39 99t-39 99t-97 39t-97 -39q-38 -40 -38 -99t38 -99z" />
    <glyph glyph-name="odieresis" unicode="&#xf6;" horiz-adv-x="594" 
d="M249 576q-19 -19 -47 -19t-48 19q-20 20 -20 48t20 48t48 20t47 -20q20 -20 20 -48t-20 -48zM439 576q-19 -19 -47 -19t-48 19q-20 20 -20 48t20 48t48 20t47 -20q20 -20 20 -48t-20 -48zM485 62q-76 -76 -188 -76t-188 76t-76 188q0 111 76 187q77 77 188 77t188 -77
t77 -187q0 -111 -77 -188zM200 151q39 -39 97 -39t97 39t39 99t-39 99t-97 39t-97 -39q-38 -40 -38 -99t38 -99z" />
    <glyph glyph-name="divide" unicode="&#xf7;" horiz-adv-x="565" 
d="M283 463q-35 0 -58.5 23.5t-23.5 58.5q-4 52 50.5 74t89.5 -16q38 -35 16 -89.5t-74 -50.5zM520 290h-475v121h475v-121zM283 74q-26 -2 -46.5 13.5t-29 37.5t-5 47t21.5 41q36 39 90 17t50 -74q0 -35 -23.5 -58.5t-57.5 -23.5z" />
    <glyph glyph-name="oslash" unicode="&#xf8;" horiz-adv-x="594" 
d="M530 477l-39 -46q71 -77 71 -181q0 -111 -77 -188q-76 -76 -188 -76q-81 0 -145 42l-32 -37l-55 32l39 46q-71 74 -71 181q0 111 76 187q77 77 188 77q79 0 146 -43l32 38zM162 250q0 -48 25 -83l174 206q-29 15 -64 15q-58 0 -96.5 -39t-38.5 -99zM297 112q58 0 97 39
t39 99q0 48 -25 82l-174 -205q28 -15 63 -15z" />
    <glyph glyph-name="ugrave" unicode="&#xf9;" horiz-adv-x="577" 
d="M286 700l80 -137h-124l-111 137h155zM389 230v270h129v-500h-129v56q-46 -70 -149 -70q-82 0 -136 55q-53 56 -53 152v307h129v-291q0 -49 26.5 -76t72.5 -27q51 0 80.5 31.5t29.5 92.5z" />
    <glyph glyph-name="uacute" unicode="&#xfa;" horiz-adv-x="577" 
d="M284 700h155l-111 -137h-124zM389 230v270h129v-500h-129v56q-46 -70 -149 -70q-82 0 -136 55q-53 56 -53 152v307h129v-291q0 -49 26.5 -76t72.5 -27q51 0 80.5 31.5t29.5 92.5z" />
    <glyph glyph-name="ucircumflex" unicode="&#xfb;" horiz-adv-x="577" 
d="M324 555l-43 65l-44 -65h-128l106 145h131l106 -145h-128zM389 230v270h129v-500h-129v56q-46 -70 -149 -70q-82 0 -136 55q-53 56 -53 152v307h129v-291q0 -49 26.5 -76t72.5 -27q51 0 80.5 31.5t29.5 92.5z" />
    <glyph glyph-name="udieresis" unicode="&#xfc;" horiz-adv-x="577" 
d="M236 568q-19 -19 -47 -19t-48 19q-20 20 -20 48t20 48t48 20t47 -20q20 -20 20 -48t-20 -48zM426 568q-19 -19 -47 -19t-48 19q-20 20 -20 48t20 48t48 20t47 -20q20 -20 20 -48t-20 -48zM389 230v270h129v-500h-129v56q-46 -70 -149 -70q-82 0 -136 55q-53 56 -53 152
v307h129v-291q0 -49 26.5 -76t72.5 -27q51 0 80.5 31.5t29.5 92.5z" />
    <glyph glyph-name="yacute" unicode="&#xfd;" horiz-adv-x="525" 
d="M263 700h155l-111 -137h-124zM274 164l111 336h138l-182 -500q-39 -108 -103.5 -156.5t-160.5 -43.5v120q51 -1 82 22t49 74l-205 484h141z" />
    <glyph glyph-name="thorn" unicode="&#xfe;" 
d="M350 514q101 0 172 -77q72 -77 72 -187q0 -112 -72 -188q-70 -76 -172 -76q-105 0 -162 73v-259h-129v900h129v-259q57 73 162 73zM227 148q39 -39 99 -39t99 39q40 40 40 102t-40 101q-39 40 -99 40t-99 -40q-39 -39 -39 -101t39 -102z" />
    <glyph glyph-name="ydieresis" unicode="&#xff;" horiz-adv-x="525" 
d="M215 568q-19 -19 -47 -19t-48 19q-20 20 -20 48t20 48t48 20t47 -20q20 -20 20 -48t-20 -48zM405 568q-19 -19 -47 -19t-48 19q-20 20 -20 48t20 48t48 20t47 -20q20 -20 20 -48t-20 -48zM274 164l111 336h138l-182 -500q-39 -108 -103.5 -156.5t-160.5 -43.5v120
q51 -1 82 22t49 74l-205 484h141z" />
    <glyph glyph-name="Amacron" unicode="&#x100;" horiz-adv-x="668" 
d="M189 869h290v-105h-290v105zM665 0h-150l-42 126h-279l-42 -126h-149l245 700h171zM334 541l-96 -286h192z" />
    <glyph glyph-name="amacron" unicode="&#x101;" 
d="M164 669h290v-105h-290v105zM439 441v59h129v-500h-129v59q-58 -73 -163 -73q-100 0 -172 76q-71 77 -71 188q0 110 71 187q72 77 172 77q105 0 163 -73zM201 148q39 -39 99 -39t99 39q40 40 40 102t-40 101q-39 40 -99 40t-99 -40q-39 -39 -39 -101t39 -102z" />
    <glyph glyph-name="Abreve" unicode="&#x102;" horiz-adv-x="668" 
d="M334 747q-79 0 -122.5 38t-43.5 107h115q0 -52 51 -52q52 0 52 52h115q0 -69 -43.5 -107t-123.5 -38zM665 0h-150l-42 126h-279l-42 -126h-149l245 700h171zM334 541l-96 -286h192z" />
    <glyph glyph-name="abreve" unicode="&#x103;" 
d="M309 547q-79 0 -122.5 38t-43.5 107h115q0 -52 51 -52q52 0 52 52h115q0 -69 -43.5 -107t-123.5 -38zM439 441v59h129v-500h-129v59q-58 -73 -163 -73q-100 0 -172 76q-71 77 -71 188q0 110 71 187q72 77 172 77q105 0 163 -73zM201 148q39 -39 99 -39t99 39
q40 40 40 102t-40 101q-39 40 -99 40t-99 -40q-39 -39 -39 -101t39 -102z" />
    <glyph glyph-name="Aogonek" unicode="&#x104;" horiz-adv-x="668" 
d="M637 -122q11 -1 28 5v-81q-36 -16 -81 -16q-43 0 -69 23t-26 65q0 57 66 126h-40l-42 126h-279l-42 -126h-149l245 700h171l246 -700q-53 -56 -53 -95q0 -27 25 -27zM334 541l-96 -286h192z" />
    <glyph glyph-name="aogonek" unicode="&#x105;" 
d="M568 500v-500q-53 -56 -53 -95q-1 -27 25 -27q10 -1 28 5v-81q-39 -16 -81 -16q-44 0 -70 23t-26 65q0 56 64 126h-16v59q-58 -73 -163 -73q-100 0 -172 76q-71 77 -71 188q0 110 71 187q72 77 172 77q105 0 163 -73v59h129zM201 148q39 -39 99 -39t99 39q40 40 40 102
t-40 101q-39 40 -99 40t-99 -40q-39 -39 -39 -101t39 -102z" />
    <glyph glyph-name="Cacute" unicode="&#x106;" horiz-adv-x="726" 
d="M317 771l80 137h155l-111 -137h-124zM397 -14q95 0 175.5 44.5t125.5 120.5l-119 69q-25 -46 -73.5 -72.5t-108.5 -26.5q-102 0 -165 64q-62 65 -62 165q0 101 62 166q63 64 165 64q60 0 108 -26.5t74 -73.5l119 69q-45 76 -125.5 120.5t-175.5 44.5q-157 0 -261 -105
q-103 -103 -103 -259q0 -155 103 -259q104 -105 261 -105z" />
    <glyph glyph-name="cacute" unicode="&#x107;" horiz-adv-x="536" 
d="M216 563l80 137h155l-111 -137h-124zM297 -14q72 0 132.5 35t93.5 95l-112 64q-15 -31 -45.5 -48.5t-69.5 -17.5q-58 0 -96 38q-38 40 -38 98q0 60 38 98.5t96 38.5q38 0 68.5 -18t45.5 -49l111 65q-31 59 -91 94t-133 35q-113 0 -189 -76q-75 -76 -75 -188t75 -188
q76 -76 189 -76z" />
    <glyph glyph-name="Cdotaccent" unicode="&#x10a;" horiz-adv-x="726" 
d="M397 759q-32 0 -55 23t-23 55t23 54.5t55 22.5q31 0 54 -23t23 -54q0 -32 -23 -55t-54 -23zM397 -14q-157 0 -261 105q-103 104 -103 259q0 156 103 259q104 105 261 105q95 0 175.5 -44.5t125.5 -120.5l-119 -69q-26 47 -74 73.5t-108 26.5q-102 0 -165 -64
q-62 -65 -62 -166q0 -100 62 -165q63 -64 165 -64q60 0 108.5 26.5t73.5 72.5l119 -69q-45 -76 -125.5 -120.5t-175.5 -44.5z" />
    <glyph glyph-name="cdotaccent" unicode="&#x10b;" horiz-adv-x="536" 
d="M296 551q-32 -2 -55 23t-23 55t23 54q25 23 55 23t54.5 -23t22.5 -54q0 -32 -23 -55t-54 -23zM297 -14q-113 0 -189 76q-75 76 -75 188t75 188q76 76 189 76q73 0 133 -35t91 -94l-111 -65q-15 31 -45.5 49t-68.5 18q-58 0 -96 -38.5t-38 -98.5q0 -58 38 -98
q38 -38 96 -38q39 0 69.5 17.5t45.5 48.5l112 -64q-33 -60 -93.5 -95t-132.5 -35z" />
    <glyph glyph-name="Ccaron" unicode="&#x10c;" horiz-adv-x="726" 
d="M459 763h-131l-106 145h128l44 -65l43 65h128zM397 121q60 0 108.5 26.5t73.5 72.5l119 -69q-45 -76 -125.5 -120.5t-175.5 -44.5q-157 0 -261 105q-103 104 -103 259q0 156 103 259q104 105 261 105q95 0 175.5 -44.5t125.5 -120.5l-119 -69q-26 47 -74 73.5t-108 26.5
q-102 0 -165 -64q-62 -65 -62 -166q0 -100 62 -165q63 -64 165 -64z" />
    <glyph glyph-name="ccaron" unicode="&#x10d;" horiz-adv-x="536" 
d="M358 555h-131l-106 145h128l44 -65l43 65h128zM411 180l112 -64q-33 -60 -93.5 -95t-132.5 -35q-113 0 -189 76q-75 76 -75 188t75 188q76 76 189 76q73 0 133 -35t91 -94l-111 -65q-15 31 -45.5 49t-68.5 18q-58 0 -96 -38.5t-38 -98.5q0 -58 38 -98q38 -38 96 -38
q39 0 69.5 17.5t45.5 48.5z" />
    <glyph glyph-name="Dcaron" unicode="&#x10e;" horiz-adv-x="713" 
d="M397 755h-131l-106 145h128l44 -65l43 65h128zM65 700h278q144 0 240 -101q97 -100 97 -249t-97 -249q-96 -101 -240 -101h-278v700zM203 132h140q91 0 148 60q57 62 57 158q0 97 -57 157q-57 61 -148 61h-140v-436z" />
    <glyph glyph-name="dcaron" unicode="&#x10f;" horiz-adv-x="735" 
d="M438 441v259h129v-700h-129v59q-57 -73 -162 -73q-101 0 -173 76q-71 77 -71 188q0 110 71 187q72 77 173 77q105 0 162 -73zM614 500l10 200h121l-30 -200h-101zM200 148q41 -39 100 -39q60 0 99 39q39 40 39 102t-39 101q-39 40 -99 40t-100 -40q-39 -39 -39 -101
t39 -102z" />
    <glyph glyph-name="Dcroat" unicode="&#x110;" horiz-adv-x="748" 
d="M100 700h278q144 0 240 -101q97 -100 97 -249t-97 -249q-96 -101 -240 -101h-278v281h-78v124h78v295zM238 132h140q91 0 148 60q57 62 57 158q0 97 -57 157q-57 61 -148 61h-140v-163h159v-124h-159v-149z" />
    <glyph glyph-name="dslash" unicode="&#x111;" horiz-adv-x="633" 
d="M568 638h62v-84h-62v-554h-129v59q-58 -73 -163 -73q-100 0 -172 76q-71 77 -71 188q0 110 71 187q72 77 172 77q105 0 163 -73v113h-151v84h151v62h129v-62zM201 148q39 -39 99 -39t99 39q40 40 40 102t-40 101q-39 40 -99 40t-99 -40q-39 -39 -39 -101t39 -102z" />
    <glyph glyph-name="Emacron" unicode="&#x112;" horiz-adv-x="530" 
d="M134 869h290v-105h-290v105zM203 289v-157h295v-132h-433v700h428v-132h-290v-149h265v-130h-265z" />
    <glyph glyph-name="emacron" unicode="&#x113;" horiz-adv-x="581" 
d="M146 673h290v-105h-290v105zM545 197h-377q25 -94 141 -94q74 0 112 50l104 -60q-74 -107 -218 -107q-124 0 -199 75t-75 189q0 112 74 188q73 76 190 76q111 0 181 -76q72 -76 72 -188q0 -21 -5 -53zM166 297h255q-11 49 -44.5 75t-79.5 26q-52 0 -86 -26.5t-45 -74.5z
" />
    <glyph glyph-name="Edotaccent" unicode="&#x116;" horiz-adv-x="530" 
d="M279 751q-32 0 -55 23t-23 55t23 54.5t55 22.5q31 0 54 -23t23 -54q0 -32 -23 -55t-54 -23zM203 289v-157h295v-132h-433v700h428v-132h-290v-149h265v-130h-265z" />
    <glyph glyph-name="edotaccent" unicode="&#x117;" horiz-adv-x="581" 
d="M291 555q-32 0 -55 23t-23 55t23 54.5t55 22.5q31 0 54 -23t23 -54q0 -32 -23 -55t-54 -23zM545 197h-377q25 -94 141 -94q74 0 112 50l104 -60q-74 -107 -218 -107q-124 0 -199 75t-75 189q0 112 74 188q73 76 190 76q111 0 181 -76q72 -76 72 -188q0 -21 -5 -53z
M166 297h255q-11 49 -44.5 75t-79.5 26q-52 0 -86 -26.5t-45 -74.5z" />
    <glyph glyph-name="Eogonek" unicode="&#x118;" horiz-adv-x="530" 
d="M203 289v-157h295v-132h-1q-52 -55 -52 -95q-1 -27 25 -27q10 -1 27 5v-81q-36 -16 -80 -16t-70 23t-26 65q0 57 66 126h-322v700h428v-132h-290v-149h265v-130h-265z" />
    <glyph glyph-name="eogonek" unicode="&#x119;" horiz-adv-x="581" 
d="M545 197h-377q25 -94 141 -94q74 0 112 50l104 -60q-13 -19 -37 -43q-84 -90 -84 -145q0 -27 25 -27q11 -1 28 5v-81q-39 -16 -81 -16q-44 0 -69.5 23t-25.5 65q0 58 65 114q-34 -2 -39 -2q-124 0 -199 75t-75 189q0 112 74 188q73 76 190 76q111 0 181 -76
q72 -76 72 -188q0 -21 -5 -53zM166 297h255q-11 49 -44.5 75t-79.5 26q-52 0 -86 -26.5t-45 -74.5z" />
    <glyph glyph-name="Ecaron" unicode="&#x11a;" horiz-adv-x="530" 
d="M341 755h-131l-106 145h128l44 -65l43 65h128zM203 289v-157h295v-132h-433v700h428v-132h-290v-149h265v-130h-265z" />
    <glyph glyph-name="ecaron" unicode="&#x11b;" horiz-adv-x="581" 
d="M353 559h-131l-106 145h128l44 -65l43 65h128zM545 197h-377q25 -94 141 -94q74 0 112 50l104 -60q-74 -107 -218 -107q-124 0 -199 75t-75 189q0 112 74 188q73 76 190 76q111 0 181 -76q72 -76 72 -188q0 -21 -5 -53zM166 297h255q-11 49 -44.5 75t-79.5 26
q-52 0 -86 -26.5t-45 -74.5z" />
    <glyph glyph-name="Gbreve" unicode="&#x11e;" horiz-adv-x="785" 
d="M397 755q-79 0 -122.5 38t-43.5 107h115q0 -52 51 -52q52 0 52 52h115q0 -69 -43.5 -107t-123.5 -38zM401 376h351v-54q0 -150 -96 -243t-248 -93q-162 0 -269 105q-106 106 -106 258q0 153 105 259q106 106 262 106q97 0 178 -44t127 -119l-118 -68q-25 43 -76 70
t-112 27q-101 0 -165 -66q-64 -64 -64 -165q0 -99 65 -164q65 -64 174 -64q79 0 132 35t72 98h-212v122z" />
    <glyph glyph-name="gbreve" unicode="&#x11f;" 
d="M297 555q-79 0 -122.5 38t-43.5 107h115q0 -52 51 -52q52 0 52 52h115q0 -69 -43.5 -107t-123.5 -38zM442 438v62h126v-476q0 -115 -77 -177q-76 -61 -184 -61q-170 0 -237 122l110 63q37 -70 131 -70q61 0 96 32t35 91v54q-57 -76 -160 -76q-106 0 -178 74
q-71 76 -71 182t72 181t177 75q103 0 160 -76zM442 258q0 60 -40 97q-39 39 -100 39q-60 0 -101 -39q-39 -37 -39 -97t39.5 -98.5t100.5 -38.5t100.5 38.5t39.5 98.5z" />
    <glyph glyph-name="Gdotaccent" unicode="&#x120;" horiz-adv-x="785" 
d="M397 759q-32 0 -55 23t-23 55t23 54.5t55 22.5q31 0 54 -23t23 -54q0 -32 -23 -55t-54 -23zM401 376h351v-54q0 -150 -96 -243t-248 -93q-162 0 -269 105q-106 106 -106 258q0 153 105 259q106 106 262 106q97 0 178 -44t127 -119l-118 -68q-25 43 -76 70t-112 27
q-101 0 -165 -66q-64 -64 -64 -165q0 -99 65 -164q65 -64 174 -64q79 0 132 35t72 98h-212v122z" />
    <glyph glyph-name="gdotaccent" unicode="&#x121;" 
d="M297 559q-32 0 -55 23t-23 55t23 54.5t55 22.5q31 0 54 -23t23 -54q0 -32 -23 -55t-54 -23zM442 438v62h126v-476q0 -115 -77 -177q-76 -61 -184 -61q-170 0 -237 122l110 63q37 -70 131 -70q61 0 96 32t35 91v54q-57 -76 -160 -76q-106 0 -178 74q-71 76 -71 182t72 181
t177 75q103 0 160 -76zM442 258q0 60 -40 97q-39 39 -100 39q-60 0 -101 -39q-39 -37 -39 -97t39.5 -98.5t100.5 -38.5t100.5 38.5t39.5 98.5z" />
    <glyph glyph-name="Gcommaaccent" unicode="&#x122;" horiz-adv-x="785" 
d="M401 376h351v-54q0 -150 -96 -243t-248 -93q-162 0 -269 105q-106 106 -106 258q0 153 105 259q106 106 262 106q97 0 178 -44t127 -119l-118 -68q-25 43 -76 70t-112 27q-101 0 -165 -66q-64 -64 -64 -165q0 -99 65 -164q65 -64 174 -64q79 0 132 35t72 98h-212v122z
M443 -263h-102l10 200h122z" />
    <glyph glyph-name="gcommaaccent" unicode="&#x123;" 
d="M259 783h102l-10 -200h-122zM442 438v62h126v-476q0 -115 -77 -177q-76 -61 -184 -61q-170 0 -237 122l110 63q37 -70 131 -70q61 0 96 32t35 91v54q-57 -76 -160 -76q-106 0 -178 74q-71 76 -71 182t72 181t177 75q103 0 160 -76zM442 258q0 60 -40 97q-39 39 -100 39
q-60 0 -101 -39q-39 -37 -39 -97t39.5 -98.5t100.5 -38.5t100.5 38.5t39.5 98.5z" />
    <glyph glyph-name="Hbar" unicode="&#x126;" horiz-adv-x="708" 
d="M621 602h62v-101h-62v-501h-137v272h-260v-272h-138v501h-61v101h61v98h138v-98h260v98h137v-98zM224 404h260v97h-260v-97z" />
    <glyph glyph-name="hbar" unicode="&#x127;" horiz-adv-x="583" 
d="M343 514q84 0 136 -55q54 -56 54 -152v-307h-129v291q0 49 -27 76t-73 27q-51 0 -80.5 -31.5t-29.5 -92.5v-270h-129v554h-62v84h62v62h129v-62h141v-84h-141v-111q47 71 149 71z" />
    <glyph glyph-name="Imacron" unicode="&#x12a;" horiz-adv-x="268" 
d="M279 764h-290v105h290v-105zM65 0v700h138v-700h-138z" />
    <glyph glyph-name="imacron" unicode="&#x12b;" horiz-adv-x="247" 
d="M238 564h-230v112h230v-112zM188 0h-129v500h129v-500z" />
    <glyph glyph-name="Iogonek" unicode="&#x12e;" horiz-adv-x="268" 
d="M194 -122q10 -1 28 5v-81q-39 -16 -81 -16q-44 0 -70 23t-26 65q0 56 46 126h-26v700h138v-700q-34 -55 -34 -95q-1 -27 25 -27z" />
    <glyph glyph-name="iogonek" unicode="&#x12f;" horiz-adv-x="247" 
d="M123 560q-32 0 -55.5 23.5t-23.5 55.5t23.5 56t55.5 24q33 0 56.5 -24t23.5 -56t-23.5 -55.5t-56.5 -23.5zM179 -122q10 -1 27 5v-81q-36 -16 -80 -16q-43 0 -69.5 24t-26.5 66q0 54 43 124h-14v500h129v-500q-34 -55 -34 -92q-2 -30 25 -30z" />
    <glyph glyph-name="Idot" unicode="&#x130;" horiz-adv-x="268" 
d="M134 751q-32 -2 -55 23t-23 55t23 54q25 23 55 23t54.5 -23t22.5 -54q0 -32 -23 -55t-54 -23zM65 0v700h138v-700h-138z" />
    <glyph glyph-name="dotlessi" unicode="&#x131;" horiz-adv-x="247" 
d="M188 0h-129v500h129v-500z" />
    <glyph glyph-name="Kcommaaccent" unicode="&#x136;" horiz-adv-x="615" 
d="M602 700l-259 -340l269 -360h-159l-250 328v-328h-138v700h138v-309l240 309h159zM344 -263h-102l10 200h122z" />
    <glyph glyph-name="kcommaaccent" unicode="&#x137;" horiz-adv-x="525" 
d="M514 500l-201 -247l207 -253h-150l-182 227v-227h-129v700h129v-420l172 220h154zM317 -263h-102l10 200h122z" />
    <glyph glyph-name="Lacute" unicode="&#x139;" horiz-adv-x="483" 
d="M147 900h155l-111 -137h-124zM203 700v-568h267v-132h-405v700h138z" />
    <glyph glyph-name="lacute" unicode="&#x13a;" horiz-adv-x="247" 
d="M57 763l80 137h155l-111 -137h-124zM59 0h129v730h-129v-730z" />
    <glyph glyph-name="Lcommaaccent" unicode="&#x13b;" horiz-adv-x="483" 
d="M203 700v-568h267v-132h-405v700h138zM311 -263h-102l10 200h122z" />
    <glyph glyph-name="lcommaaccent" unicode="&#x13c;" horiz-adv-x="247" 
d="M188 0h-129v730h129v-730zM157 -263h-102l10 200h122z" />
    <glyph glyph-name="Lcaron" unicode="&#x13d;" horiz-adv-x="483" 
d="M203 700v-568h267v-132h-405v700h138zM277 700h129l-30 -185h-109z" />
    <glyph glyph-name="lcaron" unicode="&#x13e;" horiz-adv-x="354" 
d="M188 0h-129v730h129v-730zM334 530h-102l10 200h122z" />
    <glyph glyph-name="Lslash" unicode="&#x141;" horiz-adv-x="503" 
d="M223 293v-161h267v-132h-405v211l-60 -36v138l60 36v351h138v-269l132 78v-138z" />
    <glyph glyph-name="lslash" unicode="&#x142;" horiz-adv-x="263" 
d="M196 453l54 37v-123l-54 -37v-330h-129v242l-54 -37v123l54 37v365h129v-277z" />
    <glyph glyph-name="Nacute" unicode="&#x143;" horiz-adv-x="673" 
d="M249 763l80 137h155l-111 -137h-124zM470 700v-427l-300 427h-105v-700h138v428l300 -428h105v700h-138z" />
    <glyph glyph-name="nacute" unicode="&#x144;" horiz-adv-x="577" 
d="M298 708h155l-111 -137h-124zM337 514q83 0 135 -55q54 -56 54 -152v-307h-129v291q0 49 -26.5 76t-72.5 27q-51 0 -80.5 -31.5t-29.5 -92.5v-270h-129v500h129v-56q46 70 149 70z" />
    <glyph glyph-name="Ncommaaccent" unicode="&#x145;" horiz-adv-x="673" 
d="M470 273v427h138v-700h-105l-300 428v-428h-138v700h105zM373 -263h-102l10 200h122z" />
    <glyph glyph-name="ncommaaccent" unicode="&#x146;" horiz-adv-x="577" 
d="M337 514q83 0 135 -55q54 -56 54 -152v-307h-129v291q0 49 -26.5 76t-72.5 27q-51 0 -80.5 -31.5t-29.5 -92.5v-270h-129v500h129v-56q46 70 149 70zM330 -263h-102l10 200h122z" />
    <glyph glyph-name="Ncaron" unicode="&#x147;" horiz-adv-x="673" 
d="M391 755h-131l-106 145h128l44 -65l43 65h128zM470 273v427h138v-700h-105l-300 428v-428h-138v700h105z" />
    <glyph glyph-name="ncaron" unicode="&#x148;" horiz-adv-x="577" 
d="M360 563h-131l-106 145h128l44 -65l43 65h128zM337 514q83 0 135 -55q54 -56 54 -152v-307h-129v291q0 49 -26.5 76t-72.5 27q-51 0 -80.5 -31.5t-29.5 -92.5v-270h-129v500h129v-56q46 70 149 70z" />
    <glyph glyph-name="Eng" unicode="&#x14a;" horiz-adv-x="673" 
d="M470 273v427h138v-700q0 -102 -61 -154t-172 -46v126q50 0 72.5 18t22.5 64v39l-267 381v-428h-138v700h105z" />
    <glyph glyph-name="eng" unicode="&#x14b;" horiz-adv-x="577" 
d="M337 514q83 0 135 -55q54 -56 54 -152v-317q0 -105 -53 -158t-157 -46v124q42 -4 61.5 14.5t19.5 65.5v301q0 49 -26.5 76t-72.5 27q-51 0 -80.5 -31.5t-29.5 -92.5v-270h-129v500h129v-56q46 70 149 70z" />
    <glyph glyph-name="Omacron" unicode="&#x14c;" horiz-adv-x="792" 
d="M541 772h-290v105h290v-105zM654 91q-106 -105 -258 -105t-258 105q-105 107 -105 259q0 153 105 258q106 106 258 106t258 -106q106 -105 106 -258t-106 -259zM235 185q64 -64 161 -64t161 64q65 65 65 165t-65 165t-161 65t-161 -65t-65 -165t65 -165z" />
    <glyph glyph-name="omacron" unicode="&#x14d;" horiz-adv-x="594" 
d="M442 572h-290v105h290v-105zM485 62q-76 -76 -188 -76t-188 76t-76 188q0 111 76 187q77 77 188 77t188 -77t77 -187q0 -111 -77 -188zM200 151q39 -39 97 -39t97 39t39 99t-39 99t-97 39t-97 -39q-38 -40 -38 -99t38 -99z" />
    <glyph glyph-name="Ohungarumlaut" unicode="&#x150;" horiz-adv-x="792" 
d="M221 763l78 138h134l-84 -138h-128zM394 763l88 138h134l-94 -138h-128zM654 91q106 106 106 259t-106 258q-106 106 -258 106t-258 -106q-105 -105 -105 -258q0 -152 105 -259q106 -105 258 -105t258 105zM235 185q-65 65 -65 165t65 165t161 65t161 -65t65 -165
t-65 -165q-64 -64 -161 -64t-161 64z" />
    <glyph glyph-name="ohungarumlaut" unicode="&#x151;" horiz-adv-x="594" 
d="M122 563l78 138h134l-84 -138h-128zM295 563l88 138h134l-94 -138h-128zM485 62q77 77 77 188q0 110 -77 187t-188 77t-188 -77q-76 -76 -76 -187q0 -112 76 -188t188 -76t188 76zM200 151q-38 40 -38 99t38 99q39 39 97 39t97 -39t39 -99t-39 -99t-97 -39t-97 39z" />
    <glyph glyph-name="OE" unicode="&#x152;" horiz-adv-x="916" 
d="M623 289v-157h260v-132h-397q-50 -14 -100 -14q-152 0 -252 105q-101 106 -101 259t101 259q100 105 252 105q50 0 100 -14h392v-132h-255v-149h233v-130h-233zM486 136v429q-45 15 -100 15q-94 0 -156 -65q-60 -65 -60 -165t60 -165q61 -64 156 -64q60 0 100 15z" />
    <glyph glyph-name="oe" unicode="&#x153;" horiz-adv-x="981" 
d="M945 197h-377q14 -46 50.5 -70t86.5 -24q78 0 116 50l104 -60q-74 -107 -218 -107t-210 112q-69 -112 -204 -112q-111 0 -186 76q-74 77 -74 188t74 188q75 76 186 76q65 0 118.5 -29.5t84.5 -81.5q64 111 207 111q109 0 178 -76q69 -77 69 -188q0 -21 -5 -53zM566 298
h255q-11 49 -44 74.5t-79 25.5q-51 0 -85.5 -26.5t-46.5 -73.5zM297 112q58 0 97 39t39 99t-39 99t-97 39q-59 0 -97 -38.5t-38 -99.5t38 -99.5t97 -38.5z" />
    <glyph glyph-name="Racute" unicode="&#x154;" horiz-adv-x="614" 
d="M295 900h155l-111 -137h-124zM598 0h-149l-141 243h-105v-243h-138v700h280q97 0 165 -68t68 -164q0 -65 -37 -120.5t-98 -83.5zM345 571h-142v-207h142q39 0 67 30.5t28 73.5t-28 73t-67 30z" />
    <glyph glyph-name="racute" unicode="&#x155;" horiz-adv-x="356" 
d="M193 700h155l-111 -137h-124zM188 500v-86q17 47 58 71.5t94 24.5v-144q-59 8 -106 -24q-46 -31 -46 -103v-239h-129v500h129z" />
    <glyph glyph-name="Rcommaaccent" unicode="&#x156;" horiz-adv-x="614" 
d="M443 264l155 -264h-149l-141 243h-105v-243h-138v700h280q97 0 165 -68t68 -164q0 -65 -37 -120.5t-98 -83.5zM345 571h-142v-207h142q39 0 67 30.5t28 73.5t-28 73t-67 30zM360 -263h-102l10 200h122z" />
    <glyph glyph-name="rcommaaccent" unicode="&#x157;" horiz-adv-x="356" 
d="M188 500v-86q17 47 58 71.5t94 24.5v-144q-59 8 -106 -24q-46 -31 -46 -103v-239h-129v500h129zM157 -263h-102l10 200h122z" />
    <glyph glyph-name="Rcaron" unicode="&#x158;" horiz-adv-x="614" 
d="M357 755h-131l-106 145h128l44 -65l43 65h128zM598 0h-149l-141 243h-105v-243h-138v700h280q97 0 165 -68t68 -164q0 -65 -37 -120.5t-98 -83.5zM345 571h-142v-207h142q39 0 67 30.5t28 73.5t-28 73t-67 30z" />
    <glyph glyph-name="rcaron" unicode="&#x159;" horiz-adv-x="356" 
d="M255 555h-131l-106 145h128l44 -65l43 65h128zM188 500v-86q17 47 58 71.5t94 24.5v-144q-59 8 -106 -24q-46 -31 -46 -103v-239h-129v500h129z" />
    <glyph glyph-name="Sacute" unicode="&#x15a;" horiz-adv-x="583" 
d="M213 771l80 137h155l-111 -137h-124zM304 -14q112 0 183 57t71 154q0 57 -26 99q-17 32 -66 62q-14 10 -44 21q-32 13 -45 17l-48 16q-76 23 -106 44q-27 21 -27 54q0 31 25 50.5t67 19.5q92 0 134 -90l116 67q-36 75 -101 116t-149 41q-96 0 -163 -57q-67 -55 -67 -151
q0 -95 66 -144q53 -37 145 -65q85 -24 118 -45q33 -20 33 -57q0 -34 -28 -54t-84 -20q-120 0 -161 107l-118 -69q30 -81 101 -127t174 -46z" />
    <glyph glyph-name="sacute" unicode="&#x15b;" horiz-adv-x="465" 
d="M231 708h155l-111 -137h-124zM178 358q0 -32 91 -55q32 -7 58 -16.5t52.5 -27t41.5 -46.5t15 -67q0 -77 -58 -119q-58 -41 -143 -41q-154 0 -210 119l112 63q23 -65 98 -65q69 0 69 43q0 32 -91 55q-34 9 -58 18t-52 26.5t-42.5 45t-14.5 64.5q0 74 54 116q55 43 136 43
q61 0 111 -27.5t79 -78.5l-110 -60q-24 51 -80 51q-25 0 -41.5 -11.5t-16.5 -29.5z" />
    <glyph glyph-name="Scedilla" unicode="&#x15e;" horiz-adv-x="583" 
d="M558 197q0 -84 -53.5 -139t-146.5 -68v-36q31 -7 50.5 -27t19.5 -51q0 -105 -220 -92v91q108 -7 108 20q0 21 -63 25v69q-83 11 -141 55.5t-83 114.5l118 69q41 -107 161 -107q56 0 84 20t28 54q0 37 -33 57q-33 21 -118 45q-92 28 -145 65q-66 49 -66 144q0 96 67 151
q67 57 163 57q84 0 149 -41t101 -116l-116 -67q-42 90 -134 90q-42 0 -67 -19.5t-25 -50.5q0 -33 27 -54q30 -21 106 -44l48 -16q13 -4 45 -17q30 -11 44 -21q49 -30 66 -62q26 -42 26 -99z" />
    <glyph glyph-name="scedilla" unicode="&#x15f;" horiz-adv-x="465" 
d="M436 146q0 -61 -37.5 -101t-101.5 -53v-38q31 -7 50.5 -27t19.5 -51q0 -105 -220 -92v91q108 -7 108 20q0 21 -63 25v69q-120 15 -167 116l112 63q23 -65 98 -65q69 0 69 43q0 32 -91 55q-34 9 -58 18t-52 26.5t-42.5 45t-14.5 64.5q0 74 54 116q55 43 136 43
q61 0 111 -27.5t79 -78.5l-110 -60q-24 51 -80 51q-25 0 -41.5 -11.5t-16.5 -29.5q0 -32 91 -55q32 -7 58 -16.5t52.5 -27t41.5 -46.5t15 -67z" />
    <glyph glyph-name="Scaron" unicode="&#x160;" horiz-adv-x="583" 
d="M355 763h-131l-106 145h128l44 -65l43 65h128zM329 412l48 -16q13 -4 45 -17q30 -11 44 -21q49 -30 66 -62q26 -42 26 -99q0 -97 -71 -154t-183 -57q-103 0 -174 46t-101 127l118 69q41 -107 161 -107q56 0 84 20t28 54q0 37 -33 57q-33 21 -118 45q-92 28 -145 65
q-66 49 -66 144q0 96 67 151q67 57 163 57q84 0 149 -41t101 -116l-116 -67q-42 90 -134 90q-42 0 -67 -19.5t-25 -50.5q0 -33 27 -54q30 -21 106 -44z" />
    <glyph glyph-name="scaron" unicode="&#x161;" horiz-adv-x="465" 
d="M293 563h-131l-106 145h128l44 -65l43 65h128zM178 358q0 -32 91 -55q32 -7 58 -16.5t52.5 -27t41.5 -46.5t15 -67q0 -77 -58 -119q-58 -41 -143 -41q-154 0 -210 119l112 63q23 -65 98 -65q69 0 69 43q0 32 -91 55q-34 9 -58 18t-52 26.5t-42.5 45t-14.5 64.5
q0 74 54 116q55 43 136 43q61 0 111 -27.5t79 -78.5l-110 -60q-24 51 -80 51q-25 0 -41.5 -11.5t-16.5 -29.5z" />
    <glyph glyph-name="uni0162" unicode="&#x162;" horiz-adv-x="540" 
d="M13 700h515v-132h-189v-568h-138v568h-188v132zM307 -263h-102l10 200h122z" />
    <glyph glyph-name="uni0163" unicode="&#x163;" horiz-adv-x="385" 
d="M345 500v-124h-113v-208q0 -26 13 -38t38 -13.5t62 0.5v-117q-131 -15 -186.5 24.5t-55.5 143.5v208h-87v124h87v101l129 39v-140h113zM264 -263h-102l10 200h122z" />
    <glyph glyph-name="Tcaron" unicode="&#x164;" horiz-adv-x="540" 
d="M332 755h-131l-106 145h128l44 -65l43 65h128zM13 700h515v-132h-189v-568h-138v568h-188v132z" />
    <glyph glyph-name="tcaron" unicode="&#x165;" horiz-adv-x="406" 
d="M276 544l10 182h122l-30 -182h-102zM103 601l129 39v-140h113v-124h-113v-208q0 -26 13 -38t38 -13.5t62 0.5v-117q-131 -15 -186.5 24.5t-55.5 143.5v208h-87v124h87v101z" />
    <glyph glyph-name="Tbar" unicode="&#x166;" horiz-adv-x="540" 
d="M528 700v-132h-189v-163h119v-124h-119v-281h-138v281h-118v124h118v163h-188v132h515z" />
    <glyph glyph-name="tbar" unicode="&#x167;" horiz-adv-x="385" 
d="M345 500v-124h-113v-73h80v-104h-80v-31q0 -26 13 -38t38 -13.5t62 0.5v-117q-131 -15 -186.5 24.5t-55.5 143.5v31h-58v104h58v73h-87v124h87v101l129 39v-140h113z" />
    <glyph glyph-name="Umacron" unicode="&#x16a;" horiz-adv-x="653" 
d="M471 764h-290v105h290v-105zM326 -14q-117 0 -192 66t-75 177v471h137v-460q0 -56 32.5 -87.5t97.5 -31.5t97.5 31.5t32.5 87.5v460h138v-471q0 -111 -75 -177t-193 -66z" />
    <glyph glyph-name="umacron" unicode="&#x16b;" horiz-adv-x="577" 
d="M139 669h290v-105h-290v105zM389 230v270h129v-500h-129v56q-46 -70 -149 -70q-82 0 -136 55q-53 56 -53 152v307h129v-291q0 -49 26.5 -76t72.5 -27q51 0 80.5 31.5t29.5 92.5z" />
    <glyph glyph-name="Uring" unicode="&#x16e;" horiz-adv-x="653" 
d="M326 709q-55 0 -90.5 34t-35.5 85t35.5 84.5t90.5 33.5q56 0 91 -33.5t35 -84.5q0 -52 -35 -85.5t-91 -33.5zM326 790q40 0 40 38q0 37 -40 37q-18 0 -28.5 -10.5t-10.5 -26.5q0 -17 10.5 -27.5t28.5 -10.5zM326 -14q-117 0 -192 66t-75 177v471h137v-460
q0 -56 32.5 -87.5t97.5 -31.5t97.5 31.5t32.5 87.5v460h138v-471q0 -111 -75 -177t-193 -66z" />
    <glyph glyph-name="uring" unicode="&#x16f;" horiz-adv-x="577" 
d="M284 539q-55 0 -90.5 34t-35.5 85t35.5 84.5t90.5 33.5q56 0 91 -33.5t35 -84.5q0 -52 -35 -85.5t-91 -33.5zM284 695q-18 0 -28.5 -10.5t-10.5 -26.5q0 -17 10.5 -27.5t28.5 -10.5q40 0 40 38q0 37 -40 37zM389 230v270h129v-500h-129v56q-46 -70 -149 -70
q-82 0 -136 55q-53 56 -53 152v307h129v-291q0 -49 26.5 -76t72.5 -27q51 0 80.5 31.5t29.5 92.5z" />
    <glyph glyph-name="Uhungarumlaut" unicode="&#x170;" horiz-adv-x="653" 
d="M151 755l78 138h134l-84 -138h-128zM324 755l88 138h134l-94 -138h-128zM326 -14q118 0 193 66t75 177v471h-138v-460q0 -56 -32.5 -87.5t-97.5 -31.5t-97.5 31.5t-32.5 87.5v460h-137v-471q0 -111 75 -177t192 -66z" />
    <glyph glyph-name="uhungarumlaut" unicode="&#x171;" horiz-adv-x="577" 
d="M187 693h134l-84 -138h-128zM504 693l-94 -138h-128l88 138h134zM389 230v270h129v-500h-129v56q-46 -70 -149 -70q-82 0 -136 55q-53 56 -53 152v307h129v-291q0 -49 26.5 -76t72.5 -27q51 0 80.5 31.5t29.5 92.5z" />
    <glyph glyph-name="Uogonek" unicode="&#x172;" horiz-adv-x="653" 
d="M456 240v460h138v-471q0 -121 -90 -189q-52 -49 -71.5 -77.5t-20.5 -57.5q-1 -25 25 -27q10 -1 27 5v-81q-36 -16 -80 -16t-70 23t-26 65q0 50 54 112h-16q-117 0 -192 66t-75 177v471h137v-460q0 -56 32.5 -87.5t97.5 -31.5t97.5 31.5t32.5 87.5z" />
    <glyph glyph-name="uogonek" unicode="&#x173;" horiz-adv-x="577" 
d="M389 500h129v-500q-53 -56 -53 -95q0 -27 25 -27q11 -1 28 5v-81q-36 -16 -81 -16q-43 0 -69 23t-26 65q0 53 64 126h-17v56q-46 -70 -149 -70q-82 0 -136 55q-53 56 -53 152v307h129v-291q0 -49 26.5 -76t72.5 -27q51 0 80.5 31.5t29.5 92.5v270z" />
    <glyph glyph-name="Wcircumflex" unicode="&#x174;" horiz-adv-x="999" 
d="M569 755l-43 65l-44 -65h-128l106 145h131l106 -145h-128zM705 181l134 519h145l-196 -700h-157l-132 462l-131 -462h-157l-196 700h145l134 -519l146 519h118z" />
    <glyph glyph-name="wcircumflex" unicode="&#x175;" horiz-adv-x="770" 
d="M425 555l-43 65l-44 -65h-128l106 145h131l106 -145h-128zM537 192l85 308h137l-159 -500h-123l-92 303l-92 -303h-123l-159 500h137l85 -307l91 307h122z" />
    <glyph glyph-name="Ycircumflex" unicode="&#x176;" horiz-adv-x="621" 
d="M350 755l-43 65l-44 -65h-128l106 145h131l106 -145h-128zM463 700h156l-240 -427v-273h-137v273l-239 427h156l152 -292z" />
    <glyph glyph-name="ycircumflex" unicode="&#x177;" horiz-adv-x="525" 
d="M303 555l-43 65l-44 -65h-128l106 145h131l106 -145h-128zM274 164l111 336h138l-182 -500q-39 -108 -103.5 -156.5t-160.5 -43.5v120q51 -1 82 22t49 74l-205 484h141z" />
    <glyph glyph-name="Ydieresis" unicode="&#x178;" horiz-adv-x="621" 
d="M262 768q-19 -19 -47 -19t-48 19q-20 20 -20 48t20 48t48 20t47 -20q20 -20 20 -48t-20 -48zM452 768q-19 -19 -47 -19t-48 19q-20 20 -20 48t20 48t48 20t47 -20q20 -20 20 -48t-20 -48zM463 700h156l-240 -427v-273h-137v273l-239 427h156l152 -292z" />
    <glyph glyph-name="Zacute" unicode="&#x179;" horiz-adv-x="535" 
d="M273 900h155l-111 -137h-124zM503 591l-291 -459h297v-132h-473v110l291 458h-284v132h460v-109z" />
    <glyph glyph-name="zacute" unicode="&#x17a;" horiz-adv-x="474" 
d="M241 700h155l-111 -137h-124zM428 414l-212 -293h222v-121h-395v86l211 293h-201v121h375v-86z" />
    <glyph glyph-name="Zdotaccent" unicode="&#x17b;" horiz-adv-x="535" 
d="M273 751q-32 0 -55 23t-23 55t23 54.5t55 22.5q31 0 54 -23t23 -54q0 -32 -23 -55t-54 -23zM503 591l-291 -459h297v-132h-473v110l291 458h-284v132h460v-109z" />
    <glyph glyph-name="zdotaccent" unicode="&#x17c;" horiz-adv-x="474" 
d="M241 551q-32 0 -55 23t-23 55t23 54.5t55 22.5q31 0 54 -23t23 -54q0 -32 -23 -55t-54 -23zM428 414l-212 -293h222v-121h-395v86l211 293h-201v121h375v-86z" />
    <glyph glyph-name="Zcaron" unicode="&#x17d;" horiz-adv-x="535" 
d="M335 755h-131l-106 145h128l44 -65l43 65h128zM503 591l-291 -459h297v-132h-473v110l291 458h-284v132h460v-109z" />
    <glyph glyph-name="zcaron" unicode="&#x17e;" horiz-adv-x="474" 
d="M303 555h-131l-106 145h128l44 -65l43 65h128zM428 414l-212 -293h222v-121h-395v86l211 293h-201v121h375v-86z" />
    <glyph glyph-name="florin" unicode="&#x192;" horiz-adv-x="441" 
d="M441 705v-129q-31 18 -66 3q-34 -15 -42 -59l-18 -106h91v-124h-112l-56 -331q-18 -103 -81.5 -144t-156.5 -16v128q33 -18 67 -3q33 14 41 59l52 307h-84v124h106l22 131q18 103 81.5 144t155.5 16z" />
    <glyph glyph-name="Scommaaccent" unicode="&#x218;" horiz-adv-x="583" 
d="M304 -14q-103 0 -174 46t-101 127l118 69q41 -107 161 -107q56 0 84 20t28 54q0 37 -33 57q-33 21 -118 45q-92 28 -145 65q-66 49 -66 144q0 96 67 151q67 57 163 57q84 0 149 -41t101 -116l-116 -67q-42 90 -134 90q-42 0 -67 -19.5t-25 -50.5q0 -33 27 -54
q30 -21 106 -44l48 -16q13 -4 45 -17q30 -11 44 -21q49 -30 66 -62q26 -42 26 -99q0 -97 -71 -154t-183 -57zM341 -263h-102l10 200h122z" />
    <glyph glyph-name="scommaaccent" unicode="&#x219;" horiz-adv-x="465" 
d="M178 358q0 -32 91 -55q32 -7 58 -16.5t52.5 -27t41.5 -46.5t15 -67q0 -77 -58 -119q-58 -41 -143 -41q-154 0 -210 119l112 63q23 -65 98 -65q69 0 69 43q0 32 -91 55q-34 9 -58 18t-52 26.5t-42.5 45t-14.5 64.5q0 74 54 116q55 43 136 43q61 0 111 -27.5t79 -78.5
l-110 -60q-24 51 -80 51q-25 0 -41.5 -11.5t-16.5 -29.5zM280 -263h-102l10 200h122z" />
    <glyph glyph-name="uni021A" unicode="&#x21a;" horiz-adv-x="540" 
d="M13 700h515v-132h-189v-568h-138v568h-188v132zM307 -263h-102l10 200h122z" />
    <glyph glyph-name="uni021B" unicode="&#x21b;" horiz-adv-x="385" 
d="M345 500v-124h-113v-208q0 -26 13 -38t38 -13.5t62 0.5v-117q-131 -15 -186.5 24.5t-55.5 143.5v208h-87v124h87v101l129 39v-140h113zM264 -263h-102l10 200h122z" />
    <glyph glyph-name="circumflex" unicode="&#x2c6;" horiz-adv-x="383" 
d="M257 700l106 -145h-128l-43 65l-44 -65h-128l106 145h131z" />
    <glyph glyph-name="caron" unicode="&#x2c7;" horiz-adv-x="383" 
d="M192 635l43 65h128l-106 -145h-131l-106 145h128z" />
    <glyph glyph-name="breve" unicode="&#x2d8;" horiz-adv-x="373" 
d="M186 547q-79 0 -122.5 38t-43.5 107h115q0 -52 51 -52q52 0 52 52h115q0 -69 -43.5 -107t-123.5 -38z" />
    <glyph glyph-name="dotaccent" unicode="&#x2d9;" horiz-adv-x="203" 
d="M98 551q-32 -2 -55 23t-23 55t23 54q25 23 55 23t54.5 -23t22.5 -54q0 -32 -23 -55t-54 -23z" />
    <glyph glyph-name="ring" unicode="&#x2da;" horiz-adv-x="293" 
d="M146 539q-55 0 -90.5 34t-35.5 85t35.5 84.5t90.5 33.5q56 0 91 -33.5t35 -84.5q0 -52 -35 -85.5t-91 -33.5zM146 620q40 0 40 38q0 37 -40 37q-18 0 -28.5 -10.5t-10.5 -26.5q0 -17 10.5 -27.5t28.5 -10.5z" />
    <glyph glyph-name="ogonek" unicode="&#x2db;" horiz-adv-x="216" 
d="M116 -214q-44 0 -70 23t-26 65q0 57 66 126h110q-52 -55 -52 -95q-2 -27 25 -27q10 -1 27 5v-81q-36 -16 -80 -16z" />
    <glyph glyph-name="tilde" unicode="&#x2dc;" horiz-adv-x="379" 
d="M125 560h-104q0 46 10.5 78.5t28.5 48.5t41.5 20.5t49.5 -2.5t52 -24q29 -21 40.5 -16t11.5 40h105q0 -58 -16.5 -94t-43 -47t-58 -6t-64.5 26q-29 21 -41 16t-12 -40z" />
    <glyph glyph-name="hungarumlaut" unicode="&#x2dd;" horiz-adv-x="435" 
d="M20 555l78 138h134l-84 -138h-128zM193 555l88 138h134l-94 -138h-128z" />
    <glyph glyph-name="gravecomb" unicode="&#x300;" horiz-adv-x="0" 
d="M-20 563h-124l-111 137h155z" />
    <glyph glyph-name="acutecomb" unicode="&#x301;" horiz-adv-x="0" 
d="M-255 563l80 137h155l-111 -137h-124z" />
    <glyph glyph-name="uni0302" unicode="&#x302;" horiz-adv-x="0" 
d="M-126 700l106 -145h-128l-43 65l-44 -65h-128l106 145h131z" />
    <glyph glyph-name="tildecomb" unicode="&#x303;" horiz-adv-x="0" 
d="M-247 560h-104q0 46 10.5 78.5t28.5 48.5t41.5 20.5t49.5 -2.5t52 -24q29 -21 40.5 -16t11.5 40h105q0 -58 -16.5 -94t-43 -47t-58 -6t-64.5 26q-29 21 -41 16t-12 -40z" />
    <glyph glyph-name="uni0304" unicode="&#x304;" horiz-adv-x="0" 
d="M-20 564h-290v105h290v-105z" />
    <glyph glyph-name="uni0306" unicode="&#x306;" horiz-adv-x="0" 
d="M-187 547q-79 0 -122.5 38t-43.5 107h115q0 -52 51 -52q52 0 52 52h115q0 -69 -43.5 -107t-123.5 -38z" />
    <glyph glyph-name="uni0307" unicode="&#x307;" horiz-adv-x="0" 
d="M-97 551q-32 0 -55 23t-23 55t23 54.5t55 22.5q31 0 54 -23t23 -54q0 -32 -23 -55t-54 -23z" />
    <glyph glyph-name="uni0308" unicode="&#x308;" horiz-adv-x="0" 
d="M-229 568q-20 -19 -48 -19t-48 19q-20 20 -20 48t20 48t48 20t48 -20q19 -20 19 -48t-19 -48zM-39 568q-20 -19 -48 -19t-48 19q-20 20 -20 48t20 48t48 20t48 -20q19 -20 19 -48t-19 -48z" />
    <glyph glyph-name="uni030A" unicode="&#x30a;" horiz-adv-x="0" 
d="M-150 539q-55 0 -90.5 34t-35.5 85t35.5 84.5t90.5 33.5q56 0 91 -33.5t35 -84.5q0 -52 -35 -85.5t-91 -33.5zM-150 620q40 0 40 38q0 37 -40 37q-18 0 -28.5 -10.5t-10.5 -26.5q0 -17 10.5 -27.5t28.5 -10.5z" />
    <glyph glyph-name="uni030B" unicode="&#x30b;" horiz-adv-x="0" 
d="M-415 555l78 138h134l-84 -138h-128zM-242 555l88 138h134l-94 -138h-128z" />
    <glyph glyph-name="uni030C" unicode="&#x30c;" horiz-adv-x="0" 
d="M-191 635l43 65h128l-106 -145h-131l-106 145h128z" />
    <glyph glyph-name="uni0312" unicode="&#x312;" horiz-adv-x="0" 
d="M-122 975h102l-10 -200h-122z" />
    <glyph glyph-name="uni0326" unicode="&#x326;" horiz-adv-x="0" 
d="M-50 -263h-102l10 200h122z" />
    <glyph glyph-name="uni0327" unicode="&#x327;" horiz-adv-x="0" 
d="M-90 0v-46q31 -7 50.5 -27t19.5 -51q0 -105 -220 -92v91q108 -7 108 20q0 21 -63 25v80h105z" />
    <glyph glyph-name="uni0328" unicode="&#x328;" horiz-adv-x="0" 
d="M-108 -214q-44 0 -70 23t-26 65q0 57 66 126h110q-52 -55 -52 -95q-2 -27 25 -27q10 -1 27 5v-81q-36 -16 -80 -16z" />
    <glyph glyph-name="uni0394" unicode="&#x394;" horiz-adv-x="653" 
d="M241 700h171l238 -700h-647zM326 547l-133 -418h266z" />
    <glyph glyph-name="uni03A9" unicode="&#x3a9;" horiz-adv-x="777" 
d="M752 365q0 -141 -107 -233h94v-132h-277v132q69 22 111 81t42 137q0 100 -65 165t-161 65t-161 -65t-65 -165q0 -78 41.5 -137t110.5 -81v-132h-276v132h93q-107 92 -107 233q0 148 106 248q107 101 258 101q150 0 257 -101q106 -100 106 -248z" />
    <glyph glyph-name="pi" unicode="&#x3c0;" horiz-adv-x="665" 
d="M23 500h620v-121h-80v-379h-129v379h-199v-379h-129v379h-83v121z" />
    <glyph glyph-name="uni0401" unicode="&#x401;" horiz-adv-x="530" 
d="M231 768q-19 -19 -47 -19t-48 19q-20 20 -20 48t20 48t48 20t47 -20q20 -20 20 -48t-20 -48zM421 768q-19 -19 -47 -19t-48 19q-20 20 -20 48t20 48t48 20t47 -20q20 -20 20 -48t-20 -48zM203 289v-157h295v-132h-433v700h428v-132h-290v-149h265v-130h-265z" />
    <glyph glyph-name="uni0402" unicode="&#x402;" horiz-adv-x="703" 
d="M465 466q87 0 137.5 -51t50.5 -144v-77q0 -110 -53.5 -160.5t-163.5 -43.5v128q44 -3 62 14.5t18 61.5v63q0 85 -81 85q-46 0 -109 -20v-322h-137v568h-176v132h512v-132h-199v-124q70 22 139 22z" />
    <glyph glyph-name="uni0403" unicode="&#x403;" horiz-adv-x="475" 
d="M269 899h155l-111 -137h-124zM65 700h398v-132h-260v-568h-138v700z" />
    <glyph glyph-name="uni0404" unicode="&#x404;" horiz-adv-x="724" 
d="M396 121q59 0 107.5 26.5t73.5 72.5l119 -69q-45 -76 -125 -120.5t-175 -44.5q-158 0 -261 105q-103 104 -103 259q0 156 103 259q103 105 261 105q94 0 174.5 -44.5t125.5 -120.5l-119 -69q-26 47 -74 73.5t-107 26.5q-84 0 -142.5 -44.5t-76.5 -120.5h312v-129h-312
q18 -76 76.5 -120.5t142.5 -44.5z" />
    <glyph glyph-name="uni0405" unicode="&#x405;" horiz-adv-x="583" 
d="M304 -14q-103 0 -174 46t-101 127l118 69q41 -107 161 -107q56 0 84 20t28 54q0 37 -33 57q-33 21 -118 45q-92 28 -145 65q-66 49 -66 144q0 96 67 151q67 57 163 57q84 0 149 -41t101 -116l-116 -67q-42 90 -134 90q-42 0 -67 -19.5t-25 -50.5q0 -33 27 -54
q30 -21 106 -44l48 -16q13 -4 45 -17q30 -11 44 -21q49 -30 66 -62q26 -42 26 -99q0 -97 -71 -154t-183 -57z" />
    <glyph glyph-name="uni0406" unicode="&#x406;" horiz-adv-x="268" 
d="M65 0v700h138v-700h-138z" />
    <glyph glyph-name="uni0407" unicode="&#x407;" horiz-adv-x="268" 
d="M86 768q-19 -19 -47 -19t-48 19q-20 20 -20 48t20 48t48 20t47 -20q20 -20 20 -48t-20 -48zM276 768q-19 -19 -47 -19t-48 19q-20 20 -20 48t20 48t48 20t47 -20q20 -20 20 -48t-20 -48zM65 0v700h138v-700h-138z" />
    <glyph glyph-name="uni0408" unicode="&#x408;" horiz-adv-x="569" 
d="M264 -14q-165 0 -231 133l119 68q33 -66 112 -66q54 0 81.5 25.5t27.5 71.5v482h137v-482q0 -110 -69 -171q-68 -61 -177 -61z" />
    <glyph glyph-name="uni0409" unicode="&#x409;" horiz-adv-x="961" 
d="M596 438h104q100 0 168 -62t68 -157q0 -96 -68 -158q-67 -61 -168 -61h-241v568h-187v-278q0 -182 -83 -246q-72 -56 -178 -46v128q65 -7 94.5 28.5t29.5 131.5v414h461v-262zM596 129h104q44 0 71.5 24.5t27.5 65.5t-27.5 65.5t-71.5 24.5h-104v-180z" />
    <glyph glyph-name="uni040A" unicode="&#x40a;" horiz-adv-x="958" 
d="M593 438h103q101 0 169 -62t68 -157q0 -96 -68 -158q-67 -61 -169 -61h-241v309h-252v-309h-138v700h138v-262h252v262h138v-262zM593 129h103q44 0 71.5 24.5t27.5 65.5t-27.5 65.5t-71.5 24.5h-103v-180z" />
    <glyph glyph-name="uni040B" unicode="&#x40b;" horiz-adv-x="708" 
d="M465 466q87 0 137.5 -51t50.5 -144v-271h-137v257q0 85 -81 85q-46 0 -109 -20v-322h-137v568h-176v132h512v-132h-199v-124q70 22 139 22z" />
    <glyph glyph-name="uni040C" unicode="&#x40c;" horiz-adv-x="615" 
d="M309 899h155l-111 -137h-124zM343 360l269 -360h-159l-250 328v-328h-138v700h138v-309l240 309h159z" />
    <glyph glyph-name="uni040E" unicode="&#x40e;" horiz-adv-x="600" 
d="M157 875h290v-112h-290v112zM314 362l138 338h138l-210 -507q-84 -204 -276 -193v129q55 -5 89.5 15t58.5 67l-229 489h138z" />
    <glyph glyph-name="uni040F" unicode="&#x40f;" horiz-adv-x="653" 
d="M450 132v568h138v-700h-193v-134h-137v134h-193v700h138v-568h247z" />
    <glyph glyph-name="uni0410" unicode="&#x410;" horiz-adv-x="668" 
d="M665 0h-150l-42 126h-279l-42 -126h-149l245 700h171zM334 541l-96 -286h192z" />
    <glyph glyph-name="uni0411" unicode="&#x411;" horiz-adv-x="585" 
d="M203 435h130q103 0 167 -61q65 -60 65 -156t-65 -158q-64 -60 -167 -60h-268v700h440v-132h-302v-133zM203 129h130q42 0 68.5 24t26.5 65t-26.5 64.5t-68.5 23.5h-130v-177z" />
    <glyph glyph-name="uni0412" unicode="&#x412;" horiz-adv-x="605" 
d="M488 363q92 -53 92 -160q0 -89 -63 -146t-155 -57h-297v700h276q89 0 151 -56t62 -141q0 -87 -66 -140zM341 571h-138v-154h138q32 0 53.5 22t21.5 55t-21 55t-54 22zM203 129h159q35 0 58 23.5t23 59.5q0 35 -23 58.5t-58 23.5h-159v-165z" />
    <glyph glyph-name="uni0413" unicode="&#x413;" horiz-adv-x="475" 
d="M65 700h398v-132h-260v-568h-138v700z" />
    <glyph glyph-name="uni0414" unicode="&#x414;" horiz-adv-x="705" 
d="M603 700v-568h75v-266h-138v134h-387v-134h-138v266h68q58 80 58 237v331h462zM231 132h234v439h-186v-204q0 -153 -48 -235z" />
    <glyph glyph-name="uni0415" unicode="&#x415;" horiz-adv-x="530" 
d="M203 289v-157h295v-132h-433v700h428v-132h-290v-149h265v-130h-265z" />
    <glyph glyph-name="uni0416" unicode="&#x416;" horiz-adv-x="904" 
d="M648 357l244 -357h-154l-217 319v-319h-138v319l-217 -319h-153l243 357l-233 343h153l207 -312v312h138v-312l207 312h154z" />
    <glyph glyph-name="uni0417" unicode="&#x417;" horiz-adv-x="561" 
d="M436 362q100 -52 100 -166q0 -93 -71 -152q-70 -58 -183 -58q-195 0 -261 165l119 67q31 -102 142 -102q56 0 86.5 23.5t30.5 65.5t-30 65.5t-84 23.5h-87v123h66q52 0 81 22.5t29 61.5q0 40 -25.5 62t-73.5 22q-90 0 -126 -88l-117 68q71 149 243 149q103 0 170 -56
q66 -55 66 -148q0 -94 -75 -148z" />
    <glyph glyph-name="uni0418" unicode="&#x418;" horiz-adv-x="673" 
d="M608 0h-138v427l-300 -427h-105v700h138v-428l300 428h105v-700z" />
    <glyph glyph-name="uni0419" unicode="&#x419;" horiz-adv-x="673" 
d="M481 764h-290v112h290v-112zM608 0h-138v427l-300 -427h-105v700h138v-428l300 428h105v-700z" />
    <glyph glyph-name="uni041A" unicode="&#x41a;" horiz-adv-x="615" 
d="M343 360l269 -360h-159l-250 328v-328h-138v700h138v-309l240 309h159z" />
    <glyph glyph-name="uni041B" unicode="&#x41b;" horiz-adv-x="676" 
d="M11 0v128q64 -9 94 26.5t30 131.5v414h476v-700h-137v568h-202v-278q0 -181 -83 -245q-71 -56 -178 -45z" />
    <glyph glyph-name="uni041C" unicode="&#x41c;" horiz-adv-x="815" 
d="M608 700h142v-700h-137v454l-197 -325h-16l-197 324v-453h-138v700h142l201 -331z" />
    <glyph glyph-name="uni041D" unicode="&#x41d;" horiz-adv-x="665" 
d="M463 422v278h137v-700h-137v290h-260v-290h-138v700h138v-278h260z" />
    <glyph glyph-name="uni041E" unicode="&#x41e;" horiz-adv-x="792" 
d="M654 91q-106 -105 -258 -105t-258 105q-105 107 -105 259q0 153 105 258q106 106 258 106t258 -106q106 -105 106 -258t-106 -259zM235 185q64 -64 161 -64t161 64q65 65 65 165t-65 165t-161 65t-161 -65t-65 -165t65 -165z" />
    <glyph glyph-name="uni041F" unicode="&#x41f;" horiz-adv-x="653" 
d="M65 700h523v-700h-138v568h-247v-568h-138v700z" />
    <glyph glyph-name="uni0420" unicode="&#x420;" horiz-adv-x="590" 
d="M65 700h261q100 0 170 -68q69 -68 69 -167t-69 -167q-70 -68 -170 -68h-123v-230h-138v700zM203 359h123q44 0 73 30.5t29 75.5q0 46 -29 76t-73 30h-123v-212z" />
    <glyph glyph-name="uni0421" unicode="&#x421;" horiz-adv-x="726" 
d="M397 -14q-157 0 -261 105q-103 104 -103 259q0 156 103 259q104 105 261 105q95 0 175.5 -44.5t125.5 -120.5l-119 -69q-26 47 -74 73.5t-108 26.5q-102 0 -165 -64q-62 -65 -62 -166q0 -100 62 -165q63 -64 165 -64q60 0 108.5 26.5t73.5 72.5l119 -69
q-45 -76 -125.5 -120.5t-175.5 -44.5z" />
    <glyph glyph-name="uni0422" unicode="&#x422;" horiz-adv-x="540" 
d="M13 700h515v-132h-189v-568h-138v568h-188v132z" />
    <glyph glyph-name="uni0423" unicode="&#x423;" horiz-adv-x="600" 
d="M314 362l138 338h138l-210 -507q-84 -204 -276 -193v129q55 -5 89.5 15t58.5 67l-229 489h138z" />
    <glyph glyph-name="uni0424" unicode="&#x424;" horiz-adv-x="819" 
d="M477 66v-81h-135v81q-147 15 -233 89q-86 75 -86 195t86 194q85 75 233 90v81h135v-81q145 -13 233 -89q87 -75 87 -195t-87 -195q-88 -76 -233 -89zM477 509v-317q182 21 182 158q0 138 -182 159zM160 350q0 -137 182 -157v315q-182 -20 -182 -158z" />
    <glyph glyph-name="uni0425" unicode="&#x425;" horiz-adv-x="610" 
d="M383 360l215 -360h-157l-136 228l-136 -228h-156l214 359l-203 341h156l125 -210l125 210h156z" />
    <glyph glyph-name="uni0426" unicode="&#x426;" horiz-adv-x="690" 
d="M588 700v-568h75v-266h-138v134h-460v700h138v-568h247v568h138z" />
    <glyph glyph-name="uni0427" unicode="&#x427;" horiz-adv-x="633" 
d="M430 390v310h138v-700h-138v256q-64 -27 -137 -27q-105 0 -175 59q-68 60 -68 162v250h138v-232q0 -50 29.5 -78.5t78.5 -28.5q71 0 134 29z" />
    <glyph glyph-name="uni0428" unicode="&#x428;" horiz-adv-x="943" 
d="M740 132v568h138v-700h-813v700h138v-568h200v568h137v-568h200z" />
    <glyph glyph-name="uni0429" unicode="&#x429;" horiz-adv-x="980" 
d="M878 700v-568h75v-266h-138v134h-750v700h138v-568h200v568h137v-568h200v568h138z" />
    <glyph glyph-name="uni042A" unicode="&#x42a;" horiz-adv-x="693" 
d="M429 0h-261v568h-168v132h305v-230h124q100 0 170 -68q69 -68 69 -167t-69 -167q-70 -68 -170 -68zM305 341v-212h124q44 0 72.5 30t28.5 76t-28.5 76t-72.5 30h-124z" />
    <glyph glyph-name="uni042B" unicode="&#x42b;" horiz-adv-x="831" 
d="M326 0h-261v700h138v-230h123q100 0 170 -68q69 -68 69 -167t-69 -167q-70 -68 -170 -68zM766 0h-137v700h137v-700zM203 341v-212h123q44 0 73 30t29 76t-29 76t-73 30h-123z" />
    <glyph glyph-name="uni042C" unicode="&#x42c;" horiz-adv-x="590" 
d="M203 470h123q100 0 170 -68q69 -68 69 -167t-69 -167q-70 -68 -170 -68h-261v700h138v-230zM203 129h123q44 0 73 30t29 76q0 45 -29 75.5t-73 30.5h-123v-212z" />
    <glyph glyph-name="uni042D" unicode="&#x42d;" horiz-adv-x="724" 
d="M328 714q158 0 261 -105q103 -103 103 -259q0 -155 -103 -259q-103 -105 -261 -105q-95 0 -175 44.5t-125 120.5l119 69q25 -46 73.5 -72.5t107.5 -26.5q84 0 142.5 44.5t76.5 120.5h-312v129h312q-18 76 -76.5 120.5t-142.5 44.5q-59 0 -107 -26.5t-74 -73.5l-119 69
q45 76 125.5 120.5t174.5 44.5z" />
    <glyph glyph-name="uni042E" unicode="&#x42e;" horiz-adv-x="1055" 
d="M659 714q152 0 258 -106q106 -105 106 -258q0 -152 -106 -258t-258 -106q-135 0 -236 87q-99 87 -119 221h-101v-294h-138v700h138v-274h104q25 126 123 207t229 81zM659 580q-98 0 -162 -64t-64 -166q0 -100 65 -165q64 -64 161 -64t161 64q65 65 65 165t-65 165
t-161 65z" />
    <glyph glyph-name="uni042F" unicode="&#x42f;" horiz-adv-x="624" 
d="M279 700h280v-700h-138v243h-79l-161 -243h-155l171 258q-67 24 -109 82t-42 128q0 96 68 164t165 68zM279 364h142v207h-142q-39 0 -67 -30t-28 -73t28 -73.5t67 -30.5z" />
    <glyph glyph-name="uni0430" unicode="&#x430;" 
d="M439 441v59h129v-500h-129v59q-58 -73 -163 -73q-100 0 -172 76q-71 77 -71 188q0 110 71 187q72 77 172 77q105 0 163 -73zM201 148q39 -39 99 -39t99 39q40 40 40 102t-40 101q-39 40 -99 40t-99 -40q-39 -39 -39 -101t39 -102z" />
    <glyph glyph-name="uni0431" unicode="&#x431;" horiz-adv-x="567" 
d="M296 -14q-118 0 -191 76q-72 76 -72 193q0 127 38 197q37 70 153 127q3 2 11.5 6t18 8t18.5 8l42 21q15 7 32 18q25 15 37 31t26 48l106 -61q-13 -61 -59 -95q-47 -34 -136 -68q-62 -24 -92 -49t-43 -61q55 57 150 57q84 0 148 -61q65 -60 65 -160q0 -103 -70 -169
q-69 -66 -182 -66zM294 339q-50 0 -88 -31q-38 -32 -38 -83q0 -53 36 -87q37 -34 91 -34q55 0 89 33q35 33 35 84t-35 84.5t-90 33.5z" />
    <glyph glyph-name="uni0432" unicode="&#x432;" horiz-adv-x="511" 
d="M419 256q70 -34 70 -114q0 -64 -44 -103t-123 -39h-263v500h243q78 0 122 -38.5t44 -102.5q0 -66 -49 -103zM290 394h-110v-90h110q55 0 55 45t-55 45zM180 109h127q56 0 56 48q0 21 -15 33t-41 12h-127v-93z" />
    <glyph glyph-name="uni0433" unicode="&#x433;" horiz-adv-x="411" 
d="M59 500h342v-124h-213v-376h-129v500z" />
    <glyph glyph-name="uni0434" unicode="&#x434;" horiz-adv-x="598" 
d="M509 500v-379h66v-255h-126v134h-310v-134h-126v255h61q43 64 43 177v202h392zM212 121h171v263h-140v-86q0 -108 -31 -177z" />
    <glyph glyph-name="uni0435" unicode="&#x435;" horiz-adv-x="581" 
d="M545 197h-377q25 -94 141 -94q74 0 112 50l104 -60q-74 -107 -218 -107q-124 0 -199 75t-75 189q0 112 74 188q73 76 190 76q111 0 181 -76q72 -76 72 -188q0 -21 -5 -53zM166 297h255q-11 49 -44.5 75t-79.5 26q-52 0 -86 -26.5t-45 -74.5z" />
    <glyph glyph-name="uni0436" unicode="&#x436;" horiz-adv-x="746" 
d="M553 253l181 -253h-145l-153 224v-224h-126v224l-153 -224h-144l180 253l-170 247h144l143 -217v217h126v-217l143 217h145z" />
    <glyph glyph-name="uni0437" unicode="&#x437;" horiz-adv-x="450" 
d="M352 255q76 -37 76 -119q0 -66 -54 -108t-148 -42q-152 0 -207 120l105 62q24 -68 103 -68q36 0 55.5 14t19.5 38q0 46 -59 46h-71v110h54q58 0 58 46q0 22 -17 35t-45 13q-64 0 -93 -63l-104 60q57 115 195 115q86 0 136 -44q51 -44 51 -105q0 -73 -55 -110z" />
    <glyph glyph-name="uni0438" unicode="&#x438;" horiz-adv-x="575" 
d="M185 216l235 284h96v-500h-126v284l-235 -284h-96v500h126v-284z" />
    <glyph glyph-name="uni0439" unicode="&#x439;" horiz-adv-x="575" 
d="M433 564h-290v112h290v-112zM185 216l235 284h96v-500h-126v284l-235 -284h-96v500h126v-284z" />
    <glyph glyph-name="uni043A" unicode="&#x43a;" horiz-adv-x="525" 
d="M313 253l207 -253h-150l-182 227v-227h-129v500h129v-220l172 220h154z" />
    <glyph glyph-name="uni043B" unicode="&#x43b;" horiz-adv-x="546" 
d="M92 500h396v-500h-129v376h-138v-167q0 -231 -211 -209v121q40 -10 61 14t21 81v284z" />
    <glyph glyph-name="uni043C" unicode="&#x43c;" horiz-adv-x="638" 
d="M452 500h127v-500h-125v292l-127 -200h-16l-128 202v-294h-124v500h127l133 -210z" />
    <glyph glyph-name="uni043D" unicode="&#x43d;" horiz-adv-x="575" 
d="M387 311v189h129v-500h-129v190h-199v-190h-129v500h129v-189h199z" />
    <glyph glyph-name="uni043E" unicode="&#x43e;" horiz-adv-x="594" 
d="M485 62q-76 -76 -188 -76t-188 76t-76 188q0 111 76 187q77 77 188 77t188 -77t77 -187q0 -111 -77 -188zM200 151q39 -39 97 -39t97 39t39 99t-39 99t-97 39t-97 -39q-38 -40 -38 -99t38 -99z" />
    <glyph glyph-name="uni043F" unicode="&#x43f;" horiz-adv-x="575" 
d="M59 500h457v-500h-129v379h-199v-379h-129v500z" />
    <glyph glyph-name="uni0440" unicode="&#x440;" 
d="M350 514q101 0 172 -77q72 -77 72 -187q0 -112 -72 -188q-70 -76 -172 -76q-105 0 -162 73v-259h-129v700h129v-59q57 73 162 73zM227 148q39 -39 99 -39t99 39q40 40 40 102t-40 101q-39 40 -99 40t-99 -40q-39 -39 -39 -101t39 -102z" />
    <glyph glyph-name="uni0441" unicode="&#x441;" horiz-adv-x="536" 
d="M297 -14q-113 0 -189 76q-75 76 -75 188t75 188q76 76 189 76q73 0 133 -35t91 -94l-111 -65q-15 31 -45.5 49t-68.5 18q-58 0 -96 -38.5t-38 -98.5q0 -58 38 -98q38 -38 96 -38q39 0 69.5 17.5t45.5 48.5l112 -64q-33 -60 -93.5 -95t-132.5 -35z" />
    <glyph glyph-name="uni0442" unicode="&#x442;" horiz-adv-x="463" 
d="M10 500h443v-124h-156v-376h-129v376h-158v124z" />
    <glyph glyph-name="uni0443" unicode="&#x443;" horiz-adv-x="525" 
d="M274 164l111 336h138l-182 -500q-76 -211 -264 -200v120q51 -1 80.5 19t47.5 67l-202 494h137z" />
    <glyph glyph-name="uni0444" unicode="&#x444;" horiz-adv-x="685" 
d="M406 -8v-192h-126v192q-115 16 -181 87t-66 171t66 171t181 87v192h126v-192q115 -16 181 -87t66 -171t-66 -171t-181 -87zM160 250q0 -51 31.5 -86.5t88.5 -48.5v270q-57 -13 -88.5 -48.5t-31.5 -86.5zM406 385v-269q57 13 88 48t31 86t-31 86.5t-88 48.5z" />
    <glyph glyph-name="uni0445" unicode="&#x445;" horiz-adv-x="525" 
d="M337 256l183 -256h-149l-108 152l-109 -152h-149l183 255l-175 245h149l101 -141l101 141h148z" />
    <glyph glyph-name="uni0446" unicode="&#x446;" horiz-adv-x="605" 
d="M499 500v-379h84v-255h-126v134h-398v500h129v-379h182v379h129z" />
    <glyph glyph-name="uni0447" unicode="&#x447;" horiz-adv-x="541" 
d="M354 280v220h129v-500h-129v159q-56 -18 -119 -18q-92 0 -146 47t-54 133v179h129v-164q0 -75 93 -75q55 0 97 19z" />
    <glyph glyph-name="uni0448" unicode="&#x448;" horiz-adv-x="833" 
d="M645 121v379h129v-500h-715v500h129v-379h164v379h129v-379h164z" />
    <glyph glyph-name="uni0449" unicode="&#x449;" horiz-adv-x="848" 
d="M759 500v-379h66v-255h-126v134h-640v500h129v-379h156v379h129v-379h157v379h129z" />
    <glyph glyph-name="uni044A" unicode="&#x44a;" horiz-adv-x="574" 
d="M265 340h98q85 0 136.5 -46.5t51.5 -123.5t-51.5 -123.5t-136.5 -46.5h-227v376h-136v124h265v-160zM265 114h98q27 0 44.5 15.5t17.5 40.5t-17.5 41t-44.5 16h-98v-113z" />
    <glyph glyph-name="uni044B" unicode="&#x44b;" horiz-adv-x="717" 
d="M188 340h97q85 0 137 -46.5t52 -123.5t-52 -123.5t-137 -46.5h-226v500h129v-160zM529 0v500h129v-500h-129zM188 114h98q27 0 44.5 15.5t17.5 40.5t-17.5 41t-44.5 16h-98v-113z" />
    <glyph glyph-name="uni044C" unicode="&#x44c;" horiz-adv-x="496" 
d="M188 340h97q85 0 137 -46.5t52 -123.5t-52 -123.5t-137 -46.5h-226v500h129v-160zM188 114h98q27 0 44.5 15.5t17.5 40.5t-17.5 41t-44.5 16h-98v-113z" />
    <glyph glyph-name="uni044D" unicode="&#x44d;" horiz-adv-x="537" 
d="M243 514q113 0 187 -74t74 -190q0 -117 -74 -191q-73 -73 -188 -73q-77 0 -138 35t-91 95l109 63q13 -31 45.5 -50t76.5 -19q41 0 74 22.5t48 59.5h-170v116h170q-15 37 -48 59.5t-74 22.5q-88 0 -121 -68l-109 63q33 60 93.5 94.5t135.5 34.5z" />
    <glyph glyph-name="uni044E" unicode="&#x44e;" horiz-adv-x="811" 
d="M514 514q111 0 188 -77t77 -187q0 -111 -77 -188q-76 -76 -188 -76q-94 0 -164 57t-90 147h-72v-190h-129v500h129v-189h73q20 89 90 146q71 57 163 57zM417 151q39 -39 97 -39t97 39t39 99t-39 99t-97 39t-97 -39q-38 -40 -38 -99t38 -99z" />
    <glyph glyph-name="uni044F" unicode="&#x44f;" horiz-adv-x="519" 
d="M226 500h234v-500h-126v156h-45l-115 -156h-149l125 171q-48 20 -76.5 63t-28.5 94q0 69 50 121q49 51 131 51zM334 385h-98q-28 0 -46.5 -17t-18.5 -44t18.5 -43t46.5 -16h98v120z" />
    <glyph glyph-name="uni0451" unicode="&#x451;" horiz-adv-x="581" 
d="M243 572q-19 -19 -47 -19t-48 19q-20 20 -20 48t20 48t48 20t47 -20q20 -20 20 -48t-20 -48zM433 572q-19 -19 -47 -19t-48 19q-20 20 -20 48t20 48t48 20t47 -20q20 -20 20 -48t-20 -48zM545 197h-377q25 -94 141 -94q74 0 112 50l104 -60q-74 -107 -218 -107
q-124 0 -199 75t-75 189q0 112 74 188q73 76 190 76q111 0 181 -76q72 -76 72 -188q0 -21 -5 -53zM166 297h255q-11 49 -44.5 75t-79.5 26q-52 0 -86 -26.5t-45 -74.5z" />
    <glyph glyph-name="uni0452" unicode="&#x452;" horiz-adv-x="583" 
d="M343 514q84 0 136 -55q54 -56 54 -152v-317q0 -110 -54 -160.5t-164 -43.5v124q46 -3 67.5 16t21.5 64v301q0 49 -27 76t-73 27q-51 0 -80.5 -31.5t-29.5 -92.5v-270h-129v554h-62v84h62v62h129v-62h141v-84h-141v-111q47 71 149 71z" />
    <glyph glyph-name="uni0453" unicode="&#x453;" horiz-adv-x="411" 
d="M214 700h155l-111 -137h-124zM59 500h342v-124h-213v-376h-129v500z" />
    <glyph glyph-name="uni0454" unicode="&#x454;" horiz-adv-x="537" 
d="M415 179l109 -63q-30 -60 -91 -95t-138 -35q-116 0 -189 73t-73 191q0 117 73 190q74 74 188 74q75 0 135.5 -34.5t93.5 -94.5l-109 -63q-33 68 -121 68q-41 0 -74 -22.5t-48 -59.5h170v-116h-170q15 -37 48 -59.5t74 -22.5q44 0 76.5 19t45.5 50z" />
    <glyph glyph-name="uni0455" unicode="&#x455;" horiz-adv-x="465" 
d="M178 358q0 -32 91 -55q32 -7 58 -16.5t52.5 -27t41.5 -46.5t15 -67q0 -77 -58 -119q-58 -41 -143 -41q-154 0 -210 119l112 63q23 -65 98 -65q69 0 69 43q0 32 -91 55q-34 9 -58 18t-52 26.5t-42.5 45t-14.5 64.5q0 74 54 116q55 43 136 43q61 0 111 -27.5t79 -78.5
l-110 -60q-24 51 -80 51q-25 0 -41.5 -11.5t-16.5 -29.5z" />
    <glyph glyph-name="uni0456" unicode="&#x456;" horiz-adv-x="247" 
d="M123 560q-32 0 -55.5 23.5t-23.5 55.5t23.5 56t55.5 24q33 0 56.5 -24t23.5 -56t-23.5 -55.5t-56.5 -23.5zM188 0h-129v500h129v-500z" />
    <glyph glyph-name="uni0457" unicode="&#x457;" horiz-adv-x="247" 
d="M75 568q-19 -19 -47 -19t-48 19q-20 20 -20 48t20 48t48 20t47 -20q20 -20 20 -48t-20 -48zM265 568q-19 -19 -47 -19t-48 19q-20 20 -20 48t20 48t48 20t47 -20q20 -20 20 -48t-20 -48zM188 0h-129v500h129v-500z" />
    <glyph glyph-name="uni0458" unicode="&#x458;" horiz-adv-x="264" 
d="M141 560q-33 0 -56.5 23.5t-23.5 55.5t23.5 56t56.5 24q32 0 55.5 -24t23.5 -56t-23.5 -55.5t-55.5 -23.5zM76 -10v510h129v-510q0 -110 -53.5 -160.5t-164.5 -43.5v124q46 -3 67.5 16t21.5 64z" />
    <glyph glyph-name="uni0459" unicode="&#x459;" horiz-adv-x="764" 
d="M478 328h92q79 0 125 -44t46 -120q0 -75 -46.5 -119.5t-124.5 -44.5h-221v376h-128v-167q0 -115 -52.5 -168.5t-158.5 -46.5v121q41 -5 61.5 20t20.5 81v284h386v-172zM478 114h93q23 0 37.5 13.5t14.5 36.5t-14.5 36.5t-37.5 13.5h-93v-100z" />
    <glyph glyph-name="uni045A" unicode="&#x45a;" horiz-adv-x="790" 
d="M496 328h93q79 0 128.5 -45t49.5 -119t-49.5 -119t-128.5 -45h-222v207h-187v-207h-129v500h129v-172h187v172h129v-172zM496 114h93q23 0 37.5 13.5t14.5 36.5t-14.5 36.5t-37.5 13.5h-93v-100z" />
    <glyph glyph-name="uni045B" unicode="&#x45b;" horiz-adv-x="583" 
d="M343 514q84 0 136 -55q54 -56 54 -152v-307h-129v291q0 49 -27 76t-73 27q-51 0 -80.5 -31.5t-29.5 -92.5v-270h-129v554h-62v84h62v62h129v-62h141v-84h-141v-111q47 71 149 71z" />
    <glyph glyph-name="uni045C" unicode="&#x45c;" horiz-adv-x="525" 
d="M269 700h155l-111 -137h-124zM313 253l207 -253h-150l-182 227v-227h-129v500h129v-220l172 220h154z" />
    <glyph glyph-name="uni045E" unicode="&#x45e;" horiz-adv-x="525" 
d="M118 676h290v-112h-290v112zM274 164l111 336h138l-182 -500q-76 -211 -264 -200v120q51 -1 80.5 19t47.5 67l-202 494h137z" />
    <glyph glyph-name="uni045F" unicode="&#x45f;" horiz-adv-x="575" 
d="M387 121v379h129v-500h-165v-134h-126v134h-166v500h129v-379h199z" />
    <glyph glyph-name="uni0490" unicode="&#x490;" horiz-adv-x="475" 
d="M325 700v120h138v-252h-260v-568h-138v700h260z" />
    <glyph glyph-name="uni0491" unicode="&#x491;" horiz-adv-x="411" 
d="M275 500v101h126v-225h-213v-376h-129v500h216z" />
    <glyph glyph-name="Wgrave" unicode="&#x1e80;" horiz-adv-x="999" 
d="M611 763h-124l-111 137h155zM211 0h157l131 462l132 -462h157l196 700h-145l-134 -519l-147 519h-118l-146 -519l-134 519h-145z" />
    <glyph glyph-name="wgrave" unicode="&#x1e81;" horiz-adv-x="770" 
d="M387 700l80 -137h-124l-111 137h155zM537 192l85 308h137l-159 -500h-123l-92 303l-92 -303h-123l-159 500h137l85 -307l91 307h122z" />
    <glyph glyph-name="Wacute" unicode="&#x1e82;" horiz-adv-x="999" 
d="M449 763l80 137h155l-111 -137h-124zM211 0h157l131 462l132 -462h157l196 700h-145l-134 -519l-147 519h-118l-146 -519l-134 519h-145z" />
    <glyph glyph-name="wacute" unicode="&#x1e83;" horiz-adv-x="770" 
d="M385 700h155l-111 -137h-124zM537 192l85 308h137l-159 -500h-123l-92 303l-92 -303h-123l-159 500h137l85 -307l91 307h122z" />
    <glyph glyph-name="Wdieresis" unicode="&#x1e84;" horiz-adv-x="999" 
d="M481 768q-19 -19 -47 -19t-48 19q-20 20 -20 48t20 48t48 20t47 -20q20 -20 20 -48t-20 -48zM671 768q-19 -19 -47 -19t-48 19q-20 20 -20 48t20 48t48 20t47 -20q20 -20 20 -48t-20 -48zM368 0h-157l-196 700h145l134 -519l146 519h118l147 -519l134 519h145l-196 -700
h-157l-132 462z" />
    <glyph glyph-name="wdieresis" unicode="&#x1e85;" horiz-adv-x="770" 
d="M337 568q-19 -19 -47 -19t-48 19q-20 20 -20 48t20 48t48 20t47 -20q20 -20 20 -48t-20 -48zM527 568q-19 -19 -47 -19t-48 19q-20 20 -20 48t20 48t48 20t47 -20q20 -20 20 -48t-20 -48zM537 192l85 308h137l-159 -500h-123l-92 303l-92 -303h-123l-159 500h137l85 -307
l91 307h122z" />
    <glyph glyph-name="Ygrave" unicode="&#x1ef2;" horiz-adv-x="621" 
d="M312 900l80 -137h-124l-111 137h155zM463 700h156l-240 -427v-273h-137v273l-239 427h156l152 -292z" />
    <glyph glyph-name="ygrave" unicode="&#x1ef3;" horiz-adv-x="525" 
d="M265 700l80 -137h-124l-111 137h155zM274 164l111 336h138l-182 -500q-39 -108 -103.5 -156.5t-160.5 -43.5v120q51 -1 82 22t49 74l-205 484h141z" />
    <glyph glyph-name="endash" unicode="&#x2013;" horiz-adv-x="645" 
d="M580 240h-515v124h515v-124z" />
    <glyph glyph-name="emdash" unicode="&#x2014;" horiz-adv-x="745" 
d="M680 240h-615v124h615v-124z" />
    <glyph glyph-name="quoteleft" unicode="&#x2018;" horiz-adv-x="278" 
d="M189 422h-140l75 278h105z" />
    <glyph glyph-name="quoteright" unicode="&#x2019;" horiz-adv-x="278" 
d="M89 701h140l-75 -278h-105z" />
    <glyph glyph-name="quotesinglbase" unicode="&#x201a;" horiz-adv-x="278" 
d="M89 138h140l-75 -278h-105z" />
    <glyph glyph-name="quotedblleft" unicode="&#x201c;" horiz-adv-x="463" 
d="M189 422h-140l75 278h105zM374 422h-140l75 278h105z" />
    <glyph glyph-name="quotedblright" unicode="&#x201d;" horiz-adv-x="463" 
d="M89 701h140l-75 -278h-105zM274 701h140l-75 -278h-105z" />
    <glyph glyph-name="quotedblbase" unicode="&#x201e;" horiz-adv-x="463" 
d="M89 138h140l-75 -278h-105zM274 138h140l-75 -278h-105z" />
    <glyph glyph-name="dagger" unicode="&#x2020;" horiz-adv-x="480" 
d="M305 565h130v-124h-130v-441h-129v441h-131v124h131v135h129v-135z" />
    <glyph glyph-name="daggerdbl" unicode="&#x2021;" horiz-adv-x="480" 
d="M435 565v-124h-130v-182h130v-124h-130v-135h-129v135h-131v124h131v182h-131v124h131v135h129v-135h130z" />
    <glyph glyph-name="bullet" unicode="&#x2022;" horiz-adv-x="360" 
d="M182 213q-59 0 -99 40t-40 99q0 56 40 96t99 40q56 0 96 -40t40 -96q0 -59 -40 -99t-96 -40z" />
    <glyph glyph-name="ellipsis" unicode="&#x2026;" horiz-adv-x="723" 
d="M194 12q-25 -25 -60 -25t-60 25t-25 60t25 60t60 25t60 -25t25 -60t-25 -60zM422 12q-25 -25 -60 -25t-60 25t-25 60t25 60t60 25t60 -25t25 -60t-25 -60zM649 12q-25 -25 -60 -25t-60 25t-25 60t25 60t60 25t60 -25t25 -60t-25 -60z" />
    <glyph glyph-name="perthousand" unicode="&#x2030;" horiz-adv-x="1139" 
d="M334 431q-49 -47 -120 -47q-72 0 -121 48q-48 48 -48 117t48 117q50 48 121 48q72 0 120 -48q48 -46 48 -117q0 -70 -48 -118zM176 71l-60 35l456 507l61 -34zM168 503q18 -18 45 -18t45 18q18 19 18 46t-18 45t-45 18t-45 -18q-17 -18 -17 -45t17 -46zM672 36
q-48 -48 -120 -48t-120 48t-48 117t48 117t120 48t120 -48t48 -117t-48 -117zM926 -12q-72 0 -121 48q-48 48 -48 117t48 117q49 48 121 48q71 0 119 -48q49 -48 49 -117t-49 -117q-48 -48 -119 -48zM614 153q0 27 -17.5 45.5t-44.5 18.5t-44.5 -18.5t-17.5 -45.5
t17.5 -45.5t44.5 -18.5t44.5 18.5t17.5 45.5zM925 89q27 0 45 18.5t18 45.5t-18 45.5t-45 18.5t-44.5 -18.5t-17.5 -45.5t17.5 -45.5t44.5 -18.5z" />
    <glyph glyph-name="guilsinglleft" unicode="&#x2039;" horiz-adv-x="355" 
d="M173 497h119l-110 -188l110 -187h-119l-110 187z" />
    <glyph glyph-name="guilsinglright" unicode="&#x203a;" horiz-adv-x="355" 
d="M63 497h119l110 -188l-110 -187h-119l110 187z" />
    <glyph glyph-name="fraction" unicode="&#x2044;" horiz-adv-x="190" 
d="M340 700l-400 -700h-90l400 700h90z" />
    <glyph glyph-name="Euro" unicode="&#x20ac;" horiz-adv-x="611" 
d="M475 204l114 -65q-67 -153 -229 -153q-110 0 -182 72t-92 199h-70v78h63v15v24h-63v77h71q21 123 92.5 193t180.5 70q155 0 226 -146l-115 -66q-37 78 -111 78q-106 0 -134 -129h205v-77h-215v-24v-15h215v-78h-207q28 -136 136 -136q76 0 115 83z" />
    <glyph glyph-name="uni20BD" unicode="&#x20bd;" horiz-adv-x="601" 
d="M349 243h-124v-55h223v-88h-223v-100h-137v100h-75v88h75v55h-75v121h75v336h261q99 0 167 -68q69 -68 69 -164t-68 -161q-67 -64 -168 -64zM349 571h-124v-207h124q42 0 70.5 30t28.5 74t-28.5 73.5t-70.5 29.5z" />
    <glyph glyph-name="uni2116" unicode="&#x2116;" horiz-adv-x="1039" 
d="M839 383q-72 0 -120 48q-48 49 -48 117q0 69 48 117t120 48t120 -48t48 -117t-48 -117q-47 -48 -120 -48zM470 273v427h138v-700h-105l-300 428v-428h-138v700h105zM796 505q17 -17 43 -17t42 17q17 17 17 43t-17 43q-16 17 -42 17t-43 -17q-16 -17 -16 -43t16 -43z
M996 208h-312v121h312v-121z" />
    <glyph glyph-name="trademark" unicode="&#x2122;" horiz-adv-x="473" 
d="M33 700h171v-56h-55v-144h-61v144h-55v56zM333 623l50 77h58v-200h-58v109l-48 -73h-5l-48 73v-109h-58v200h58z" />
    <glyph glyph-name="estimated" unicode="&#x212e;" horiz-adv-x="790" 
d="M765 350q0 -15 -15 -15h-560q-15 0 -15 -15v-192q0 -12 7 -19q84 -89 233 -89q146 0 231 97q8 9 18 9h37q10 0 13 -6t-4 -13q-110 -117 -295 -117q-177 0 -283 103q-107 104 -107 257t103 256q104 104 267 104q162 0 266 -104t104 -256zM615 380v192q0 12 -7 19
q-84 89 -213 89t-213 -89q-7 -7 -7 -19v-192q0 -15 15 -15h410q15 0 15 15z" />
    <glyph glyph-name="oneeighth" unicode="&#x215b;" horiz-adv-x="806" 
d="M217 700v-400h-107v292l-82 -23l-25 88l120 43h94zM117 0l400 700h90l-400 -700h-90zM727 210q58 -34 58 -101q0 -57 -40.5 -90t-112.5 -33t-113 33t-41 90q0 66 59 101q-45 32 -45 84q0 54 39.5 87t100.5 33t100.5 -33t39.5 -87q0 -52 -45 -84zM632 323q-48 0 -48 -38
q0 -39 48 -39q21 0 34.5 10.5t13.5 28.5t-13.5 28t-34.5 10zM684 124q0 20 -14 32.5t-38 12.5q-37 4 -49.5 -27t10.5 -52q13 -12 39 -12q25 0 38.5 12.5t13.5 33.5z" />
    <glyph glyph-name="threeeighths" unicode="&#x215c;" horiz-adv-x="887" 
d="M321 421q0 -65 -41 -100t-114 -35q-115 0 -156 89l90 52q17 -47 66 -47q48 0 48 41q0 18 -14 29t-37 11h-19l-40 58l69 84h-145v97h275v-79l-72 -86q43 -12 66.5 -41.5t23.5 -72.5zM198 0l400 700h90l-400 -700h-90zM808 210q58 -34 58 -101q0 -57 -40.5 -90t-112.5 -33
t-113 33t-41 90q0 66 59 101q-45 32 -45 84q0 54 39.5 87t100.5 33t100.5 -33t39.5 -87q0 -52 -45 -84zM713 323q-48 0 -48 -38q0 -39 48 -39q21 0 34.5 10.5t13.5 28.5t-13.5 28t-34.5 10zM765 124q0 20 -14 32.5t-38 12.5q-37 4 -49.5 -27t10.5 -52q14 -12 39 -12
t38.5 12.5t13.5 33.5z" />
    <glyph glyph-name="fiveeighths" unicode="&#x215d;" horiz-adv-x="873" 
d="M315 417q0 -62 -40 -96.5t-106 -34.5q-115 0 -156 89l88 50q18 -47 65 -47q51 0 51 41q0 19 -13.5 31t-37.5 12h-128l16 238h242v-97h-152l-4 -54h33q67 0 104.5 -33.5t37.5 -98.5zM184 0l400 700h90l-400 -700h-90zM794 210q58 -34 58 -101q0 -57 -40.5 -90t-112.5 -33
t-113 33t-41 90q0 66 59 101q-45 32 -45 84q0 54 39.5 87t100.5 33t100.5 -33t39.5 -87q0 -52 -45 -84zM699 323q-48 0 -48 -38q0 -39 48 -39q21 0 34.5 10.5t13.5 28.5t-13.5 28t-34.5 10zM751 124q0 20 -14 32.5t-38 12.5q-37 4 -49.5 -27t10.5 -52q14 -12 39 -12
t38.5 12.5t13.5 33.5z" />
    <glyph glyph-name="seveneighths" unicode="&#x215e;" horiz-adv-x="834" 
d="M279 618l-126 -318h-111l121 303h-160v97h276v-82zM145 0l400 700h90l-400 -700h-90zM755 210q58 -34 58 -101q0 -57 -40.5 -90t-112.5 -33t-113 33t-41 90q0 66 59 101q-45 32 -45 84q0 54 39.5 87t100.5 33t100.5 -33t39.5 -87q0 -52 -45 -84zM660 323q-48 0 -48 -38
q0 -39 48 -39q21 0 34.5 10.5t13.5 28.5t-13.5 28t-34.5 10zM712 124q0 20 -14 32.5t-38 12.5q-37 4 -49.5 -27t10.5 -52q13 -12 39 -12q25 0 38.5 12.5t13.5 33.5z" />
    <glyph glyph-name="arrowleft" unicode="&#x2190;" horiz-adv-x="798" 
d="M278 412h475v-124h-475l238 -238h-171l-300 300l300 300h171z" />
    <glyph glyph-name="arrowup" unicode="&#x2191;" horiz-adv-x="690" 
d="M345 700l300 -300v-171l-235 235v-464h-129v465l-236 -236v171z" />
    <glyph glyph-name="arrowright" unicode="&#x2192;" horiz-adv-x="798" 
d="M282 650h171l300 -300l-300 -300h-171l238 238h-475v124h475z" />
    <glyph glyph-name="arrowdown" unicode="&#x2193;" horiz-adv-x="690" 
d="M410 700v-464l235 235v-171l-300 -300l-300 300v171l236 -236v465h129z" />
    <glyph glyph-name="arrowboth" unicode="&#x2194;" horiz-adv-x="1085" 
d="M600 623h168l272 -273l-272 -272h-168l208 210h-533l210 -210h-168l-272 272l272 273h168l-210 -211h535z" />
    <glyph glyph-name="arrowupdn" unicode="&#x2195;" horiz-adv-x="635" 
d="M590 575v-168l-208 209v-531l208 208v-168l-272 -273l-273 273v168l208 -207v529l-208 -208v168l273 273z" />
    <glyph glyph-name="uni2196" unicode="&#x2196;" horiz-adv-x="643" 
d="M253 493l345 -345l-87 -88l-345 344v-335l-121 120v424h424l121 -120h-337z" />
    <glyph glyph-name="uni2197" unicode="&#x2197;" horiz-adv-x="643" 
d="M54 493l120 120h424v-424l-120 -120v336l-345 -345l-88 88l345 345h-336z" />
    <glyph glyph-name="uni2198" unicode="&#x2198;" horiz-adv-x="643" 
d="M478 281v336l120 -120v-424h-424l-120 120h336l-345 345l88 88z" />
    <glyph glyph-name="uni2199" unicode="&#x2199;" horiz-adv-x="643" 
d="M511 626l87 -88l-345 -345h337l-121 -120h-424v424l121 120v-335z" />
    <glyph glyph-name="partialdiff" unicode="&#x2202;" horiz-adv-x="584" 
d="M240 714q122 0 210 -102q89 -101 89 -262q0 -175 -79 -269q-80 -95 -200 -95q-101 0 -159 61t-58 153q0 104 61 168q62 66 165 66q77 0 138 -40q-10 93 -57.5 145t-125.5 53q-56 1 -115 -32v118q55 36 131 36zM265 108q59 0 95.5 46.5t46.5 129.5q-51 36 -120 36
q-51 0 -83 -31t-32 -85q0 -44 25.5 -70t67.5 -26z" />
    <glyph glyph-name="emptyset" unicode="&#x2205;" horiz-adv-x="804" 
d="M752 720l-92 -116q104 -107 104 -254q0 -150 -106 -256t-256 -106q-104 0 -192 55l-50 -63h-107l92 115q-105 107 -105 255q0 150 106 256t256 106q104 0 192 -55l50 63h108zM130 350q0 -105 71 -185l337 423q-62 36 -136 36q-113 0 -193 -80q-79 -79 -79 -194zM402 76
q113 0 193 80q79 79 79 194q0 108 -70 185l-338 -423q63 -36 136 -36z" />
    <glyph glyph-name="product" unicode="&#x220f;" horiz-adv-x="640" 
d="M194 -200h-129v900h510v-900h-129v776h-252v-776z" />
    <glyph glyph-name="summation" unicode="&#x2211;" horiz-adv-x="563" 
d="M525 -200h-490v110l213 350l-198 329v111h460v-124h-308l191 -316l-205 -336h337v-124z" />
    <glyph glyph-name="minus" unicode="&#x2212;" horiz-adv-x="555" 
d="M503 290h-450v121h450v-121z" />
    <glyph glyph-name="radical" unicode="&#x221a;" horiz-adv-x="676" 
d="M394 0h-125l-122 199h-102v124h176l100 -173l218 650h132z" />
    <glyph glyph-name="infinity" unicode="&#x221e;" horiz-adv-x="808" 
d="M575 525q79 0 129 -49q52 -48 52 -126t-52 -127q-51 -48 -129 -48q-85 0 -171 87q-86 -87 -171 -87q-78 0 -131 48q-51 49 -51 127t51 126q52 49 131 49q85 0 171 -87q86 87 171 87zM239 291q42 0 89 59q-47 59 -89 59q-26 0 -42.5 -17t-16.5 -42t16.5 -42t42.5 -17z
M569 291q26 0 42.5 17t16.5 42t-16.5 42t-42.5 17q-42 0 -89 -59q47 -59 89 -59z" />
    <glyph glyph-name="integral" unicode="&#x222b;" horiz-adv-x="441" 
d="M0 -204v129q33 -18 66 -3t41 59l95 561q18 104 81 144.5t158 15.5v-128q-34 19 -68 3t-41 -59l-96 -562q-18 -104 -80.5 -144.5t-155.5 -15.5z" />
    <glyph glyph-name="approxequal" unicode="&#x2248;" horiz-adv-x="569" 
d="M289 379q-50 22 -80.5 27t-46 -2t-34.5 -27l-83 28q53 198 235 114q64 -32 95.5 -27t43.5 51l105 -51q-22 -94 -85.5 -124.5t-149.5 11.5zM150 157l-105 51q22 95 85.5 125t149.5 -12q48 -23 79 -27t46.5 2.5t35.5 26.5l83 -28q-53 -197 -235 -114q-64 32 -95.5 27
t-43.5 -51z" />
    <glyph glyph-name="notequal" unicode="&#x2260;" horiz-adv-x="525" 
d="M480 514v-121h-158l-39 -86h197v-121h-251l-59 -131h-80l59 131h-104v121h158l39 86h-197v121h251l59 131h80l-59 -131h104z" />
    <glyph glyph-name="lessequal" unicode="&#x2264;" horiz-adv-x="528" 
d="M45 486l438 167v-134l-289 -90l289 -89v-134l-438 166v114zM483 55h-438v121h438v-121z" />
    <glyph glyph-name="greaterequal" unicode="&#x2265;" horiz-adv-x="528" 
d="M45 519v134l438 -167v-114l-438 -166v134l289 89zM483 55h-438v121h438v-121z" />
    <glyph glyph-name="lozenge" unicode="&#x25ca;" horiz-adv-x="555" 
d="M327 0h-98l-186 350l186 350h98l186 -350zM182 350l96 -180l95 180l-95 180z" />
    <glyph glyph-name="NULL" horiz-adv-x="0" 
 />
    <glyph glyph-name="CR" horiz-adv-x="333" 
 />
    <glyph glyph-name="i.loclTRK" horiz-adv-x="247" 
d="M123 551q-32 0 -55 23t-23 55t23 54.5t55 22.5q31 0 54 -23t23 -54q0 -32 -23 -55t-54 -23zM188 0h-129v500h129v-500z" />
    <glyph glyph-name="f_f_j" horiz-adv-x="834" 
d="M499 500h276v-510q0 -110 -53.5 -160.5t-163.5 -43.5v124q45 -3 66.5 16t21.5 64v386h-147v-376h-129v376h-148v-376h-129v376h-72v124h72v5q0 107 59.5 161.5t175.5 47.5v-124q-106 7 -106 -85v-5h148v15q0 209 235 209q51 0 118 -14v-118q-74 8 -118 8q-55 0 -80.5 -19
t-25.5 -66v-15z" />
    <glyph glyph-name="f_j" horiz-adv-x="557" 
d="M222 500h276v-510q0 -110 -53.5 -160.5t-164.5 -43.5v124q46 -3 67.5 16t21.5 64v386h-147v-376h-129v376h-72v124h72v5q0 209 235 209q50 0 117 -14v-118q-72 8 -117 8q-56 0 -81 -19t-25 -66v-5z" />
    <glyph glyph-name="uni0414.loclBGR" horiz-adv-x="730" 
d="M451 700l183 -568h79v-266h-138v134h-420v-134h-137v266h79l183 568h171zM365 544l-124 -412h248z" />
    <glyph glyph-name="uni041B.loclBGR" horiz-adv-x="647" 
d="M3 0l235 700h171l236 -700h-151l-170 538l-171 -538h-150z" />
    <glyph glyph-name="uni0424.loclBGR" horiz-adv-x="859" 
d="M495 -8v-92h-130v92q-152 17 -242 113q-90 97 -90 245t90 244q90 97 242 114v92h130v-92q152 -17 242 -114q90 -96 90 -244t-90 -245q-90 -96 -242 -113zM365 119v463q-96 -15 -145.5 -74.5t-49.5 -157.5q0 -99 49.5 -158t145.5 -73zM495 582v-463q96 15 145 73.5
t49 157.5t-49 158t-145 74z" />
    <glyph glyph-name="uni0414.ss01" horiz-adv-x="705" 
d="M603 700v-568h75v-132h-663v132h68q58 80 58 237v331h462zM231 132h234v439h-186v-204q0 -153 -48 -235z" />
    <glyph glyph-name="uni0426.ss01" horiz-adv-x="690" 
d="M588 700v-568h75v-132h-598v700h138v-568h247v568h138z" />
    <glyph glyph-name="uni0429.ss01" horiz-adv-x="980" 
d="M878 700v-568h75v-132h-888v700h138v-568h200v568h137v-568h200v568h138z" />
    <glyph glyph-name="uni0414.loclBGR.ss01" horiz-adv-x="730" 
d="M451 700l183 -568h79v-132h-695v132h79l183 568h171zM365 544l-124 -412h248z" />
    <glyph glyph-name="uni0432.loclBGR" horiz-adv-x="566" 
d="M419 409q115 -46 115 -195q0 -107 -63 -167.5t-175 -60.5q-108 0 -173 66q-64 67 -64 177v238q0 111 62 179t165 68q87 0 141 -48t54 -126q0 -67 -62 -131zM286 593q-45 0 -71.5 -34.5t-26.5 -91.5v-58l47 10q28 6 61 8q59 47 59 98q0 31 -18.5 49.5t-50.5 18.5zM296 111
q52 0 80.5 27t28.5 76q0 57 -45.5 80.5t-124.5 7.5l-47 -10v-63q0 -55 29 -86.5t79 -31.5z" />
    <glyph glyph-name="uni0433.loclBGR" horiz-adv-x="465" 
d="M333 170l112 -64q-55 -120 -210 -120q-85 0 -144 41q-57 42 -57 119q0 38 14.5 67t41 46.5t51.5 27t56 16.5q89 24 89 55q0 20 -15.5 30.5t-40.5 10.5q-57 0 -82 -52l-109 60q28 51 78 79t113 28q81 0 134 -43q54 -42 54 -116q0 -50 -26 -82.5t-63 -46.5t-74 -23
t-63 -21.5t-26 -32.5q0 -46 69 -46q76 0 98 67z" />
    <glyph glyph-name="uni0434.loclBGR" 
d="M442 438v62h126v-476q0 -115 -77 -177q-76 -61 -184 -61q-170 0 -237 122l110 63q37 -70 131 -70q61 0 96 32t35 91v54q-57 -76 -160 -76q-106 0 -178 74q-71 76 -71 182t72 181t177 75q103 0 160 -76zM442 258q0 60 -40 97q-39 39 -100 39q-60 0 -101 -39
q-39 -37 -39 -97t39.5 -98.5t100.5 -38.5t100.5 38.5t39.5 98.5z" />
    <glyph glyph-name="uni0436.loclBGR" horiz-adv-x="746" 
d="M553 253l181 -253h-145l-153 223v-223h-126v223l-153 -223h-144l180 253l-170 247h144l143 -216v416h126v-416l143 216h145z" />
    <glyph glyph-name="uni0438.loclBGR" horiz-adv-x="577" 
d="M389 230v270h129v-500h-129v56q-46 -70 -149 -70q-82 0 -136 55q-53 56 -53 152v307h129v-291q0 -49 26.5 -76t72.5 -27q51 0 80.5 31.5t29.5 92.5z" />
    <glyph glyph-name="uni0439.loclBGR" horiz-adv-x="577" 
d="M139 676h290v-112h-290v112zM389 230v270h129v-500h-129v56q-46 -70 -149 -70q-82 0 -136 55q-53 56 -53 152v307h129v-291q0 -49 26.5 -76t72.5 -27q51 0 80.5 31.5t29.5 92.5z" />
    <glyph glyph-name="uni043A.loclBGR" horiz-adv-x="525" 
d="M313 253l207 -253h-150l-182 227v-227h-129v700h129v-420l172 220h154z" />
    <glyph glyph-name="uni043B.loclBGR" horiz-adv-x="533" 
d="M340 500l190 -500h-142l-122 350l-121 -350h-142l190 500h147z" />
    <glyph glyph-name="uni043F.loclBGR" horiz-adv-x="577" 
d="M337 514q83 0 135 -55q54 -56 54 -152v-307h-129v291q0 49 -26.5 76t-72.5 27q-51 0 -80.5 -31.5t-29.5 -92.5v-270h-129v500h129v-56q46 70 149 70z" />
    <glyph glyph-name="uni0442.loclBGR" horiz-adv-x="852" 
d="M612 514q86 0 137.5 -56t51.5 -150v-308h-129v299q0 45 -22 70t-62 25q-44 0 -68.5 -29t-24.5 -84v-281h-129v299q0 45 -22 70t-62 25q-43 0 -68.5 -29.5t-25.5 -83.5v-281h-129v500h129v-53q45 67 139 67q93 0 136 -72q49 72 149 72z" />
    <glyph glyph-name="uni0446.loclBGR" horiz-adv-x="616" 
d="M550 121h43v-255h-126v144q-40 16 -62 55q-51 -79 -165 -79q-82 0 -136 55q-53 56 -53 152v307h129v-290q0 -50 26.5 -77t72.5 -27q51 0 80.5 31.5t29.5 92.5v270h129v-347q0 -32 32 -32z" />
    <glyph glyph-name="uni0448.loclBGR" horiz-adv-x="852" 
d="M664 219v281h129v-500h-129v53q-45 -67 -139 -67q-93 0 -136 72q-49 -72 -149 -72q-86 0 -137.5 56t-51.5 150v308h129v-299q0 -45 22 -70t62 -25q44 0 68.5 29t24.5 84v281h129v-299q0 -45 22 -70t62 -25q43 0 68.5 29.5t25.5 83.5z" />
    <glyph glyph-name="uni0449.loclBGR" horiz-adv-x="891" 
d="M825 121h43v-255h-126v144q-39 15 -59 50q-50 -74 -150 -74q-98 0 -144 73q-49 -73 -149 -73q-86 0 -137.5 56t-51.5 150v308h129v-298q0 -45 22 -70.5t62 -25.5q44 0 68.5 29t24.5 84v281h129v-298q0 -45 22 -70.5t62 -25.5q43 0 68.5 29.5t25.5 83.5v281h129v-347
q0 -32 32 -32z" />
    <glyph glyph-name="uni044C.loclBGR" horiz-adv-x="493" 
d="M177 361h91q98 0 150.5 -47.5t52.5 -134.5q0 -82 -59 -138q-58 -55 -151 -55q-98 0 -154 54.5t-56 145.5v314h126v-139zM261 108q35 0 59.5 22t24.5 50q0 30 -20.5 48.5t-56.5 18.5h-91v-61q0 -34 23 -56t61 -22z" />
    <glyph glyph-name="uni044A.loclBGR" horiz-adv-x="579" 
d="M262 361h92q98 0 150 -47.5t52 -134.5q0 -82 -59 -138q-58 -55 -151 -55q-98 0 -154 54.5t-56 145.5v193h-136v121h262v-139zM346 108q35 0 59.5 22t24.5 50q0 30 -20 48.5t-56 18.5h-92v-61q0 -34 23 -56t61 -22z" />
    <glyph glyph-name="uni044E.loclBGR" horiz-adv-x="811" 
d="M514 514q111 0 188 -77t77 -187q0 -111 -77 -188q-76 -76 -188 -76q-94 0 -164 57t-90 147h-72v-190h-129v700h129v-389h73q20 89 90 146q71 57 163 57zM417 151q39 -39 97 -39t97 39t39 99t-39 99t-97 39t-97 -39q-38 -40 -38 -99t38 -99z" />
    <glyph glyph-name="zero.sinf" horiz-adv-x="409" 
d="M336 -116q-49 -58 -132 -58t-132 58t-49 156t49 156t132 58t132 -58q50 -59 50 -156t-50 -156zM204 -67q72 0 72 107t-72 107q-34 0 -52.5 -27.5t-18.5 -79.5t18.5 -79.5t52.5 -27.5z" />
    <glyph glyph-name="one.sinf" horiz-adv-x="265" 
d="M3 197l120 43h94v-400h-107v292l-82 -23z" />
    <glyph glyph-name="two.sinf" horiz-adv-x="349" 
d="M323 -160h-299v70l150 149q35 33 35 61q0 16 -11 26t-30 10q-41 0 -62 -51l-87 50q42 99 150 99q64 0 106 -35.5t42 -90.5q0 -61 -68 -129l-65 -62h139v-97z" />
    <glyph glyph-name="three.sinf" horiz-adv-x="345" 
d="M303 161l-72 -86q43 -12 66.5 -41.5t23.5 -72.5q0 -65 -41 -100t-114 -35q-115 0 -156 89l90 52q17 -47 66 -47q48 0 48 41q0 18 -14 29t-37 11h-19l-40 58l69 84h-145v97h275v-79z" />
    <glyph glyph-name="four.sinf" horiz-adv-x="357" 
d="M300 2h41v-98h-41v-64h-102v64h-187v98l129 238h114l-123 -238h67v69h102v-69z" />
    <glyph glyph-name="five.sinf" horiz-adv-x="336" 
d="M141 89h33q67 0 104.5 -33.5t37.5 -98.5q0 -62 -40 -96.5t-106 -34.5q-115 0 -156 89l88 50q18 -47 65 -47q51 0 51 41q0 19 -13.5 31t-37.5 12h-128l16 238h242v-97h-152z" />
    <glyph glyph-name="six.sinf" horiz-adv-x="340" 
d="M270 240l-85 -130q63 -4 101 -43t38 -98q0 -63 -42.5 -103t-111.5 -40t-111.5 40t-42.5 103q0 41 19 73l125 198h110zM170 -84q25 0 40 14t15 39q0 24 -15 37.5t-40 13.5t-39.5 -13.5t-14.5 -37.5t15 -38.5t39 -14.5z" />
    <glyph glyph-name="seven.sinf" horiz-adv-x="295" 
d="M3 143v97h276v-82l-126 -318h-111l121 303h-160z" />
    <glyph glyph-name="eight.sinf" horiz-adv-x="349" 
d="M270 50q58 -34 58 -101q0 -57 -40.5 -90t-112.5 -33t-113 33t-41 90q0 66 59 101q-45 32 -45 84q0 54 39.5 87t100.5 33t100.5 -33t39.5 -87q0 -52 -45 -84zM175 163q-48 0 -48 -38q0 -39 48 -39q21 0 34.5 10.5t13.5 28.5t-13.5 28t-34.5 10zM227 -36q0 20 -14 32.5
t-38 12.5q-37 4 -49.5 -27t10.5 -51q13 -13 39 -13q25 0 38.5 12.5t13.5 33.5z" />
    <glyph glyph-name="nine.sinf" horiz-adv-x="340" 
d="M324 111q0 -41 -19 -73l-124 -198h-111l85 130q-62 4 -100.5 43.5t-38.5 97.5q0 63 42.5 103t111.5 40t111.5 -40t42.5 -103zM116 111q0 -24 14.5 -37.5t39.5 -13.5t40 13.5t15 37.5q0 25 -15 39t-40 14q-24 0 -39 -14.5t-15 -38.5z" />
    <glyph glyph-name="zero.tf" horiz-adv-x="578" 
d="M289 -14q-133 0 -206 99q-74 101 -74 265t74 264q73 100 206 100q132 0 205 -100q75 -99 75 -264t-75 -265q-73 -99 -205 -99zM146 350q0 -111 36.5 -170t106.5 -59t106 58.5t36 170.5t-36 171t-106 59t-106.5 -59t-36.5 -171z" />
    <glyph glyph-name="one.tf" horiz-adv-x="578" 
d="M369 700v-568h190v-132h-530v132h202v422l-132 -37l-34 118l184 65h120z" />
    <glyph glyph-name="two.tf" horiz-adv-x="578" 
d="M538 0h-504v103l255 231q53 48 76.5 81t23.5 67q0 43 -28.5 70.5t-78.5 27.5q-84 0 -130 -91l-116 68q36 76 101 116.5t146 40.5q108 0 175 -64q68 -63 68 -160q0 -64 -34.5 -119.5t-108.5 -121.5l-132 -116h287v-133z" />
    <glyph glyph-name="three.tf" horiz-adv-x="578" 
d="M517 586l-137 -162q79 -21 124 -74t45 -130q0 -111 -73 -172q-74 -62 -186 -62q-97 0 -166 42t-102 122l118 68q33 -97 143 -97q62 0 95 26.5t33 72.5t-33 72.5t-95 26.5h-28l-55 81l144 171h-300v129h473v-114z" />
    <glyph glyph-name="four.tf" horiz-adv-x="578" 
d="M486 247h75v-128h-75v-119h-139v119h-338v128l232 453h148l-232 -453h190v161h139v-161z" />
    <glyph glyph-name="five.tf" horiz-adv-x="578" 
d="M208 445h88q112 0 182 -60q71 -60 71 -169q0 -107 -74 -169q-73 -61 -182 -61q-98 0 -167 42t-102 122l118 68q33 -97 147 -97q59 0 90.5 25t31.5 70q0 44 -31.5 69.5t-90.5 25.5h-225l28 389h424v-129h-298z" />
    <glyph glyph-name="six.tf" horiz-adv-x="578" 
d="M450 700l-159 -220q121 -1 193 -69q72 -67 72 -178t-74 -179t-196 -68q-123 0 -197 68q-73 67 -73 179q0 93 53 158l222 309h159zM154 233q0 -55 35.5 -86t96.5 -31t97 31.5t36 85.5q0 55 -36 86.5t-97 31.5t-96.5 -31t-35.5 -87z" />
    <glyph glyph-name="seven.tf" horiz-adv-x="578" 
d="M25 568v132h520v-117l-265 -583h-145l256 568h-366z" />
    <glyph glyph-name="eight.tf" horiz-adv-x="578" 
d="M456 364q103 -58 103 -169q0 -96 -72 -152.5t-198 -56.5t-198 56.5t-72 152.5q0 111 103 169q-79 52 -79 145q0 97 69 151q70 54 177 54q105 0 176 -54q70 -54 70 -151q0 -93 -79 -145zM369 562q-28 22 -80 22t-80 -22q-29 -23 -29 -60q0 -38 29 -61q28 -22 80 -22t80 22
q29 23 29 61q0 37 -29 60zM190 141q34 -25 99 -25q64 0 98 25q35 26 35 72q0 45 -35 71q-34 25 -98 25q-65 0 -99 -25t-34 -71q0 -47 34 -72z" />
    <glyph glyph-name="nine.tf" horiz-adv-x="578" 
d="M561 467q0 -87 -45 -148l-229 -319h-159l159 220q-122 2 -194 69t-72 178q0 112 73 179q74 68 197 68t197 -68q73 -67 73 -179zM291 350q63 0 98 30.5t35 86.5t-35 86.5t-98 30.5q-61 0 -96.5 -31t-35.5 -86t35.5 -86t96.5 -31z" />
    <glyph glyph-name="zero.dnom" horiz-adv-x="409" 
d="M336 44q-49 -58 -132 -58t-132 58t-49 156t49 156t132 58t132 -58q50 -59 50 -156t-50 -156zM204 93q72 0 72 107t-72 107q-34 0 -52.5 -27.5t-18.5 -79.5t18.5 -79.5t52.5 -27.5z" />
    <glyph glyph-name="one.dnom" horiz-adv-x="267" 
d="M3 357l120 43h94v-400h-107v292l-82 -23z" />
    <glyph glyph-name="two.dnom" horiz-adv-x="356" 
d="M323 0h-299v70l150 149q35 33 35 61q0 16 -11 26t-30 10q-41 0 -62 -51l-87 50q42 99 150 99q64 0 106 -35.5t42 -90.5q0 -61 -68 -129l-65 -62h139v-97z" />
    <glyph glyph-name="three.dnom" horiz-adv-x="348" 
d="M303 321l-72 -86q43 -12 66.5 -41.5t23.5 -72.5q0 -65 -41 -100t-114 -35q-115 0 -156 89l90 52q17 -47 66 -47q48 0 48 41q0 18 -14 29t-37 11h-19l-40 58l69 84h-145v97h275v-79z" />
    <glyph glyph-name="four.dnom" horiz-adv-x="357" 
d="M300 162h41v-98h-41v-64h-102v64h-187v98l129 238h114l-123 -238h67v69h102v-69z" />
    <glyph glyph-name="five.dnom" horiz-adv-x="334" 
d="M140 249h33q67 0 104.5 -33.5t37.5 -98.5q0 -62 -40 -96.5t-106 -34.5q-115 0 -156 89l88 50q18 -47 65 -47q51 0 51 41q0 19 -13.5 31t-37.5 12h-128l16 238h242v-97h-152z" />
    <glyph glyph-name="six.dnom" horiz-adv-x="340" 
d="M270 400l-85 -130q63 -4 101 -43t38 -98q0 -63 -42.5 -103t-111.5 -40t-111.5 40t-42.5 103q0 41 19 73l125 198h110zM170 76q25 0 40 14t15 39q0 24 -15 37.5t-40 13.5t-39.5 -13.5t-14.5 -37.5t15 -38.5t39 -14.5z" />
    <glyph glyph-name="seven.dnom" horiz-adv-x="295" 
d="M3 303v97h276v-82l-126 -318h-111l121 303h-160z" />
    <glyph glyph-name="eight.dnom" horiz-adv-x="349" 
d="M270 210q58 -34 58 -101q0 -57 -40.5 -90t-112.5 -33t-113 33t-41 90q0 66 59 101q-45 32 -45 84q0 54 39.5 87t100.5 33t100.5 -33t39.5 -87q0 -52 -45 -84zM175 323q-48 0 -48 -38q0 -39 48 -39q21 0 34.5 10.5t13.5 28.5t-13.5 28t-34.5 10zM227 124q0 20 -14 32.5
t-38 12.5q-37 4 -49.5 -27t10.5 -52q14 -12 39 -12t38.5 12.5t13.5 33.5z" />
    <glyph glyph-name="nine.dnom" horiz-adv-x="340" 
d="M324 271q0 -41 -19 -73l-124 -198h-111l85 130q-62 4 -100.5 43.5t-38.5 97.5q0 63 42.5 103t111.5 40t111.5 -40t42.5 -103zM116 271q0 -24 14.5 -37.5t39.5 -13.5t40 13.5t15 37.5q0 25 -15 39t-40 14q-24 0 -39 -14.5t-15 -38.5z" />
    <glyph glyph-name="zero.numr" horiz-adv-x="409" 
d="M336 344q-49 -58 -132 -58t-132 58t-49 156t49 156t132 58t132 -58q50 -59 50 -156t-50 -156zM204 393q72 0 72 107t-72 107q-34 0 -52.5 -27.5t-18.5 -79.5t18.5 -79.5t52.5 -27.5z" />
    <glyph glyph-name="one.numr" horiz-adv-x="267" 
d="M3 657l120 43h94v-400h-107v292l-82 -23z" />
    <glyph glyph-name="two.numr" horiz-adv-x="356" 
d="M323 300h-299v70l150 149q35 33 35 61q0 16 -11 26t-30 10q-41 0 -62 -51l-87 50q42 99 150 99q64 0 106 -35.5t42 -90.5q0 -61 -68 -129l-65 -62h139v-97z" />
    <glyph glyph-name="three.numr" horiz-adv-x="348" 
d="M303 621l-72 -86q43 -12 66.5 -41.5t23.5 -72.5q0 -65 -41 -100t-114 -35q-115 0 -156 89l90 52q17 -47 66 -47q48 0 48 41q0 18 -14 29t-37 11h-19l-40 58l69 84h-145v97h275v-79z" />
    <glyph glyph-name="four.numr" horiz-adv-x="357" 
d="M300 462h41v-98h-41v-64h-102v64h-187v98l129 238h114l-123 -238h67v69h102v-69z" />
    <glyph glyph-name="five.numr" horiz-adv-x="334" 
d="M140 549h33q67 0 104.5 -33.5t37.5 -98.5q0 -62 -40 -96.5t-106 -34.5q-115 0 -156 89l88 50q18 -47 65 -47q51 0 51 41q0 19 -13.5 31t-37.5 12h-128l16 238h242v-97h-152z" />
    <glyph glyph-name="six.numr" horiz-adv-x="340" 
d="M270 700l-85 -130q63 -4 101 -43t38 -98q0 -63 -42.5 -103t-111.5 -40t-111.5 40t-42.5 103q0 41 19 73l125 198h110zM170 376q25 0 40 14t15 39q0 24 -15 37.5t-40 13.5t-39.5 -13.5t-14.5 -37.5t15 -38.5t39 -14.5z" />
    <glyph glyph-name="seven.numr" horiz-adv-x="295" 
d="M3 603v97h276v-82l-126 -318h-111l121 303h-160z" />
    <glyph glyph-name="eight.numr" horiz-adv-x="349" 
d="M270 510q58 -34 58 -101q0 -57 -40.5 -90t-112.5 -33t-113 33t-41 90q0 66 59 101q-45 32 -45 84q0 54 39.5 87t100.5 33t100.5 -33t39.5 -87q0 -52 -45 -84zM175 623q-48 0 -48 -38q0 -39 48 -39q21 0 34.5 10.5t13.5 28.5t-13.5 28t-34.5 10zM227 424q0 20 -14 32.5
t-38 12.5q-37 4 -49.5 -27t10.5 -52q14 -12 39 -12t38.5 12.5t13.5 33.5z" />
    <glyph glyph-name="nine.numr" horiz-adv-x="340" 
d="M324 571q0 -41 -19 -73l-124 -198h-111l85 130q-62 4 -100.5 43.5t-38.5 97.5q0 63 42.5 103t111.5 40t111.5 -40t42.5 -103zM116 571q0 -24 14.5 -37.5t39.5 -13.5t40 13.5t15 37.5q0 25 -15 39t-40 14q-24 0 -39 -14.5t-15 -38.5z" />
    <glyph glyph-name="zero.sups" horiz-adv-x="409" 
d="M336 504q-49 -58 -132 -58t-132 58t-49 156t49 156t132 58t132 -58q50 -59 50 -156t-50 -156zM204 553q72 0 72 107t-72 107q-34 0 -52.5 -27.5t-18.5 -79.5t18.5 -79.5t52.5 -27.5z" />
    <glyph glyph-name="one.sups" horiz-adv-x="267" 
d="M3 817l120 43h94v-400h-107v292l-82 -23z" />
    <glyph glyph-name="two.sups" horiz-adv-x="356" 
d="M323 460h-299v70l150 149q35 33 35 61q0 16 -11 26t-30 10q-41 0 -62 -51l-87 50q42 99 150 99q64 0 106 -35.5t42 -90.5q0 -61 -68 -129l-65 -62h139v-97z" />
    <glyph glyph-name="three.sups" horiz-adv-x="348" 
d="M303 781l-72 -86q43 -12 66.5 -41.5t23.5 -72.5q0 -65 -41 -100t-114 -35q-115 0 -156 89l90 52q17 -47 66 -47q48 0 48 41q0 18 -14 29t-37 11h-19l-40 58l69 84h-145v97h275v-79z" />
    <glyph glyph-name="four.sups" horiz-adv-x="357" 
d="M300 622h41v-98h-41v-64h-102v64h-187v98l129 238h114l-123 -238h67v69h102v-69z" />
    <glyph glyph-name="five.sups" horiz-adv-x="334" 
d="M140 709h33q67 0 104.5 -33.5t37.5 -98.5q0 -62 -40 -96.5t-106 -34.5q-115 0 -156 89l88 50q18 -47 65 -47q51 0 51 41q0 19 -13.5 31t-37.5 12h-128l16 238h242v-97h-152z" />
    <glyph glyph-name="six.sups" horiz-adv-x="340" 
d="M270 860l-85 -130q63 -4 101 -43t38 -98q0 -63 -42.5 -103t-111.5 -40t-111.5 40t-42.5 103q0 41 19 73l125 198h110zM170 536q25 0 40 14t15 39q0 24 -15 37.5t-40 13.5t-39.5 -13.5t-14.5 -37.5t15 -38.5t39 -14.5z" />
    <glyph glyph-name="seven.sups" horiz-adv-x="295" 
d="M3 763v97h276v-82l-126 -318h-111l121 303h-160z" />
    <glyph glyph-name="eight.sups" horiz-adv-x="349" 
d="M270 670q58 -34 58 -101q0 -57 -40.5 -90t-112.5 -33t-113 33t-41 90q0 66 59 101q-45 32 -45 84q0 54 39.5 87t100.5 33t100.5 -33t39.5 -87q0 -52 -45 -84zM175 783q-48 0 -48 -38q0 -39 48 -39q21 0 34.5 10.5t13.5 28.5t-13.5 28t-34.5 10zM227 584q0 20 -14 32.5
t-38 12.5q-37 4 -49.5 -27t10.5 -52q14 -12 39 -12t38.5 12.5t13.5 33.5z" />
    <glyph glyph-name="nine.sups" horiz-adv-x="340" 
d="M324 731q0 -41 -19 -73l-124 -198h-111l85 130q-62 4 -100.5 43.5t-38.5 97.5q0 63 42.5 103t111.5 40t111.5 -40t42.5 -103zM116 731q0 -24 14.5 -37.5t39.5 -13.5t40 13.5t15 37.5q0 25 -15 39t-40 14q-24 0 -39 -14.5t-15 -38.5z" />
    <glyph glyph-name="cent.tf" horiz-adv-x="578" 
d="M431 280l112 -64q-33 -60 -93.5 -95t-132.5 -35q-36 0 -61 7l-30 -93h-58l35 110q-69 31 -109.5 95t-40.5 145q0 111 75 188q76 76 189 76q29 0 48 -4l29 90h58l-34 -106q83 -33 123 -109l-111 -65q-17 35 -52 52l-82 -257q4 -1 20 -1q39 0 69.5 17.5t45.5 48.5zM182 350
q0 -79 61 -116l82 253h-9q-58 0 -96 -38.5t-38 -98.5z" />
    <glyph glyph-name="dollar.tf" horiz-adv-x="578" 
d="M553 195q0 -87 -57.5 -142t-156.5 -65v-88h-67v87q-92 6 -155.5 49.5t-91.5 118.5l119 69q36 -93 128 -105v174l-6 2q-39 13 -78 31q-31 15 -64 40q-68 50 -68 147q0 90 61 142t155 58v87h67v-89q144 -20 199 -147l-116 -68q-26 66 -83 81v-169l47 -18q15 -4 42 -18
q30 -13 42 -22q47 -32 60 -61q23 -44 23 -94zM193 514q0 -25 17.5 -43t61.5 -37v148q-79 -7 -79 -68zM339 267v-148q76 10 76 70q0 26 -16.5 42.5t-59.5 35.5z" />
    <glyph glyph-name="Euro.tf" horiz-adv-x="578" 
d="M446 207l113 -65q-28 -73 -84.5 -114.5t-130.5 -41.5q-104 0 -171.5 72t-85.5 199h-66v78h60v15v24h-60v77h68q19 124 85.5 193.5t169.5 69.5q72 0 127.5 -39t83.5 -108l-115 -66q-13 36 -38.5 57.5t-57.5 21.5q-92 0 -117 -129h174v-77h-182v-24v-15h182v-78h-175
q22 -136 118 -136q33 0 60.5 23t41.5 63z" />
    <glyph glyph-name="florin.tf" horiz-adv-x="578" 
d="M555 705v-129q-46 18 -79.5 3t-45.5 -59l-29 -106h122v-124h-156l-90 -331q-29 -104 -95 -144t-159 -16v128q100 -33 124 56l84 307h-119v124h152l36 131q29 103 95.5 143.5t159.5 16.5z" />
    <glyph glyph-name="uni20BD.tf" horiz-adv-x="578" 
d="M319 243h-96v-55h195v-88h-195v-100h-138v100h-75v88h75v55h-75v121h75v336h234q99 0 167 -68q69 -68 69 -164t-68 -161q-67 -64 -168 -64zM319 571h-96v-207h96q42 0 70.5 30t28.5 74t-28.5 73.5t-70.5 29.5z" />
    <glyph glyph-name="sterling.tf" horiz-adv-x="578" 
d="M241 274v-141h327v-133h-538v133h73v141h-60v121h60v100q0 106 65 162q66 57 155 57q76 0 133 -38.5t84 -107.5l-118 -68q-26 80 -95 80q-38 0 -62 -23.5t-24 -66.5v-95h210v-121h-210z" />
    <glyph glyph-name="yen.tf" horiz-adv-x="578" 
d="M420 700h156l-191 -338h134v-80h-161v-45h161v-81h-161v-156h-138v156h-161v81h161v45h-161v80h134l-191 338h156l131 -252z" />
    <glyph glyph-name="brevecy" horiz-adv-x="360" 
d="M325 564h-290v112h290v-112z" />
    </font>
</defs>
</svg>
