<?xml version="1.0" standalone="no"?>
<!DOCTYPE svg PUBLIC "-//W3C//DTD SVG 1.1//EN" "http://www.w3.org/Graphics/SVG/1.1/DTD/svg11.dtd" >
<svg xmlns="http://www.w3.org/2000/svg" xmlns:xlink="http://www.w3.org/1999/xlink" version="1.1">
<metadata>
Created by FontForge 20170731 at Fri Jul 22 02:23:30 2016
 By Aleksey,,,
Copyright (c) 2016 by Radomir Tinkov. All rights reserved.
</metadata>
<defs>
<font id="Gilroy-Regular" horiz-adv-x="636" >
  <font-face 
    font-family="Gilroy"
    font-weight="400"
    font-stretch="normal"
    units-per-em="1000"
    panose-1="0 0 5 0 0 0 0 0 0 0"
    ascent="775"
    descent="-225"
    x-height="500"
    cap-height="700"
    bbox="-317 -240 1009 960"
    underline-thickness="50"
    underline-position="-200"
    unicode-range="U+0020-FB02"
  />
<missing-glyph horiz-adv-x="500" 
d="M93 800h317v-1000h-317v1000zM333 700v33h-165v-33h65v-37h-66v-33h166v33h-66v37h66zM267 534v70h-100v-104h166v34h-66zM200 570h33v-36h-33v36zM333 440v33h-166v-33h66v-37h-66v-33h100v70h66zM333 313v100h-33v-66h-133v-34h166zM333 178v113h-100v-56h34v23h33v-47
h-100v80h-33v-113h166zM333 5v113h-166v-113h166zM200 85h100v-47h-100v47zM333 -51v33h-166v-33h70l-70 -47v-33h166v33h-102l70 47h32z" />
    <glyph glyph-name="fi" unicode="fi" horiz-adv-x="516" 
d="M176 500h270v-500h-66v436h-204v-436h-66v436h-85v64h85v20q0 192 210 192q42 0 96 -12v-60q-50 8 -96 8q-76 0 -110 -29.5t-34 -98.5v-20z" />
    <glyph glyph-name="fl" unicode="fl" horiz-adv-x="516" 
d="M320 712q58 0 126 -12v-700h-66v649q-32 3 -60 3q-75 0 -109.5 -31t-34.5 -101v-20h114v-64h-114v-436h-66v436h-85v64h85v20q0 192 210 192z" />
    <glyph glyph-name="f_f" unicode="ff" horiz-adv-x="590" 
d="M590 722v-64q-73 6 -108.5 -25t-35.5 -103v-30h144v-64h-144v-436h-66v436h-204v-436h-66v436h-85v64h85v20q0 99 54.5 149t155.5 43v-64q-73 6 -108.5 -25t-35.5 -103v-20h204v30q0 99 54.5 149t155.5 43z" />
    <glyph glyph-name="f_f_i" unicode="ffi" horiz-adv-x="786" 
d="M446 500h270v-500h-66v436h-204v-436h-66v436h-204v-436h-66v436h-85v64h85v20q0 99 54.5 149t155.5 43v-64q-73 6 -108.5 -25t-35.5 -103v-20h204v30q0 192 210 192q42 0 96 -12v-60q-50 8 -96 8q-76 0 -110 -29.5t-34 -98.5v-30z" />
    <glyph glyph-name="f_f_l" unicode="ffl" horiz-adv-x="786" 
d="M590 722q58 0 126 -12v-710h-66v659q-32 3 -60 3q-75 0 -109.5 -31t-34.5 -101v-30h114v-64h-114v-436h-66v436h-204v-436h-66v436h-85v64h85v20q0 99 54.5 149t155.5 43v-64q-73 6 -108.5 -25t-35.5 -103v-20h204v30q0 192 210 192z" />
    <glyph glyph-name=".notdef" horiz-adv-x="500" 
d="M93 800h317v-1000h-317v1000zM333 700v33h-165v-33h65v-37h-66v-33h166v33h-66v37h66zM267 534v70h-100v-104h166v34h-66zM200 570h33v-36h-33v36zM333 440v33h-166v-33h66v-37h-66v-33h100v70h66zM333 313v100h-33v-66h-133v-34h166zM333 178v113h-100v-56h34v23h33v-47
h-100v80h-33v-113h166zM333 5v113h-166v-113h166zM200 85h100v-47h-100v47zM333 -51v33h-166v-33h70l-70 -47v-33h166v33h-102l70 47h32z" />
    <glyph glyph-name=".null" horiz-adv-x="0" 
 />
    <glyph glyph-name="nonmarkingreturn" horiz-adv-x="333" 
 />
    <glyph glyph-name="space" unicode=" " horiz-adv-x="250" 
 />
    <glyph glyph-name="exclam" unicode="!" horiz-adv-x="230" 
d="M140 190h-50l-15 310v200h80v-200zM154 6q-16 -16 -39 -16t-39 16t-16 39t16 39t39 16t39 -16t16 -39t-16 -39z" />
    <glyph glyph-name="quotedbl" unicode="&#x22;" horiz-adv-x="310" 
d="M110 500h-50l-10 200h70zM250 500h-50l-10 200h70z" />
    <glyph glyph-name="numbersign" unicode="#" horiz-adv-x="599" 
d="M569 470l-10 -60h-119l-20 -120h120l-10 -60h-120l-30 -180h-64l30 180h-132l-30 -180h-64l30 180h-120l10 60h120l20 120h-121l10 60h121l30 180h64l-30 -180h132l30 180h64l-30 -180h119zM224 290h132l20 120h-132z" />
    <glyph glyph-name="dollar" unicode="$" horiz-adv-x="550" 
d="M510 182q0 -78 -53 -131q-52 -52 -137 -61v-90h-60v89q-81 5 -138 43t-82 102l60 35q37 -102 160 -112v276q-81 28 -129 64q-56 42 -56 129q0 78 52 127q54 51 133 58v89h60v-90q60 -7 105.5 -40t69.5 -89l-59 -33q-31 79 -116 93v-260q84 -28 131 -66q59 -46 59 -133z
M145 526q0 -44 26.5 -71.5t88.5 -51.5v239q-52 -6 -83.5 -37t-31.5 -79zM320 312v-254q56 8 88 41t32 83q0 47 -28.5 76t-91.5 54z" />
    <glyph glyph-name="percent" unicode="%" horiz-adv-x="709" 
d="M213 412q-66 0 -109 43q-44 44 -44 107q0 62 44 106t109 44t109 -44t44 -106q0 -64 -43 -107t-110 -43zM149 498q25 -26 64 -26t64 26t25 64t-25 64t-64 26t-64 -26t-25 -64t25 -64zM137 71l-42 24l469 527l43 -24zM605 31q-43 -43 -109 -43t-109 43q-44 44 -44 107
q0 62 44 106t109 44t109 -44t44 -106q0 -63 -44 -107zM432 74q25 -26 64 -26t64 26t25 64t-25 64t-64 26t-64 -26t-25 -64t25 -64z" />
    <glyph glyph-name="ampersand" unicode="&#x26;" horiz-adv-x="657" 
d="M538 123l94 -100l-62 -35l-74 79q-79 -79 -206 -79q-102 0 -167 53q-63 54 -63 145q0 67 34.5 120t100.5 83q-52 58 -52 132q0 87 60 139q59 52 140 52q67 0 122.5 -38t79.5 -101l-59 -34q-15 49 -53.5 77t-88.5 28q-54 0 -93 -33q-38 -33 -38 -86q0 -34 15 -61.5
t50 -63.5l211 -225q29 58 38 133l62 -36q-14 -88 -51 -149zM288 56q100 0 160 62l-206 219q-57 -21 -84.5 -60.5t-27.5 -88.5q0 -61 42.5 -96.5t115.5 -35.5z" />
    <glyph glyph-name="quotesingle" unicode="'" horiz-adv-x="170" 
d="M110 500h-50l-10 200h70z" />
    <glyph glyph-name="parenleft" unicode="(" horiz-adv-x="266" 
d="M236 -100h-66q-110 220 -110 450t110 450h66q-110 -220 -110 -450t110 -450z" />
    <glyph glyph-name="parenright" unicode=")" horiz-adv-x="266" 
d="M96 -100h-66q110 220 110 450t-110 450h66q110 -220 110 -450t-110 -450z" />
    <glyph glyph-name="asterisk" unicode="*" horiz-adv-x="392" 
d="M241 607l91 3v-56l-91 3l52 -75l-51 -30l-46 81l-46 -81l-51 30l52 75l-91 -3v56l91 -3l-52 75l51 30l46 -81l46 81l51 -30z" />
    <glyph glyph-name="plus" unicode="+" horiz-adv-x="540" 
d="M302 382h178v-64h-178v-178h-64v178h-178v64h178v178h64v-178z" />
    <glyph glyph-name="comma" unicode="," horiz-adv-x="240" 
d="M100 85h80l-60 -225h-60z" />
    <glyph glyph-name="hyphen" unicode="-" horiz-adv-x="520" 
d="M440 277h-360v64h360v-64z" />
    <glyph glyph-name="period" unicode="." horiz-adv-x="230" 
d="M154 6q-16 -16 -39 -16t-39 16t-16 39t16 39t39 16t39 -16t16 -39t-16 -39z" />
    <glyph glyph-name="slash" unicode="/" horiz-adv-x="530" 
d="M490 800l-400 -900h-50l400 900h50z" />
    <glyph glyph-name="zero" unicode="0" horiz-adv-x="630" 
d="M510 86q-69 -98 -195 -98q-125 0 -196 98q-69 99 -69 264q0 166 69 263q71 99 196 99q126 0 195 -99q70 -97 70 -263t-70 -264zM171 133q53 -77 144 -77q92 0 143 77q52 76 52 217t-52 217q-51 77 -143 77q-91 0 -144 -77q-51 -77 -51 -217t51 -217z" />
    <glyph glyph-name="one" unicode="1" horiz-adv-x="340" 
d="M15 636l185 64h60v-700h-70v623l-157 -47z" />
    <glyph glyph-name="two" unicode="2" horiz-adv-x="525" 
d="M485 0h-445v63l252 254q108 108 108 185q0 65 -40.5 103.5t-100.5 38.5q-107 0 -157 -99l-59 35q32 64 89 98t127 34q84 0 147 -57q64 -55 64 -153q0 -58 -32 -113.5t-98 -121.5l-200 -199h345v-68z" />
    <glyph glyph-name="three" unicode="3" horiz-adv-x="530" 
d="M460 634l-163 -225q83 -10 138 -65q55 -52 55 -141q0 -99 -69 -158q-67 -57 -166 -57q-79 0 -140 36.5t-85 102.5l58 34q17 -51 60.5 -78t106.5 -27q74 0 119.5 39.5t45.5 107.5t-45.5 107.5t-119.5 39.5v1l-1 -1h-19l-30 46l174 238h-329v66h410v-66z" />
    <glyph glyph-name="four" unicode="4" horiz-adv-x="580" 
d="M465 206h90v-66h-90v-140h-70v140h-370v66l260 494h77l-260 -494h293v214h70v-214z" />
    <glyph glyph-name="five" unicode="5" horiz-adv-x="540" 
d="M147 418h118q99 0 166 -58q69 -57 69 -157q0 -99 -69 -158q-67 -57 -166 -57q-81 0 -142.5 39.5t-82.5 109.5l59 34q15 -55 59 -85t107 -30q74 0 119.5 39.5t45.5 107.5t-45.5 107.5t-119.5 39.5h-190l25 350h375v-66h-313z" />
    <glyph glyph-name="six" unicode="6" horiz-adv-x="530" 
d="M265 450q102 0 169 -65q66 -65 66 -166q0 -103 -66 -167q-65 -64 -169 -64t-169 64q-66 64 -66 167q0 79 43 140l229 341h79l-172 -256q27 6 56 6zM145 101q47 -45 120 -45q74 0 119 45q46 45 46 118t-46 118q-45 45 -119 45q-73 0 -120 -45q-45 -45 -45 -118t45 -118z
" />
    <glyph glyph-name="seven" unicode="7" horiz-adv-x="490" 
d="M20 634v66h430v-66l-264 -634h-73l264 634h-357z" />
    <glyph glyph-name="eight" unicode="8" horiz-adv-x="548" 
d="M392 361q54 -25 85 -70t31 -101q0 -95 -67 -149q-68 -53 -167 -53t-167 53q-67 54 -67 149q0 56 31 101t85 70q-93 53 -93 157q0 94 62 144q64 50 149 50q86 0 148 -50q63 -50 63 -144q0 -104 -93 -157zM133 518q0 -58 40.5 -92t100.5 -34t100.5 34t40.5 92
q0 61 -39 93.5t-102 32.5t-102 -32.5t-39 -93.5zM155 90q44 -34 119 -34t119 34q45 35 45 100q0 64 -45 99q-46 35 -119 35t-119 -35q-45 -35 -45 -99q0 -66 45 -100z" />
    <glyph glyph-name="nine" unicode="9" horiz-adv-x="530" 
d="M500 481q0 -79 -43 -140l-229 -341h-79l172 256q-27 -6 -56 -6q-104 0 -169 64q-66 64 -66 167q0 101 66 166q67 65 169 65t169 -65q66 -65 66 -166zM145 599q-45 -45 -45 -118t45 -118q47 -45 120 -45q74 0 119 45q46 45 46 118t-46 118q-45 45 -119 45q-73 0 -120 -45z
" />
    <glyph glyph-name="colon" unicode=":" horiz-adv-x="230" 
d="M154 416q-16 -16 -39 -16t-39 16t-16 39t16 39t39 16t39 -16t16 -39t-16 -39zM154 6q-16 -16 -39 -16t-39 16t-16 39t16 39t39 16t39 -16t16 -39t-16 -39z" />
    <glyph glyph-name="semicolon" unicode=";" horiz-adv-x="245" 
d="M169 416q-16 -16 -39 -16t-39 16t-16 39t16 39t39 16t39 -16t16 -39t-16 -39zM100 85h80l-60 -225h-60z" />
    <glyph glyph-name="less" unicode="&#x3c;" horiz-adv-x="520" 
d="M60 385l400 175v-74l-325 -136l325 -136v-74l-400 175v70z" />
    <glyph glyph-name="equal" unicode="=" horiz-adv-x="540" 
d="M480 418h-420v64h420v-64zM480 218h-420v64h420v-64z" />
    <glyph glyph-name="greater" unicode="&#x3e;" horiz-adv-x="520" 
d="M60 486v74l400 -175v-70l-400 -175v74l325 136z" />
    <glyph glyph-name="question" unicode="?" horiz-adv-x="532" 
d="M280 190h-70q0 90 68 158q8 8 32.5 31t35.5 35t27 32.5t22.5 40t6.5 40.5q0 56 -38.5 86.5t-102.5 30.5q-123 0 -152 -101l-59 33q23 65 79.5 100.5t131.5 35.5q88 0 149 -49q62 -48 62 -136q0 -77 -68 -145q-4 -3 -23.5 -21.5t-25.5 -25t-22 -23.5t-22 -28l-15 -27.5
t-12.5 -33t-3.5 -33.5zM284 6q-16 -16 -39 -16t-39 16t-16 39t16 39t39 16t39 -16t16 -39t-16 -39z" />
    <glyph glyph-name="at" unicode="@" horiz-adv-x="794" 
d="M404 612q106 0 188 -52q80 -50 121 -126.5t41 -163.5q0 -107 -43 -159q-44 -53 -101 -53q-43 0 -72.5 22t-39.5 64q-44 -54 -111 -54q-70 0 -116 46t-46 114t46 114t116 46q64 0 106 -48v41h62v-216q0 -96 65 -96q47 0 75.5 45t28.5 134q0 134 -93 224q-91 90 -227 90
q-140 0 -237 -96t-97 -238q0 -146 100 -240t252 -94q99 0 174 29v-30q-75 -27 -174 -27q-164 0 -273 103q-109 102 -109 259q0 150 104 256q105 106 260 106zM317 177q32 -27 74 -27q43 0 72 27q30 28 30 73t-30 72q-28 28 -72 28q-43 0 -74 -28q-30 -27 -30 -72
q0 -44 30 -73z" />
    <glyph glyph-name="A" unicode="A" horiz-adv-x="630" 
d="M620 0h-74l-65 172h-332l-65 -172h-74l269 700h72zM315 613l-141 -375h282z" />
    <glyph glyph-name="B" unicode="B" horiz-adv-x="620" 
d="M468 363q52 -22 82 -67t30 -101q0 -81 -57 -138t-138 -57h-305v700h282q77 0 133 -56q55 -55 55 -132q0 -98 -82 -149zM362 634h-212v-244h212q48 0 83 35q35 37 35 87q0 49 -35 86q-35 36 -83 36zM150 66h235q52 0 88 37q37 37 37 92q0 54 -37 91q-36 38 -88 38h-235
v-258z" />
    <glyph glyph-name="C" unicode="C" horiz-adv-x="745" 
d="M407 -12q-160 0 -263 105q-104 106 -104 257t104 257q103 105 263 105q96 0 177 -46.5t126 -125.5l-62 -36q-33 64 -98 102t-143 38q-132 0 -214 -85q-83 -86 -83 -209t83 -209q82 -85 214 -85q78 0 143 38t98 102l62 -35q-43 -79 -125 -126t-178 -47z" />
    <glyph glyph-name="D" unicode="D" horiz-adv-x="720" 
d="M80 700h270q143 0 236 -102q94 -100 94 -248t-94 -249q-93 -101 -236 -101h-270v700zM150 66h200q115 0 188 82q74 83 74 202t-74 202q-73 82 -188 82h-200v-568z" />
    <glyph glyph-name="E" unicode="E" horiz-adv-x="530" 
d="M150 320v-254h340v-66h-410v700h405v-66h-335v-248h310v-66h-310z" />
    <glyph glyph-name="F" unicode="F" horiz-adv-x="515" 
d="M475 700v-66h-325v-258h310v-66h-310v-310h-70v700h395z" />
    <glyph glyph-name="G" unicode="G" horiz-adv-x="789" 
d="M399 333h350v-36q0 -130 -93 -220q-94 -89 -249 -89q-160 0 -263 105q-104 106 -104 257t104 257q103 105 263 105q96 0 178 -47q81 -47 125 -125l-62 -36q-33 64 -98 102t-143 38q-132 0 -214 -85q-83 -86 -83 -209t83 -209q82 -85 214 -85q118 0 189 59q70 60 81 152
h-278v66z" />
    <glyph glyph-name="H" unicode="H" horiz-adv-x="680" 
d="M530 393v307h70v-700h-70v327h-380v-327h-70v700h70v-307h380z" />
    <glyph glyph-name="I" unicode="I" horiz-adv-x="230" 
d="M80 0v700h70v-700h-70z" />
    <glyph glyph-name="J" unicode="J" horiz-adv-x="553" 
d="M253 -12q-75 0 -132 31t-81 89l59 35q33 -87 154 -87q75 0 117.5 36t42.5 106v502h70v-502q0 -102 -66 -156q-65 -54 -164 -54z" />
    <glyph glyph-name="K" unicode="K" horiz-adv-x="580" 
d="M224 360l346 -360h-92l-328 339v-339h-70v700h70v-320l318 320h92z" />
    <glyph glyph-name="L" unicode="L" horiz-adv-x="490" 
d="M150 700v-634h320v-66h-390v700h70z" />
    <glyph glyph-name="M" unicode="M" horiz-adv-x="800" 
d="M633 700h87v-700h-70v594l-245 -410h-10l-245 410v-594h-70v700h87l233 -390z" />
    <glyph glyph-name="N" unicode="N" horiz-adv-x="680" 
d="M530 130v570h70v-700h-60l-390 570v-570h-70v700h60z" />
    <glyph glyph-name="O" unicode="O" horiz-adv-x="804" 
d="M659 93q-105 -105 -257 -105t-257 105q-105 107 -105 257q0 151 105 256q105 106 257 106t257 -106q105 -105 105 -256q0 -150 -105 -257zM194 141q84 -85 208 -85t208 85t84 209q0 123 -84 208q-84 86 -208 86t-208 -86q-84 -85 -84 -208q0 -124 84 -209z" />
    <glyph glyph-name="P" unicode="P" horiz-adv-x="590" 
d="M80 700h250q94 0 157 -63t63 -157t-63 -157t-157 -63h-180v-260h-70v700zM150 326h180q65 0 107 43q43 43 43 111q0 67 -43 110q-42 44 -107 44h-180v-308z" />
    <glyph glyph-name="Q" unicode="Q" horiz-adv-x="809" 
d="M658 94l80 -78l-47 -43l-81 80q-95 -65 -208 -65q-150 0 -256 106t-106 256t106 256t256 106t256 -106t106 -256t-106 -256zM402 56q85 0 158 46l-152 150l47 43l155 -152q84 85 84 207t-86 208t-206 86q-121 0 -207 -86q-85 -85 -85 -208t85 -208q86 -86 207 -86z" />
    <glyph glyph-name="R" unicode="R" horiz-adv-x="610" 
d="M590 0h-80l-164 280h-196v-280h-70v700h280q86 0 148 -62t62 -148q0 -72 -43 -127q-41 -54 -108 -74zM360 634h-210v-288h210q58 0 99 42q41 44 41 102q0 59 -41 102q-41 42 -99 42z" />
    <glyph glyph-name="S" unicode="S" horiz-adv-x="576" 
d="M300 -12q-96 0 -164.5 45.5t-95.5 125.5l60 35q19 -66 70.5 -102t130.5 -36q77 0 121 34t44 92q0 55 -40 83q-39 28 -132 58q-111 37 -144 58q-80 48 -80 139q0 89 62 140q61 52 153 52q79 0 140 -41.5t91 -109.5l-59 -33q-48 116 -172 116q-66 0 -105.5 -32.5
t-39.5 -88.5q0 -53 36 -78q37 -26 119 -53l54 -19q17 -5 48 -18q34 -13 47 -22q53 -32 67 -59q25 -40 25 -90q0 -89 -65 -143q-65 -53 -171 -53z" />
    <glyph glyph-name="T" unicode="T" horiz-adv-x="540" 
d="M20 700h500v-66h-215v-634h-70v634h-215v66z" />
    <glyph glyph-name="U" unicode="U" horiz-adv-x="660" 
d="M70 238v462h70v-462q0 -85 50.5 -133.5t139.5 -48.5t139.5 48.5t50.5 133.5v462h70v-462q0 -114 -72 -182q-73 -68 -188 -68t-188 68q-72 68 -72 182z" />
    <glyph glyph-name="V" unicode="V" horiz-adv-x="608" 
d="M340 0h-72l-258 700h76l218 -607l218 607h76z" />
    <glyph glyph-name="W" unicode="W" horiz-adv-x="1000" 
d="M317 0h-84l-203 700h74l173 -605l182 605h82l182 -605l173 605h74l-203 -700h-84l-183 608z" />
    <glyph glyph-name="X" unicode="X" horiz-adv-x="580" 
d="M330 361l230 -361h-80l-190 299l-190 -299h-80l230 361l-215 339h79l176 -276l176 276h79z" />
    <glyph glyph-name="Y" unicode="Y" horiz-adv-x="595" 
d="M506 700h79l-253 -413v-287h-70v289l-252 411h79l209 -343z" />
    <glyph glyph-name="Z" unicode="Z" horiz-adv-x="520" 
d="M480 634l-362 -568h372v-66h-450v66l362 568h-352v66h430v-66z" />
    <glyph glyph-name="bracketleft" unicode="[" horiz-adv-x="280" 
d="M260 800v-64h-134v-772h134v-64h-200v900h200z" />
    <glyph glyph-name="backslash" unicode="\" horiz-adv-x="530" 
d="M490 -100h-50l-400 900h50z" />
    <glyph glyph-name="bracketright" unicode="]" horiz-adv-x="280" 
d="M20 800h200v-900h-200v64h134v772h-134v64z" />
    <glyph glyph-name="asciicircum" unicode="^" horiz-adv-x="500" 
d="M216 700h68l176 -300h-77l-133 227l-133 -227h-77z" />
    <glyph glyph-name="underscore" unicode="_" horiz-adv-x="520" 
d="M480 -141h-440v64h440v-64z" />
    <glyph glyph-name="grave" unicode="`" horiz-adv-x="200" 
d="M180 570h-64l-96 130h80z" />
    <glyph glyph-name="a" unicode="a" 
d="M500 402v98h66v-500h-66v98q-69 -110 -202 -110q-107 0 -183 76q-75 76 -75 186t75 186q76 76 183 76q133 0 202 -110zM163 109q57 -57 140 -57t140 57q57 59 57 141q0 83 -57 140q-57 58 -140 58t-140 -58q-57 -57 -57 -140q0 -82 57 -141z" />
    <glyph glyph-name="b" unicode="b" 
d="M338 512q107 0 182 -76q76 -76 76 -186t-76 -186q-75 -76 -182 -76q-133 0 -202 110v-98h-66v700h66v-298q69 110 202 110zM193 109q57 -57 140 -57t140 57q57 59 57 141q0 83 -57 140q-57 58 -140 58t-140 -58q-57 -57 -57 -140q0 -82 57 -141z" />
    <glyph glyph-name="c" unicode="c" horiz-adv-x="552" 
d="M303 -12q-113 0 -188 75q-75 77 -75 187q0 111 75 186q75 76 188 76q74 0 133 -35.5t86 -95.5l-54 -31q-20 45 -64.5 71.5t-100.5 26.5q-83 0 -140 -58q-57 -57 -57 -140q0 -82 57 -141q57 -57 140 -57q55 0 99.5 26t69.5 72l55 -32q-31 -60 -91 -95t-133 -35z" />
    <glyph glyph-name="d" unicode="d" 
d="M500 402v298h66v-700h-66v98q-69 -110 -202 -110q-107 0 -183 76q-75 76 -75 186t75 186q76 76 183 76q133 0 202 -110zM163 109q57 -57 140 -57t140 57q57 59 57 141q0 83 -57 140q-57 58 -140 58t-140 -58q-57 -57 -57 -140q0 -82 57 -141z" />
    <glyph glyph-name="e" unicode="e" horiz-adv-x="584" 
d="M301 512q112 0 179 -79q69 -78 69 -185q0 -5 -2 -31h-439q10 -75 64 -120t135 -45q114 0 161 85l58 -34q-33 -54 -90.5 -84.5t-129.5 -30.5q-118 0 -192 74t-74 188q0 113 73 187q73 75 188 75zM301 448q-78 0 -130.5 -46t-62.5 -121h373q-11 80 -61 123q-52 44 -119 44z
" />
    <glyph glyph-name="f" unicode="f" horiz-adv-x="320" 
d="M320 712v-64q-73 6 -108.5 -25t-35.5 -103v-20h144v-64h-144v-436h-66v436h-85v64h85v20q0 99 54.5 149t155.5 43z" />
    <glyph glyph-name="g" unicode="g" 
d="M500 402v98h66v-480q0 -108 -74 -170t-177 -62q-175 0 -237 122l58 33q45 -91 179 -91q86 0 135.5 45t49.5 123v78q-69 -110 -202 -110q-107 0 -183 76q-75 76 -75 186t75 186q76 76 183 76q133 0 202 -110zM163 109q57 -57 140 -57t140 57q57 59 57 141q0 83 -57 140
q-57 58 -140 58t-140 -58q-57 -57 -57 -140q0 -82 57 -141z" />
    <glyph glyph-name="h" unicode="h" horiz-adv-x="558" 
d="M304 512q90 0 143 -55.5t53 -149.5v-307h-66v307q0 67 -35.5 104t-100.5 37q-75 0 -118.5 -47t-43.5 -139v-262h-66v700h66v-278q56 90 168 90z" />
    <glyph glyph-name="i" unicode="i" horiz-adv-x="206" 
d="M137 620q-14 -14 -34 -14t-34 14t-14 34t14 34t34 14t34 -14t14 -34t-14 -34zM136 0h-66v500h66v-500z" />
    <glyph glyph-name="j" unicode="j" horiz-adv-x="230" 
d="M93 688q14 14 34 14t34 -14t14 -34t-14 -34t-34 -14t-34 14t-14 34t14 34zM94 -40v540h66v-540q0 -90 -47 -135t-133 -37v64q60 -6 87 19.5t27 88.5z" />
    <glyph glyph-name="k" unicode="k" horiz-adv-x="494" 
d="M206 260l268 -260h-88l-250 241v-241h-66v700h66v-421l238 221h90z" />
    <glyph glyph-name="l" unicode="l" horiz-adv-x="206" 
d="M136 0h-66v730h66v-730z" />
    <glyph glyph-name="m" unicode="m" horiz-adv-x="848" 
d="M603 512q85 0 136 -54t51 -146v-312h-66v312q0 64 -33 100t-89 36q-65 0 -102 -43t-37 -128v-277h-66v312q0 65 -31 100.5t-86 35.5q-63 0 -103.5 -44t-40.5 -127v-277h-66v500h66v-73q54 85 153 85q109 0 152 -91q54 91 162 91z" />
    <glyph glyph-name="n" unicode="n" horiz-adv-x="558" 
d="M304 512q90 0 143 -55.5t53 -149.5v-307h-66v307q0 67 -35.5 104t-100.5 37q-75 0 -118.5 -47t-43.5 -139v-262h-66v500h66v-78q56 90 168 90z" />
    <glyph glyph-name="o" unicode="o" horiz-adv-x="606" 
d="M489 63q-77 -75 -186 -75q-111 0 -187 75q-76 76 -76 187t76 186q76 76 187 76q110 0 186 -76q77 -75 77 -186q0 -110 -77 -187zM163 109q57 -57 140 -57t140 57q57 59 57 141q0 83 -57 140q-57 58 -140 58t-140 -58q-57 -57 -57 -140q0 -82 57 -141z" />
    <glyph glyph-name="p" unicode="p" 
d="M338 512q107 0 182 -76q76 -76 76 -186t-76 -186q-75 -76 -182 -76q-133 0 -202 110v-298h-66v700h66v-98q69 110 202 110zM193 109q57 -57 140 -57t140 57q57 59 57 141q0 83 -57 140q-57 58 -140 58t-140 -58q-57 -57 -57 -140q0 -82 57 -141z" />
    <glyph glyph-name="q" unicode="q" 
d="M500 402v98h66v-700h-66v298q-69 -110 -202 -110q-107 0 -183 76q-75 76 -75 186t75 186q76 76 183 76q133 0 202 -110zM163 109q57 -57 140 -57t140 57q57 59 57 141q0 83 -57 140q-57 58 -140 58t-140 -58q-57 -57 -57 -140q0 -82 57 -141z" />
    <glyph glyph-name="r" unicode="r" horiz-adv-x="314" 
d="M136 500v-83q46 91 158 91v-64q-72 0 -115 -41.5t-43 -124.5v-278h-66v500h66z" />
    <glyph glyph-name="s" unicode="s" horiz-adv-x="454" 
d="M122 369q0 -58 103 -85q29 -7 38 -9.5t35.5 -11t37 -14.5t29.5 -18.5t27 -25t15 -32t7 -41.5q0 -64 -51 -104q-49 -40 -130 -40q-70 0 -121 31.5t-72 83.5l56 33q14 -39 50.5 -61.5t86.5 -22.5q51 0 83 20t32 60q0 58 -103 85q-29 7 -38 9.5t-35.5 11t-37 14.5
t-29.5 18.5t-27 25t-15 32t-7 41.5q0 61 48 102q50 41 123 41q60 0 106.5 -27t68.5 -75l-55 -32q-28 70 -120 70q-45 0 -75 -21t-30 -58z" />
    <glyph glyph-name="t" unicode="t" horiz-adv-x="375" 
d="M335 500v-64h-144v-303q0 -41 16 -58.5t48 -18t80 1.5v-58q-107 -16 -158.5 15.5t-51.5 117.5v303h-105v64h105v120l66 20v-140h144z" />
    <glyph glyph-name="u" unicode="u" horiz-adv-x="558" 
d="M422 238v262h66v-500h-66v78q-56 -90 -168 -90q-90 0 -143 55.5t-53 149.5v307h66v-307q0 -67 35.5 -104t100.5 -37q75 0 118.5 47t43.5 139z" />
    <glyph glyph-name="v" unicode="v" horiz-adv-x="510" 
d="M255 69l175 431h70l-205 -500h-80l-205 500h70z" />
    <glyph glyph-name="w" unicode="w" horiz-adv-x="770" 
d="M549 85l123 415h68l-154 -500h-72l-129 403l-129 -403h-72l-154 500h68l123 -415l131 415h66z" />
    <glyph glyph-name="x" unicode="x" horiz-adv-x="510" 
d="M295 259l195 -259h-79l-156 206l-156 -206h-79l196 259l-183 241h79l143 -189l143 189h79z" />
    <glyph glyph-name="y" unicode="y" horiz-adv-x="510" 
d="M268 81l162 419h70l-214 -546q-30 -76 -83.5 -117.5t-118.5 -36.5v62q90 -11 137 104l13 31l-224 503h70z" />
    <glyph glyph-name="z" unicode="z" horiz-adv-x="470" 
d="M420 456l-278 -392h288v-64h-380v44l278 392h-268v64h360v-44z" />
    <glyph glyph-name="braceleft" unicode="{" horiz-adv-x="354" 
d="M334 -44v-64q-88 -8 -134 32.5t-46 129.5v167q0 58 -23 78t-81 20v64q58 0 81 20t23 78v167q0 89 46 129.5t134 32.5v-64q-61 6 -87.5 -15.5t-26.5 -82.5v-167q0 -107 -78 -130q78 -23 78 -130v-167q0 -61 26.5 -82.5t87.5 -15.5z" />
    <glyph glyph-name="bar" unicode="|" horiz-adv-x="226" 
d="M146 -200h-66v920h66v-920z" />
    <glyph glyph-name="braceright" unicode="}" horiz-adv-x="354" 
d="M20 -108v64q61 -6 87.5 15.5t26.5 82.5v167q0 107 78 130q-78 23 -78 130v167q0 61 -26.5 82.5t-87.5 15.5v64q88 8 134 -32.5t46 -129.5v-167q0 -58 23 -78t81 -20v-64q-58 0 -81 -20t-23 -78v-167q0 -89 -46 -129.5t-134 -32.5z" />
    <glyph glyph-name="asciitilde" unicode="~" horiz-adv-x="594" 
d="M474 414l60 -28q-55 -178 -252 -64q-77 44 -112 33q-33 -10 -50 -69l-60 28q27 86 90 103t162 -39q50 -31 83 -34.5t50.5 14t28.5 56.5z" />
    <glyph glyph-name="exclamdown" unicode="&#xa1;" horiz-adv-x="230" 
d="M76 494q16 16 39 16t39 -16t16 -39t-16 -39t-39 -16t-39 16t-16 39t16 39zM75 0l15 310h50l15 -310v-200h-80v200z" />
    <glyph glyph-name="cent" unicode="&#xa2;" horiz-adv-x="552" 
d="M472 250l55 -32q-31 -60 -91 -95t-133 -35q-31 0 -68 8l-31 -96h-50l36 112q-69 30 -109.5 94t-40.5 144q0 111 75 186q75 76 188 76q30 0 47 -4l30 92h50l-34 -105q88 -33 126 -114l-54 -31q-29 59 -91 84l-122 -376q23 -6 48 -6q55 0 99.5 26t69.5 72zM106 350
q0 -57 28 -104t76 -72l120 372q-24 2 -27 2q-83 0 -140 -58q-57 -57 -57 -140z" />
    <glyph glyph-name="sterling" unicode="&#xa3;" horiz-adv-x="585" 
d="M204 289v-221h366v-68h-530v68h94v221h-74v62h74v151q0 101 61 155q61 55 144 55q137 0 191 -134l-57 -32q-36 98 -134 98q-60 0 -97.5 -36.5t-37.5 -105.5v-151h231v-62h-231z" />
    <glyph glyph-name="currency" unicode="&#xa4;" horiz-adv-x="552" 
d="M442 216l70 -70l-32 -32l-70 70q-58 -46 -134 -46t-134 46l-70 -70l-32 32l70 70q-47 59 -47 134t47 134l-70 70l32 32l70 -70q58 46 134 46t134 -46l70 70l32 -32l-70 -70q47 -56 47 -134t-47 -134zM171 455q-42 -43 -42 -105t42 -105q43 -43 105 -43t104 43
q43 43 43 105t-43 105q-42 43 -104 43t-105 -43z" />
    <glyph glyph-name="yen" unicode="&#xa5;" horiz-adv-x="575" 
d="M506 700h79l-216 -353h134v-58h-170l-1 -2v-58h171v-58h-171v-171h-70v171h-189v58h189v60h-189v58h153l-216 353h79l209 -343z" />
    <glyph glyph-name="brokenbar" unicode="&#xa6;" horiz-adv-x="226" 
d="M146 350h-66v370h66v-370zM146 -200h-66v370h66v-370z" />
    <glyph glyph-name="section" unicode="&#xa7;" horiz-adv-x="510" 
d="M406 139q44 -42 44 -103q0 -63 -50 -105q-49 -43 -130 -43q-158 0 -209 133l56 32q32 -101 153 -101q51 0 82.5 22.5t31.5 61.5q0 29 -24 53q-22 22 -47 35.5t-81 36.5l-15 6q-67 28 -108 62q-49 43 -49 110q0 74 71 125q-41 41 -41 100q0 62 48 105q47 43 123 43
q132 0 181 -120l-54 -31q-34 87 -127 87q-44 0 -74.5 -23t-30.5 -61q0 -29 22 -52q22 -22 47 -36q24 -12 72 -33l16 -7q79 -36 118 -75.5t39 -99.5q0 -73 -64 -122zM126 339q0 -39 29 -66t87 -49q80 -30 113 -49q49 34 49 86q0 40 -29 66.5t-90 51.5q-71 27 -105 48
q-54 -33 -54 -88z" />
    <glyph glyph-name="dieresis" unicode="&#xa8;" horiz-adv-x="320" 
d="M97 588q-13 -13 -32 -13t-32 13t-13 32t13 32t32 13t32 -13t13 -32t-13 -32zM287 588q-13 -13 -32 -13t-32 13t-13 32t13 32t32 13t32 -13t13 -32t-13 -32z" />
    <glyph glyph-name="copyright" unicode="&#xa9;" horiz-adv-x="804" 
d="M658 94q-106 -106 -256 -106t-256 106t-106 256t106 256t256 106t256 -106t106 -256t-106 -256zM167 113q97 -97 235 -97q137 0 234 97q98 98 98 237q0 138 -98 236t-234 98q-137 0 -235 -98q-97 -97 -97 -236q0 -140 97 -237zM405 158q-82 0 -138 56t-56 136t56 136
t138 56q53 0 96.5 -25t67.5 -68l-55 -32q-14 30 -43.5 46.5t-65.5 16.5q-58 0 -94 -39q-35 -38 -35 -91q0 -52 35 -92q36 -38 94 -38q37 0 66.5 17t43.5 47l55 -33q-24 -43 -68 -68t-97 -25z" />
    <glyph glyph-name="guillemotleft" unicode="&#xab;" horiz-adv-x="492" 
d="M180 489h82l-110 -180l110 -180h-82l-110 180zM340 489h82l-110 -180l110 -180h-82l-110 180z" />
    <glyph glyph-name="logicalnot" unicode="&#xac;" horiz-adv-x="520" 
d="M60 318v64h400v-180h-66v116h-334z" />
    <glyph glyph-name="registered" unicode="&#xae;" horiz-adv-x="804" 
d="M146 606q106 106 256 106t256 -106t106 -256t-106 -256t-256 -106t-256 106t-106 256t106 256zM167 113q97 -97 235 -97q137 0 234 97q98 98 98 237q0 138 -98 236t-234 98q-137 0 -235 -98q-97 -97 -97 -236q0 -140 97 -237zM546 416q0 -80 -68 -107l78 -144h-69
l-71 132h-10h-52v-132h-62v370h114q64 0 102 -33.5t38 -85.5zM410 475h-56v-118h56q35 0 54.5 16t19.5 43t-19.5 43t-54.5 16z" />
    <glyph glyph-name="overscore" unicode="&#xaf;" horiz-adv-x="300" 
d="M280 580h-260v58h260v-58z" />
    <glyph glyph-name="degree" unicode="&#xb0;" horiz-adv-x="386" 
d="M193 510q-66 0 -109 43q-44 44 -44 107q0 62 44 106t109 44t109 -44t44 -106q0 -64 -43 -107t-110 -43zM129 596q25 -26 64 -26t64 26t25 64t-25 64t-64 26t-64 -26t-25 -64t25 -64z" />
    <glyph glyph-name="plusminus" unicode="&#xb1;" horiz-adv-x="540" 
d="M302 610v-163h178v-64h-178v-163h-64v163h-178v64h178v163h64zM480 90h-420v64h420v-64z" />
    <glyph glyph-name="acute" unicode="&#xb4;" horiz-adv-x="200" 
d="M20 570l80 130h80l-96 -130h-64z" />
    <glyph glyph-name="uni00B5" unicode="&#xb5;" horiz-adv-x="606" 
d="M537 64h39v-64h-47q-38 0 -63 22t-31 59q-55 -93 -169 -93q-85 0 -130 51v-239h-66v700h66v-307q0 -67 35.5 -104t100.5 -37q75 0 118.5 47t43.5 139v262h66v-400q0 -16 10 -26t27 -10z" />
    <glyph glyph-name="paragraph" unicode="&#xb6;" horiz-adv-x="580" 
d="M240 700h300v-62h-60v-838h-64v838h-112v-838h-64v500q-84 0 -142 58t-58 142q0 83 58 141q59 59 142 59z" />
    <glyph glyph-name="middot" unicode="&#xb7;" horiz-adv-x="230" 
d="M154 311q-16 -16 -39 -16t-39 16t-16 39t16 39t39 16t39 -16t16 -39t-16 -39z" />
    <glyph glyph-name="cedilla" unicode="&#xb8;" horiz-adv-x="245" 
d="M132 0v-45q43 -8 68 -29.5t25 -51.5q0 -102 -205 -90v54q147 -12 147 36q0 38 -93 41v85h58z" />
    <glyph glyph-name="guillemotright" unicode="&#xbb;" horiz-adv-x="492" 
d="M70 489h82l110 -180l-110 -180h-82l110 180zM230 489h82l110 -180l-110 -180h-82l110 180z" />
    <glyph glyph-name="onequarter" unicode="&#xbc;" horiz-adv-x="821" 
d="M179 700v-400h-62v332l-91 -27l-16 53l116 42h53zM127 0l400 700h60l-400 -700h-60zM750 133h51v-58h-51v-75h-62v75h-206v58l149 267h67l-148 -267h138v96h62v-96z" />
    <glyph glyph-name="onehalf" unicode="&#xbd;" horiz-adv-x="807" 
d="M179 700v-400h-62v332l-91 -27l-16 53l116 42h53zM127 0l400 700h60l-400 -700h-60zM708 165l-118 -105h188v-60h-280v51l168 154q42 37 42 85q0 28 -19.5 45t-52.5 17q-61 0 -87 -62l-52 29q37 93 139 93q59 0 96.5 -35t37.5 -87q0 -69 -62 -125z" />
    <glyph glyph-name="threequarters" unicode="&#xbe;" horiz-adv-x="926" 
d="M313 417q0 -58 -40 -93.5t-106 -35.5q-101 0 -142 84l52 30q25 -54 90 -54q40 0 62 18.5t22 50.5q0 31 -22.5 50t-61.5 19h-4l-31 47l90 107h-184v60h258v-60l-89 -106q50 -10 78 -40.5t28 -76.5zM232 0l400 700h60l-400 -700h-60zM855 133h51v-58h-51v-75h-62v75h-206
v58l149 267h67l-148 -267h138v96h62v-96z" />
    <glyph glyph-name="questiondown" unicode="&#xbf;" horiz-adv-x="532" 
d="M248 494q16 16 39 16t39 -16t16 -39t-16 -39t-39 -16t-39 16t-16 39t16 39zM252 310h70q0 -90 -68 -158q-8 -8 -32.5 -31t-35.5 -35t-27 -32.5t-22.5 -40t-6.5 -40.5q0 -56 38.5 -86.5t102.5 -30.5q123 0 152 101l59 -33q-23 -65 -79.5 -100.5t-131.5 -35.5
q-89 0 -150 49q-61 48 -61 136q0 78 68 144q6 6 27.5 26.5t29.5 29.5t24.5 28.5t23.5 33.5t13 34.5t6 40.5z" />
    <glyph glyph-name="Agrave" unicode="&#xc0;" horiz-adv-x="630" 
d="M295 900l80 -130h-64l-96 130h80zM620 0h-74l-65 172h-332l-65 -172h-74l269 700h72zM315 613l-141 -375h282z" />
    <glyph glyph-name="Aacute" unicode="&#xc1;" horiz-adv-x="630" 
d="M345 900h80l-96 -130h-64zM620 0h-74l-65 172h-332l-65 -172h-74l269 700h72zM315 613l-141 -375h282z" />
    <glyph glyph-name="Acircumflex" unicode="&#xc2;" horiz-adv-x="630" 
d="M385 770l-70 87l-70 -87h-75l106 130h78l106 -130h-75zM620 0h-74l-65 172h-332l-65 -172h-74l269 700h72zM315 613l-141 -375h282z" />
    <glyph glyph-name="Atilde" unicode="&#xc3;" horiz-adv-x="630" 
d="M315 803q-43 32 -60 33q-12 1 -17 -12.5t-5 -43.5h-58q0 58 21 87.5t53 28t67 -28.5q22 -17 35 -24.5t24.5 -8t16.5 13t5 42.5h58q0 -58 -21 -87.5t-52.5 -28t-66.5 28.5zM620 0h-74l-65 172h-332l-65 -172h-74l269 700h72zM315 613l-141 -375h282z" />
    <glyph glyph-name="Adieresis" unicode="&#xc4;" horiz-adv-x="630" 
d="M252 788q-13 -13 -32 -13t-32 13t-13 32t13 32t32 13t32 -13t13 -32t-13 -32zM442 788q-13 -13 -32 -13t-32 13t-13 32t13 32t32 13t32 -13t13 -32t-13 -32zM620 0h-74l-65 172h-332l-65 -172h-74l269 700h72zM315 613l-141 -375h282z" />
    <glyph glyph-name="Aring" unicode="&#xc5;" horiz-adv-x="630" 
d="M620 0h-74l-65 172h-332l-65 -172h-74l257 669q-58 25 -58 91q0 43 29.5 71.5t76.5 28.5t76.5 -28.5t29.5 -71.5q0 -66 -58 -91zM315 809q-31 3 -44.5 -23t0 -52t44.5 -23q32 -3 46 23t0 52t-46 23zM315 613l-141 -375h282z" />
    <glyph glyph-name="AE" unicode="&#xc6;" horiz-adv-x="880" 
d="M520 320v-254h320v-66h-390v172h-265l-105 -172h-80l145 237v1h1l283 462h406v-66h-315v-248h300v-66h-300zM450 607l-225 -369h225v369z" />
    <glyph glyph-name="Ccedilla" unicode="&#xc7;" horiz-adv-x="745" 
d="M407 56q78 0 143 38t98 102l62 -35q-40 -73 -113.5 -119t-162.5 -53v-34q43 -8 68 -29.5t25 -51.5q0 -102 -205 -90v54q147 -12 147 36q0 38 -93 41v74q-148 11 -242 114t-94 247q0 151 104 257q103 105 263 105q96 0 177 -46.5t126 -125.5l-62 -36q-33 64 -98 102
t-143 38q-132 0 -214 -85q-83 -86 -83 -209t83 -209q82 -85 214 -85z" />
    <glyph glyph-name="Egrave" unicode="&#xc8;" horiz-adv-x="530" 
d="M263 900l80 -130h-64l-96 130h80zM150 320v-254h340v-66h-410v700h405v-66h-335v-248h310v-66h-310z" />
    <glyph glyph-name="Eacute" unicode="&#xc9;" horiz-adv-x="530" 
d="M313 900h80l-96 -130h-64zM150 320v-254h340v-66h-410v700h405v-66h-335v-248h310v-66h-310z" />
    <glyph glyph-name="Ecircumflex" unicode="&#xca;" horiz-adv-x="530" 
d="M353 770l-70 87l-70 -87h-75l106 130h78l106 -130h-75zM150 320v-254h340v-66h-410v700h405v-66h-335v-248h310v-66h-310z" />
    <glyph glyph-name="Edieresis" unicode="&#xcb;" horiz-adv-x="530" 
d="M220 788q-13 -13 -32 -13t-32 13t-13 32t13 32t32 13t32 -13t13 -32t-13 -32zM410 788q-13 -13 -32 -13t-32 13t-13 32t13 32t32 13t32 -13t13 -32t-13 -32zM150 320v-254h340v-66h-410v700h405v-66h-335v-248h310v-66h-310z" />
    <glyph glyph-name="Igrave" unicode="&#xcc;" horiz-adv-x="230" 
d="M175 770h-64l-96 130h80zM80 700v-700h70v700h-70z" />
    <glyph glyph-name="Iacute" unicode="&#xcd;" horiz-adv-x="230" 
d="M65 770l80 130h80l-96 -130h-64zM80 700v-700h70v700h-70z" />
    <glyph glyph-name="Icircumflex" unicode="&#xce;" horiz-adv-x="230" 
d="M76 900h78l106 -130h-75l-70 87l-70 -87h-75zM150 0h-70v700h70v-700z" />
    <glyph glyph-name="Idieresis" unicode="&#xcf;" horiz-adv-x="230" 
d="M52 788q-13 -13 -32 -13t-32 13t-13 32t13 32t32 13t32 -13t13 -32t-13 -32zM242 788q-13 -13 -32 -13t-32 13t-13 32t13 32t32 13t32 -13t13 -32t-13 -32zM80 0v700h70v-700h-70z" />
    <glyph glyph-name="Eth" unicode="&#xd0;" horiz-adv-x="740" 
d="M100 700h270q143 0 236 -102q94 -100 94 -248t-94 -249q-93 -101 -236 -101h-270v318h-70v64h70v318zM170 66h200q115 0 188 82q74 83 74 202t-74 202q-73 82 -188 82h-200v-252h220v-64h-220v-252z" />
    <glyph glyph-name="Ntilde" unicode="&#xd1;" horiz-adv-x="680" 
d="M258 780h-58q0 58 21 87.5t53 28t67 -28.5q22 -17 35 -24.5t24.5 -8t16.5 13t5 42.5h58q0 -58 -21 -87.5t-52.5 -28t-66.5 28.5q-43 32 -60 33q-12 1 -17 -12.5t-5 -43.5zM530 130v570h70v-700h-60l-390 570v-570h-70v700h60z" />
    <glyph glyph-name="Ograve" unicode="&#xd2;" horiz-adv-x="804" 
d="M462 770h-64l-96 130h80zM659 93q105 107 105 257q0 151 -105 256q-105 106 -257 106t-257 -106q-105 -105 -105 -256q0 -150 105 -257q105 -105 257 -105t257 105zM194 141q-84 85 -84 209q0 123 84 208q84 86 208 86t208 -86q84 -85 84 -208q0 -124 -84 -209t-208 -85
t-208 85z" />
    <glyph glyph-name="Oacute" unicode="&#xd3;" horiz-adv-x="804" 
d="M352 770l80 130h80l-96 -130h-64zM659 93q105 107 105 257q0 151 -105 256q-105 106 -257 106t-257 -106q-105 -105 -105 -256q0 -150 105 -257q105 -105 257 -105t257 105zM194 141q-84 85 -84 209q0 123 84 208q84 86 208 86t208 -86q84 -85 84 -208q0 -124 -84 -209
t-208 -85t-208 85z" />
    <glyph glyph-name="Ocircumflex" unicode="&#xd4;" horiz-adv-x="804" 
d="M472 770l-70 87l-70 -87h-75l106 130h78l106 -130h-75zM145 606q105 106 257 106t257 -106q105 -105 105 -256q0 -150 -105 -257q-105 -105 -257 -105t-257 105q-105 107 -105 257q0 151 105 256zM194 141q84 -85 208 -85t208 85t84 209q0 123 -84 208q-84 86 -208 86
t-208 -86q-84 -85 -84 -208q0 -124 84 -209z" />
    <glyph glyph-name="Otilde" unicode="&#xd5;" horiz-adv-x="804" 
d="M320 780h-58q0 58 21 87.5t53 28t67 -28.5q22 -17 35 -24.5t24.5 -8t16.5 13t5 42.5h58q0 -58 -21 -87.5t-52.5 -28t-66.5 28.5q-43 32 -60 33q-12 1 -17 -12.5t-5 -43.5zM659 93q-105 -105 -257 -105t-257 105q-105 107 -105 257q0 151 105 256q105 106 257 106
t257 -106q105 -105 105 -256q0 -150 -105 -257zM194 141q84 -85 208 -85t208 85t84 209q0 123 -84 208q-84 86 -208 86t-208 -86q-84 -85 -84 -208q0 -124 84 -209z" />
    <glyph glyph-name="Odieresis" unicode="&#xd6;" horiz-adv-x="804" 
d="M339 788q-13 -13 -32 -13t-32 13t-13 32t13 32t32 13t32 -13t13 -32t-13 -32zM529 788q-13 -13 -32 -13t-32 13t-13 32t13 32t32 13t32 -13t13 -32t-13 -32zM659 93q-105 -105 -257 -105t-257 105q-105 107 -105 257q0 151 105 256q105 106 257 106t257 -106
q105 -105 105 -256q0 -150 -105 -257zM194 141q84 -85 208 -85t208 85t84 209q0 123 -84 208q-84 86 -208 86t-208 -86q-84 -85 -84 -208q0 -124 84 -209z" />
    <glyph glyph-name="multiply" unicode="&#xd7;" horiz-adv-x="471" 
d="M376 534l45 -42l-142 -142l142 -142l-45 -42l-140 141l-141 -141l-45 42l142 142l-142 142l45 42l141 -140z" />
    <glyph glyph-name="Oslash" unicode="&#xd8;" horiz-adv-x="814" 
d="M724 673l-56 -65q106 -106 106 -258q0 -150 -105 -257q-105 -105 -257 -105q-119 0 -215 69l-49 -57l-47 27l56 65q-107 105 -107 258q0 151 105 256q105 106 257 106q122 0 216 -70l49 58zM120 350q0 -120 81 -206l382 446q-77 54 -171 54q-124 0 -208 -86
q-84 -85 -84 -208zM412 56q124 0 208 85t84 209q0 121 -81 205l-381 -446q76 -53 170 -53z" />
    <glyph glyph-name="Ugrave" unicode="&#xd9;" horiz-adv-x="660" 
d="M390 770h-64l-96 130h80zM70 238q0 -114 72 -182q73 -68 188 -68t188 68q72 68 72 182v462h-70v-462q0 -85 -50.5 -133.5t-139.5 -48.5t-139.5 48.5t-50.5 133.5v462h-70v-462z" />
    <glyph glyph-name="Uacute" unicode="&#xda;" horiz-adv-x="660" 
d="M280 770l80 130h80l-96 -130h-64zM70 238q0 -114 72 -182q73 -68 188 -68t188 68q72 68 72 182v462h-70v-462q0 -85 -50.5 -133.5t-139.5 -48.5t-139.5 48.5t-50.5 133.5v462h-70v-462z" />
    <glyph glyph-name="Ucircumflex" unicode="&#xdb;" horiz-adv-x="660" 
d="M400 770l-70 87l-70 -87h-75l106 130h78l106 -130h-75zM520 238v462h70v-462q0 -114 -72 -182q-73 -68 -188 -68t-188 68q-72 68 -72 182v462h70v-462q0 -85 50.5 -133.5t139.5 -48.5t139.5 48.5t50.5 133.5z" />
    <glyph glyph-name="Udieresis" unicode="&#xdc;" horiz-adv-x="660" 
d="M267 788q-13 -13 -32 -13t-32 13t-13 32t13 32t32 13t32 -13t13 -32t-13 -32zM457 788q-13 -13 -32 -13t-32 13t-13 32t13 32t32 13t32 -13t13 -32t-13 -32zM70 238v462h70v-462q0 -85 50.5 -133.5t139.5 -48.5t139.5 48.5t50.5 133.5v462h70v-462q0 -114 -72 -182
q-73 -68 -188 -68t-188 68q-72 68 -72 182z" />
    <glyph glyph-name="Yacute" unicode="&#xdd;" horiz-adv-x="595" 
d="M324 900h80l-96 -130h-64zM506 700h79l-253 -413v-287h-70v289l-252 411h79l209 -343z" />
    <glyph glyph-name="Thorn" unicode="&#xde;" horiz-adv-x="590" 
d="M150 570h180q94 0 157 -63t63 -157t-63 -157t-157 -63h-180v-130h-70v700h70v-130zM150 196h180q65 0 107 43q43 43 43 111q0 67 -43 110q-42 44 -107 44h-180v-308z" />
    <glyph glyph-name="germandbls" unicode="&#xdf;" horiz-adv-x="516" 
d="M289 -3v60q141 -7 141 84q0 60 -72 130q-72 72 -72 123q-2 24 44 80t44 81q0 44 -29.5 68.5t-79.5 24.5q-57 0 -93 -33.5t-36 -99.5v-515h-66v515q0 91 54 144q56 53 141 53q81 0 128 -45t47 -112q2 -29 -21 -62.5t-46 -60t-21 -38.5q0 -38 72 -104q30 -27 51 -68t21 -81
q0 -72 -55 -111.5t-152 -32.5z" />
    <glyph glyph-name="agrave" unicode="&#xe0;" 
d="M285 700l80 -130h-64l-96 130h80zM500 402v98h66v-500h-66v98q-69 -110 -202 -110q-107 0 -183 76q-75 76 -75 186t75 186q76 76 183 76q133 0 202 -110zM163 109q57 -57 140 -57t140 57q57 59 57 141q0 83 -57 140q-57 58 -140 58t-140 -58q-57 -57 -57 -140
q0 -82 57 -141z" />
    <glyph glyph-name="aacute" unicode="&#xe1;" 
d="M335 700h80l-96 -130h-64zM500 402v98h66v-500h-66v98q-69 -110 -202 -110q-107 0 -183 76q-75 76 -75 186t75 186q76 76 183 76q133 0 202 -110zM163 109q57 -57 140 -57t140 57q57 59 57 141q0 83 -57 140q-57 58 -140 58t-140 -58q-57 -57 -57 -140q0 -82 57 -141z
" />
    <glyph glyph-name="acircumflex" unicode="&#xe2;" 
d="M375 570l-70 87l-70 -87h-75l106 130h78l106 -130h-75zM500 402v98h66v-500h-66v98q-69 -110 -202 -110q-107 0 -183 76q-75 76 -75 186t75 186q76 76 183 76q133 0 202 -110zM163 109q57 -57 140 -57t140 57q57 59 57 141q0 83 -57 140q-57 58 -140 58t-140 -58
q-57 -57 -57 -140q0 -82 57 -141z" />
    <glyph glyph-name="atilde" unicode="&#xe3;" 
d="M305 603q-43 32 -60 33q-12 1 -17 -12.5t-5 -43.5h-58q0 58 21 87.5t53 28t67 -28.5q22 -17 35 -24.5t24.5 -8t16.5 13t5 42.5h58q0 -58 -21 -87.5t-52.5 -28t-66.5 28.5zM500 402v98h66v-500h-66v98q-69 -110 -202 -110q-107 0 -183 76q-75 76 -75 186t75 186
q76 76 183 76q133 0 202 -110zM163 109q57 -57 140 -57t140 57q57 59 57 141q0 83 -57 140q-57 58 -140 58t-140 -58q-57 -57 -57 -140q0 -82 57 -141z" />
    <glyph glyph-name="adieresis" unicode="&#xe4;" 
d="M242 588q-13 -13 -32 -13t-32 13t-13 32t13 32t32 13t32 -13t13 -32t-13 -32zM432 588q-13 -13 -32 -13t-32 13t-13 32t13 32t32 13t32 -13t13 -32t-13 -32zM500 402v98h66v-500h-66v98q-69 -110 -202 -110q-107 0 -183 76q-75 76 -75 186t75 186q76 76 183 76
q133 0 202 -110zM163 109q57 -57 140 -57t140 57q57 59 57 141q0 83 -57 140q-57 58 -140 58t-140 -58q-57 -57 -57 -140q0 -82 57 -141z" />
    <glyph glyph-name="aring" unicode="&#xe5;" 
d="M381 578q-28 -28 -76 -28t-77 28q-29 29 -29 72q0 42 29 71q31 29 77 29q47 0 76 -29q30 -29 30 -71q0 -44 -30 -72zM305 699q-31 3 -44.5 -23t0 -52t44.5 -23q32 -3 46 23t0 52t-46 23zM500 402v98h66v-500h-66v98q-69 -110 -202 -110q-107 0 -183 76q-75 76 -75 186
t75 186q76 76 183 76q133 0 202 -110zM163 109q57 -57 140 -57t140 57q57 59 57 141q0 83 -57 140q-57 58 -140 58t-140 -58q-57 -57 -57 -140q0 -82 57 -141z" />
    <glyph glyph-name="ae" unicode="&#xe6;" horiz-adv-x="1042" 
d="M763 512q114 0 178 -78q66 -76 66 -186q0 -5 -2 -31h-437q10 -76 62 -120.5t131 -44.5q117 0 165 85l58 -34q-33 -54 -89.5 -84.5t-124.5 -30.5q-141 0 -204 109v-97h-66v98q-69 -110 -202 -110q-107 0 -183 76q-75 76 -75 186t75 186q76 76 183 76q133 0 202 -110v98h66
v-100q63 112 197 112zM163 109q57 -57 140 -57t140 57q57 59 57 141q0 83 -57 140q-57 58 -140 58t-140 -58q-57 -57 -57 -140q0 -82 57 -141zM760 448q-80 0 -131.5 -45.5t-60.5 -121.5h371q-9 77 -58.5 122t-120.5 45z" />
    <glyph glyph-name="ccedilla" unicode="&#xe7;" horiz-adv-x="552" 
d="M472 150l55 -32q-28 -54 -80.5 -88.5t-117.5 -40.5v-34q43 -8 68 -29.5t25 -51.5q0 -102 -205 -90v54q147 -12 147 36q0 38 -93 41v75q-102 11 -166 84q-65 74 -65 176q0 111 75 186q75 76 188 76q74 0 133 -35.5t86 -95.5l-54 -31q-20 45 -64.5 71.5t-100.5 26.5
q-83 0 -140 -58q-57 -57 -57 -140q0 -82 57 -141q57 -57 140 -57q55 0 99.5 26t69.5 72z" />
    <glyph glyph-name="egrave" unicode="&#xe8;" horiz-adv-x="584" 
d="M275 700l80 -130h-64l-96 130h80zM301 512q112 0 179 -79q69 -78 69 -185q0 -5 -2 -31h-439q10 -75 64 -120t135 -45q114 0 161 85l58 -34q-33 -54 -90.5 -84.5t-129.5 -30.5q-118 0 -192 74t-74 188q0 113 73 187q73 75 188 75zM301 448q-78 0 -130.5 -46t-62.5 -121
h373q-11 80 -61 123q-52 44 -119 44z" />
    <glyph glyph-name="eacute" unicode="&#xe9;" horiz-adv-x="584" 
d="M325 700h80l-96 -130h-64zM301 512q112 0 179 -79q69 -78 69 -185q0 -5 -2 -31h-439q10 -75 64 -120t135 -45q114 0 161 85l58 -34q-33 -54 -90.5 -84.5t-129.5 -30.5q-118 0 -192 74t-74 188q0 113 73 187q73 75 188 75zM301 448q-78 0 -130.5 -46t-62.5 -121h373
q-11 80 -61 123q-52 44 -119 44z" />
    <glyph glyph-name="ecircumflex" unicode="&#xea;" horiz-adv-x="584" 
d="M365 570l-70 87l-70 -87h-75l106 130h78l106 -130h-75zM301 512q112 0 179 -79q69 -78 69 -185q0 -5 -2 -31h-439q10 -75 64 -120t135 -45q114 0 161 85l58 -34q-33 -54 -90.5 -84.5t-129.5 -30.5q-118 0 -192 74t-74 188q0 113 73 187q73 75 188 75zM301 448
q-78 0 -130.5 -46t-62.5 -121h373q-11 80 -61 123q-52 44 -119 44z" />
    <glyph glyph-name="edieresis" unicode="&#xeb;" horiz-adv-x="584" 
d="M232 588q-13 -13 -32 -13t-32 13t-13 32t13 32t32 13t32 -13t13 -32t-13 -32zM422 588q-13 -13 -32 -13t-32 13t-13 32t13 32t32 13t32 -13t13 -32t-13 -32zM301 512q112 0 179 -79q69 -78 69 -185q0 -5 -2 -31h-439q10 -75 64 -120t135 -45q114 0 161 85l58 -34
q-33 -54 -90.5 -84.5t-129.5 -30.5q-118 0 -192 74t-74 188q0 113 73 187q73 75 188 75zM301 448q-78 0 -130.5 -46t-62.5 -121h373q-11 80 -61 123q-52 44 -119 44z" />
    <glyph glyph-name="igrave" unicode="&#xec;" horiz-adv-x="206" 
d="M134 570h-64l-66 130h80zM136 0v500h-66v-500h66z" />
    <glyph glyph-name="iacute" unicode="&#xed;" horiz-adv-x="206" 
d="M73 570l50 130h80l-66 -130h-64zM70 0h66v500h-66v-500z" />
    <glyph glyph-name="icircumflex" unicode="&#xee;" horiz-adv-x="206" 
d="M64 700h78l86 -130h-75l-50 76l-50 -76h-75zM136 0h-66v500h66v-500z" />
    <glyph glyph-name="idieresis" unicode="&#xef;" horiz-adv-x="206" 
d="M65 588q-13 -13 -32 -13t-32 13t-13 32t13 32t32 13t32 -13t13 -32t-13 -32zM205 588q-13 -13 -32 -13t-32 13t-13 32t13 32t32 13t32 -13t13 -32t-13 -32zM136 0h-66v500h66v-500z" />
    <glyph glyph-name="eth" unicode="&#xf0;" horiz-adv-x="586" 
d="M327 602l173 -232q46 -61 46 -140q0 -108 -75 -175q-73 -67 -178 -67t-179 67q-74 68 -74 175q0 104 72 170q74 66 171 66q44 0 80 -16l-89 119l-112 -69v60l82 50l-67 90h77l43 -57l112 69v-60zM480 230q0 62 -30 103q-53 71 -155 71q-82 0 -136 -48q-53 -48 -53 -126
q0 -80 55 -129t132 -49t132 49t55 129z" />
    <glyph glyph-name="ntilde" unicode="&#xf1;" horiz-adv-x="558" 
d="M290 603q-43 32 -60 33q-12 1 -17 -12.5t-5 -43.5h-58q0 58 21 87.5t53 28t67 -28.5q22 -17 35 -24.5t24.5 -8t16.5 13t5 42.5h58q0 -58 -21 -87.5t-52.5 -28t-66.5 28.5zM304 512q90 0 143 -55.5t53 -149.5v-307h-66v307q0 67 -35.5 104t-100.5 37q-75 0 -118.5 -47
t-43.5 -139v-262h-66v500h66v-78q56 90 168 90z" />
    <glyph glyph-name="ograve" unicode="&#xf2;" horiz-adv-x="606" 
d="M363 570h-64l-96 130h80zM489 63q77 77 77 187q0 111 -77 186q-76 76 -186 76q-111 0 -187 -76q-76 -75 -76 -186t76 -187q76 -75 187 -75q109 0 186 75zM163 109q-57 59 -57 141q0 83 57 140q57 58 140 58t140 -58q57 -57 57 -140q0 -82 -57 -141q-57 -57 -140 -57
t-140 57z" />
    <glyph glyph-name="oacute" unicode="&#xf3;" horiz-adv-x="606" 
d="M253 570l80 130h80l-96 -130h-64zM489 63q77 77 77 187q0 111 -77 186q-76 76 -186 76q-111 0 -187 -76q-76 -75 -76 -186t76 -187q76 -75 187 -75q109 0 186 75zM163 109q-57 59 -57 141q0 83 57 140q57 58 140 58t140 -58q57 -57 57 -140q0 -82 -57 -141
q-57 -57 -140 -57t-140 57z" />
    <glyph glyph-name="ocircumflex" unicode="&#xf4;" horiz-adv-x="606" 
d="M373 570l-70 87l-70 -87h-75l106 130h78l106 -130h-75zM116 436q76 76 187 76q110 0 186 -76q77 -75 77 -186q0 -110 -77 -187q-77 -75 -186 -75q-111 0 -187 75q-76 76 -76 187t76 186zM163 109q57 -57 140 -57t140 57q57 59 57 141q0 83 -57 140q-57 58 -140 58
t-140 -58q-57 -57 -57 -140q0 -82 57 -141z" />
    <glyph glyph-name="otilde" unicode="&#xf5;" horiz-adv-x="606" 
d="M221 580h-58q0 58 21 87.5t53 28t67 -28.5q22 -17 35 -24.5t24.5 -8t16.5 13t5 42.5h58q0 -58 -21 -87.5t-52.5 -28t-66.5 28.5q-43 32 -60 33q-12 1 -17 -12.5t-5 -43.5zM489 63q-77 -75 -186 -75q-111 0 -187 75q-76 76 -76 187t76 186q76 76 187 76q110 0 186 -76
q77 -75 77 -186q0 -110 -77 -187zM163 109q57 -57 140 -57t140 57q57 59 57 141q0 83 -57 140q-57 58 -140 58t-140 -58q-57 -57 -57 -140q0 -82 57 -141z" />
    <glyph glyph-name="odieresis" unicode="&#xf6;" horiz-adv-x="606" 
d="M240 588q-13 -13 -32 -13t-32 13t-13 32t13 32t32 13t32 -13t13 -32t-13 -32zM430 588q-13 -13 -32 -13t-32 13t-13 32t13 32t32 13t32 -13t13 -32t-13 -32zM489 63q-77 -75 -186 -75q-111 0 -187 75q-76 76 -76 187t76 186q76 76 187 76q110 0 186 -76q77 -75 77 -186
q0 -110 -77 -187zM163 109q57 -57 140 -57t140 57q57 59 57 141q0 83 -57 140q-57 58 -140 58t-140 -58q-57 -57 -57 -140q0 -82 57 -141z" />
    <glyph glyph-name="divide" unicode="&#xf7;" horiz-adv-x="580" 
d="M329 498q-16 -16 -39 -16t-39 16t-16 39t16 39t39 16t39 -16t16 -39t-16 -39zM520 318h-460v64h460v-64zM329 124q-16 -16 -39 -16t-39 16t-16 39t16 39t39 16t39 -16t16 -39t-16 -39z" />
    <glyph glyph-name="oslash" unicode="&#xf8;" horiz-adv-x="606" 
d="M540 482l-45 -51q71 -77 71 -181q0 -110 -77 -187q-77 -75 -186 -75q-87 0 -158 51l-39 -44l-40 23l45 51q-71 77 -71 181q0 111 76 186q76 76 187 76q87 0 158 -51l39 44zM106 250q0 -77 49 -132l262 294q-49 36 -114 36q-83 0 -140 -58q-57 -57 -57 -140zM303 52
q83 0 140 57q57 59 57 141q0 77 -49 132l-262 -294q49 -36 114 -36z" />
    <glyph glyph-name="ugrave" unicode="&#xf9;" horiz-adv-x="558" 
d="M251 700l80 -130h-64l-96 130h80zM422 238v262h66v-500h-66v78q-56 -90 -168 -90q-90 0 -143 55.5t-53 149.5v307h66v-307q0 -67 35.5 -104t100.5 -37q75 0 118.5 47t43.5 139z" />
    <glyph glyph-name="uacute" unicode="&#xfa;" horiz-adv-x="558" 
d="M301 700h80l-96 -130h-64zM422 238v262h66v-500h-66v78q-56 -90 -168 -90q-90 0 -143 55.5t-53 149.5v307h66v-307q0 -67 35.5 -104t100.5 -37q75 0 118.5 47t43.5 139z" />
    <glyph glyph-name="ucircumflex" unicode="&#xfb;" horiz-adv-x="558" 
d="M341 570l-70 87l-70 -87h-75l106 130h78l106 -130h-75zM422 238v262h66v-500h-66v78q-56 -90 -168 -90q-90 0 -143 55.5t-53 149.5v307h66v-307q0 -67 35.5 -104t100.5 -37q75 0 118.5 47t43.5 139z" />
    <glyph glyph-name="udieresis" unicode="&#xfc;" horiz-adv-x="558" 
d="M208 588q-13 -13 -32 -13t-32 13t-13 32t13 32t32 13t32 -13t13 -32t-13 -32zM398 588q-13 -13 -32 -13t-32 13t-13 32t13 32t32 13t32 -13t13 -32t-13 -32zM422 238v262h66v-500h-66v78q-56 -90 -168 -90q-90 0 -143 55.5t-53 149.5v307h66v-307q0 -67 35.5 -104
t100.5 -37q75 0 118.5 47t43.5 139z" />
    <glyph glyph-name="yacute" unicode="&#xfd;" horiz-adv-x="510" 
d="M283 700h80l-96 -130h-64zM268 81l162 419h70l-214 -546q-30 -76 -83.5 -117.5t-118.5 -36.5v62q90 -11 137 104l13 31l-224 503h70z" />
    <glyph glyph-name="thorn" unicode="&#xfe;" 
d="M338 512q107 0 182 -76q76 -76 76 -186t-76 -186q-75 -76 -182 -76q-133 0 -202 110v-298h-66v900h66v-298q69 110 202 110zM193 109q57 -57 140 -57t140 57q57 59 57 141q0 83 -57 140q-57 58 -140 58t-140 -58q-57 -57 -57 -140q0 -82 57 -141z" />
    <glyph glyph-name="ydieresis" unicode="&#xff;" horiz-adv-x="510" 
d="M190 588q-13 -13 -32 -13t-32 13t-13 32t13 32t32 13t32 -13t13 -32t-13 -32zM380 588q-13 -13 -32 -13t-32 13t-13 32t13 32t32 13t32 -13t13 -32t-13 -32zM268 81l162 419h70l-214 -546q-30 -76 -83.5 -117.5t-118.5 -36.5v62q90 -11 137 104l13 31l-224 503h70z" />
    <glyph glyph-name="Amacron" unicode="&#x100;" horiz-adv-x="630" 
d="M185 838h260v-58h-260v58zM620 0h-74l-65 172h-332l-65 -172h-74l269 700h72zM315 613l-141 -375h282z" />
    <glyph glyph-name="amacron" unicode="&#x101;" 
d="M175 638h260v-58h-260v58zM500 402v98h66v-500h-66v98q-69 -110 -202 -110q-107 0 -183 76q-75 76 -75 186t75 186q76 76 183 76q133 0 202 -110zM163 109q57 -57 140 -57t140 57q57 59 57 141q0 83 -57 140q-57 58 -140 58t-140 -58q-57 -57 -57 -140q0 -82 57 -141z
" />
    <glyph glyph-name="Abreve" unicode="&#x102;" horiz-adv-x="630" 
d="M315 762q-64 0 -102 35t-38 95h64q0 -72 76 -72t76 72h64q0 -62 -37 -96t-103 -34zM620 0h-74l-65 172h-332l-65 -172h-74l269 700h72zM315 613l-141 -375h282z" />
    <glyph glyph-name="abreve" unicode="&#x103;" 
d="M305 562q-64 0 -102 35t-38 95h64q0 -72 76 -72t76 72h64q0 -62 -37 -96t-103 -34zM500 402v98h66v-500h-66v98q-69 -110 -202 -110q-107 0 -183 76q-75 76 -75 186t75 186q76 76 183 76q133 0 202 -110zM163 109q57 -57 140 -57t140 57q57 59 57 141q0 83 -57 140
q-57 58 -140 58t-140 -58q-57 -57 -57 -140q0 -82 57 -141z" />
    <glyph glyph-name="Aogonek" unicode="&#x104;" horiz-adv-x="630" 
d="M544 -124q0 -31 34 -31q21 0 42 9v-55q-28 -11 -59 -11q-38 0 -60 21t-22 55q0 66 72 136h-5l-65 172h-332l-65 -172h-74l269 700h72l269 -700q-34 -31 -55 -65t-21 -59zM315 613l-141 -375h282z" />
    <glyph glyph-name="aogonek" unicode="&#x105;" 
d="M566 500v-500q-34 -31 -55 -65t-21 -59q0 -31 34 -31q21 0 42 9v-55q-28 -11 -59 -11q-38 0 -60 21t-22 55q0 64 75 148v86q-69 -110 -202 -110q-107 0 -183 76q-75 76 -75 186t75 186q76 76 183 76q133 0 202 -110v98h66zM163 109q57 -57 140 -57t140 57q57 59 57 141
q0 83 -57 140q-57 58 -140 58t-140 -58q-57 -57 -57 -140q0 -82 57 -141z" />
    <glyph glyph-name="Cacute" unicode="&#x106;" horiz-adv-x="745" 
d="M357 770l80 130h80l-96 -130h-64zM407 -12q96 0 178 47t125 126l-62 35q-33 -64 -98 -102t-143 -38q-132 0 -214 85q-83 86 -83 209t83 209q82 85 214 85q78 0 143 -38t98 -102l62 36q-45 79 -126 125.5t-177 46.5q-160 0 -263 -105q-104 -106 -104 -257t104 -257
q103 -105 263 -105z" />
    <glyph glyph-name="cacute" unicode="&#x107;" horiz-adv-x="552" 
d="M242 570l80 130h80l-96 -130h-64zM303 -12q73 0 133 35t91 95l-55 32q-25 -46 -69.5 -72t-99.5 -26q-83 0 -140 57q-57 59 -57 141q0 83 57 140q57 58 140 58q56 0 100.5 -26.5t64.5 -71.5l54 31q-27 60 -86 95.5t-133 35.5q-113 0 -188 -76q-75 -75 -75 -186
q0 -110 75 -187q75 -75 188 -75z" />
    <glyph glyph-name="Cdotaccent" unicode="&#x10a;" horiz-adv-x="745" 
d="M446 786q-16 -16 -39 -16t-39 16t-16 39t16 39t39 16t39 -16t16 -39t-16 -39zM407 -12q-160 0 -263 105q-104 106 -104 257t104 257q103 105 263 105q96 0 177 -46.5t126 -125.5l-62 -36q-33 64 -98 102t-143 38q-132 0 -214 -85q-83 -86 -83 -209t83 -209
q82 -85 214 -85q78 0 143 38t98 102l62 -35q-43 -79 -125 -126t-178 -47z" />
    <glyph glyph-name="cdotaccent" unicode="&#x10b;" horiz-adv-x="552" 
d="M331 586q-16 -16 -39 -16t-39 16t-16 39t16 39t39 16t39 -16t16 -39t-16 -39zM303 -12q-113 0 -188 75q-75 77 -75 187q0 111 75 186q75 76 188 76q74 0 133 -35.5t86 -95.5l-54 -31q-20 45 -64.5 71.5t-100.5 26.5q-83 0 -140 -58q-57 -57 -57 -140q0 -82 57 -141
q57 -57 140 -57q55 0 99.5 26t69.5 72l55 -32q-31 -60 -91 -95t-133 -35z" />
    <glyph glyph-name="Ccaron" unicode="&#x10c;" horiz-adv-x="745" 
d="M446 770h-78l-106 130h75l70 -87l70 87h75zM407 56q78 0 143 38t98 102l62 -35q-43 -79 -125 -126t-178 -47q-160 0 -263 105q-104 106 -104 257t104 257q103 105 263 105q96 0 177 -46.5t126 -125.5l-62 -36q-33 64 -98 102t-143 38q-132 0 -214 -85q-83 -86 -83 -209
t83 -209q82 -85 214 -85z" />
    <glyph glyph-name="ccaron" unicode="&#x10d;" horiz-adv-x="552" 
d="M331 570h-78l-106 130h75l70 -87l70 87h75zM472 150l55 -32q-31 -60 -91 -95t-133 -35q-113 0 -188 75q-75 77 -75 187q0 111 75 186q75 76 188 76q74 0 133 -35.5t86 -95.5l-54 -31q-20 45 -64.5 71.5t-100.5 26.5q-83 0 -140 -58q-57 -57 -57 -140q0 -82 57 -141
q57 -57 140 -57q55 0 99.5 26t69.5 72z" />
    <glyph glyph-name="Dcaron" unicode="&#x10e;" horiz-adv-x="720" 
d="M389 770h-78l-106 130h75l70 -87l70 87h75zM80 700h270q143 0 236 -102q94 -100 94 -248t-94 -249q-93 -101 -236 -101h-270v700zM150 66h200q115 0 188 82q74 83 74 202t-74 202q-73 82 -188 82h-200v-568z" />
    <glyph glyph-name="dcaron" unicode="&#x10f;" horiz-adv-x="702" 
d="M500 402v298h66v-700h-66v98q-69 -110 -202 -110q-107 0 -183 76q-75 76 -75 186t75 186q76 76 183 76q133 0 202 -110zM636 530l10 170h66l-30 -170h-46zM163 109q57 -57 140 -57t140 57q57 59 57 141q0 83 -57 140q-57 58 -140 58t-140 -58q-57 -57 -57 -140
q0 -82 57 -141z" />
    <glyph glyph-name="Dcroat" unicode="&#x110;" horiz-adv-x="740" 
d="M100 700h270q143 0 236 -102q94 -100 94 -248t-94 -249q-93 -101 -236 -101h-270v318h-70v64h70v318zM170 66h200q115 0 188 82q74 83 74 202t-74 202q-73 82 -188 82h-200v-252h220v-64h-220v-252z" />
    <glyph glyph-name="dslash" unicode="&#x111;" horiz-adv-x="646" 
d="M566 630h70v-54h-70v-576h-66v98q-69 -110 -202 -110q-107 0 -183 76q-75 76 -75 186t75 186q76 76 183 76q133 0 202 -110v174h-184v54h184v70h66v-70zM163 109q57 -57 140 -57t140 57q57 59 57 141q0 83 -57 140q-57 58 -140 58t-140 -58q-57 -57 -57 -140
q0 -82 57 -141z" />
    <glyph glyph-name="Emacron" unicode="&#x112;" horiz-adv-x="530" 
d="M153 838h260v-58h-260v58zM150 320v-254h340v-66h-410v700h405v-66h-335v-248h310v-66h-310z" />
    <glyph glyph-name="emacron" unicode="&#x113;" horiz-adv-x="584" 
d="M165 638h260v-58h-260v58zM301 512q112 0 179 -79q69 -78 69 -185q0 -5 -2 -31h-439q10 -75 64 -120t135 -45q114 0 161 85l58 -34q-33 -54 -90.5 -84.5t-129.5 -30.5q-118 0 -192 74t-74 188q0 113 73 187q73 75 188 75zM301 448q-78 0 -130.5 -46t-62.5 -121h373
q-11 80 -61 123q-52 44 -119 44z" />
    <glyph glyph-name="Edotaccent" unicode="&#x116;" horiz-adv-x="530" 
d="M322 786q-16 -16 -39 -16t-39 16t-16 39t16 39t39 16t39 -16t16 -39t-16 -39zM150 320v-254h340v-66h-410v700h405v-66h-335v-248h310v-66h-310z" />
    <glyph glyph-name="edotaccent" unicode="&#x117;" horiz-adv-x="584" 
d="M334 586q-16 -16 -39 -16t-39 16t-16 39t16 39t39 16t39 -16t16 -39t-16 -39zM301 512q112 0 179 -79q69 -78 69 -185q0 -5 -2 -31h-439q10 -75 64 -120t135 -45q114 0 161 85l58 -34q-33 -54 -90.5 -84.5t-129.5 -30.5q-118 0 -192 74t-74 188q0 113 73 187
q73 75 188 75zM301 448q-78 0 -130.5 -46t-62.5 -121h373q-11 80 -61 123q-52 44 -119 44z" />
    <glyph glyph-name="Eogonek" unicode="&#x118;" horiz-adv-x="530" 
d="M490 66v-66q-34 -31 -55 -65t-21 -59q0 -31 34 -31q21 0 42 9v-55q-28 -11 -59 -11q-38 0 -60 21t-22 55q0 66 72 136h-341v700h405v-66h-335v-248h310v-66h-310v-254h340z" />
    <glyph glyph-name="eogonek" unicode="&#x119;" horiz-adv-x="584" 
d="M301 512q112 0 179 -79q69 -78 69 -185q0 -5 -2 -31h-439q10 -75 64 -120t135 -45q114 0 161 85l58 -34q-14 -23 -40 -49q-115 -124 -115 -178q0 -31 34 -31q21 0 42 9v-55q-28 -11 -59 -11q-38 0 -60 21t-22 55q0 64 65 131q-27 -7 -65 -7q-118 0 -192 74t-74 188
q0 113 73 187q73 75 188 75zM301 448q-78 0 -130.5 -46t-62.5 -121h373q-11 80 -61 123q-52 44 -119 44z" />
    <glyph glyph-name="Ecaron" unicode="&#x11a;" horiz-adv-x="530" 
d="M322 770h-78l-106 130h75l70 -87l70 87h75zM150 320v-254h340v-66h-410v700h405v-66h-335v-248h310v-66h-310z" />
    <glyph glyph-name="ecaron" unicode="&#x11b;" horiz-adv-x="584" 
d="M334 570h-78l-106 130h75l70 -87l70 87h75zM301 512q112 0 179 -79q69 -78 69 -185q0 -5 -2 -31h-439q10 -75 64 -120t135 -45q114 0 161 85l58 -34q-33 -54 -90.5 -84.5t-129.5 -30.5q-118 0 -192 74t-74 188q0 113 73 187q73 75 188 75zM301 448q-78 0 -130.5 -46
t-62.5 -121h373q-11 80 -61 123q-52 44 -119 44z" />
    <glyph glyph-name="Gbreve" unicode="&#x11e;" horiz-adv-x="789" 
d="M392 762q-64 0 -102 35t-38 95h64q0 -72 76 -72t76 72h64q0 -62 -37 -96t-103 -34zM399 333h350v-36q0 -130 -93 -220q-94 -89 -249 -89q-160 0 -263 105q-104 106 -104 257t104 257q103 105 263 105q96 0 178 -47q81 -47 125 -125l-62 -36q-33 64 -98 102t-143 38
q-132 0 -214 -85q-83 -86 -83 -209t83 -209q82 -85 214 -85q118 0 189 59q70 60 81 152h-278v66z" />
    <glyph glyph-name="gbreve" unicode="&#x11f;" 
d="M308 562q-64 0 -102 35t-38 95h64q0 -72 76 -72t76 72h64q0 -62 -37 -96t-103 -34zM500 402v98h66v-480q0 -108 -74 -170t-177 -62q-175 0 -237 122l58 33q45 -91 179 -91q86 0 135.5 45t49.5 123v78q-69 -110 -202 -110q-107 0 -183 76q-75 76 -75 186t75 186
q76 76 183 76q133 0 202 -110zM163 109q57 -57 140 -57t140 57q57 59 57 141q0 83 -57 140q-57 58 -140 58t-140 -58q-57 -57 -57 -140q0 -82 57 -141z" />
    <glyph glyph-name="Gdotaccent" unicode="&#x120;" horiz-adv-x="789" 
d="M431 786q-16 -16 -39 -16t-39 16t-16 39t16 39t39 16t39 -16t16 -39t-16 -39zM399 333h350v-36q0 -130 -93 -220q-94 -89 -249 -89q-160 0 -263 105q-104 106 -104 257t104 257q103 105 263 105q96 0 178 -47q81 -47 125 -125l-62 -36q-33 64 -98 102t-143 38
q-132 0 -214 -85q-83 -86 -83 -209t83 -209q82 -85 214 -85q118 0 189 59q70 60 81 152h-278v66z" />
    <glyph glyph-name="gdotaccent" unicode="&#x121;" 
d="M347 586q-16 -16 -39 -16t-39 16t-16 39t16 39t39 16t39 -16t16 -39t-16 -39zM500 402v98h66v-480q0 -108 -74 -170t-177 -62q-175 0 -237 122l58 33q45 -91 179 -91q86 0 135.5 45t49.5 123v78q-69 -110 -202 -110q-107 0 -183 76q-75 76 -75 186t75 186q76 76 183 76
q133 0 202 -110zM163 109q57 -57 140 -57t140 57q57 59 57 141q0 83 -57 140q-57 58 -140 58t-140 -58q-57 -57 -57 -140q0 -82 57 -141z" />
    <glyph glyph-name="Gcommaaccent" unicode="&#x122;" horiz-adv-x="789" 
d="M399 333h350v-36q0 -130 -93 -220q-94 -89 -249 -89q-160 0 -263 105q-104 106 -104 257t104 257q103 105 263 105q96 0 178 -47q81 -47 125 -125l-62 -36q-33 64 -98 102t-143 38q-132 0 -214 -85q-83 -86 -83 -209t83 -209q82 -85 214 -85q118 0 189 59q70 60 81 152
h-278v66zM431 -240h-46l10 170h66z" />
    <glyph glyph-name="gcommaaccent" unicode="&#x123;" 
d="M299 760h46l-10 -170h-66zM500 402v98h66v-480q0 -108 -74 -170t-177 -62q-175 0 -237 122l58 33q45 -91 179 -91q86 0 135.5 45t49.5 123v78q-69 -110 -202 -110q-107 0 -183 76q-75 76 -75 186t75 186q76 76 183 76q133 0 202 -110zM163 109q57 -57 140 -57t140 57
q57 59 57 141q0 83 -57 140q-57 58 -140 58t-140 -58q-57 -57 -57 -140q0 -82 57 -141z" />
    <glyph glyph-name="Hbar" unicode="&#x126;" horiz-adv-x="730" 
d="M625 568h65v-56h-65v-512h-70v327h-380v-327h-70v512h-65v56h65v132h70v-132h380v132h70v-132zM175 393h380v119h-380v-119z" />
    <glyph glyph-name="hbar" unicode="&#x127;" horiz-adv-x="568" 
d="M314 512q90 0 143 -55.5t53 -149.5v-307h-66v307q0 67 -35.5 104t-100.5 37q-75 0 -118.5 -47t-43.5 -139v-262h-66v576h-70v54h70v70h66v-70h144v-54h-144v-154q56 90 168 90z" />
    <glyph glyph-name="Imacron" unicode="&#x12a;" horiz-adv-x="230" 
d="M245 780h-260v58h260v-58zM80 0v700h70v-700h-70z" />
    <glyph glyph-name="imacron" unicode="&#x12b;" horiz-adv-x="206" 
d="M203 580h-200v58h200v-58zM136 0h-66v500h66v-500z" />
    <glyph glyph-name="Iogonek" unicode="&#x12e;" horiz-adv-x="230" 
d="M139 -155q21 0 42 9v-55q-28 -11 -59 -11q-38 0 -60 21t-22 55q0 61 40 137v699h70v-700l-24 -44q-21 -44 -21 -80q0 -31 34 -31z" />
    <glyph glyph-name="iogonek" unicode="&#x12f;" horiz-adv-x="206" 
d="M137 620q-14 -14 -34 -14t-34 14t-14 34t14 34t34 14t34 -14t14 -34t-14 -34zM129 -155q21 0 42 9v-55q-28 -11 -59 -11q-37 0 -59.5 25t-22.5 61q0 57 40 131v495h66v-500q-41 -67 -41 -114q0 -17 9.5 -29t24.5 -12z" />
    <glyph glyph-name="Idot" unicode="&#x130;" horiz-adv-x="230" 
d="M154 786q-16 -16 -39 -16t-39 16t-16 39t16 39t39 16t39 -16t16 -39t-16 -39zM80 0v700h70v-700h-70z" />
    <glyph glyph-name="dotlessi" unicode="&#x131;" horiz-adv-x="206" 
d="M136 0h-66v500h66v-500z" />
    <glyph glyph-name="Kcommaaccent" unicode="&#x136;" horiz-adv-x="580" 
d="M560 700l-336 -340l346 -360h-92l-328 339v-339h-70v700h70v-320l318 320h92zM311 -240h-46l10 170h66z" />
    <glyph glyph-name="kcommaaccent" unicode="&#x137;" horiz-adv-x="494" 
d="M464 500l-258 -240l268 -260h-88l-250 241v-241h-66v700h66v-421l238 221h90zM269 -240h-46l10 170h66z" />
    <glyph glyph-name="Lacute" unicode="&#x139;" horiz-adv-x="490" 
d="M162 900h80l-96 -130h-64zM150 700v-634h320v-66h-390v700h70z" />
    <glyph glyph-name="lacute" unicode="&#x13a;" horiz-adv-x="206" 
d="M70 770l80 130h80l-96 -130h-64zM70 0h66v730h-66v-730z" />
    <glyph glyph-name="Lcommaaccent" unicode="&#x13b;" horiz-adv-x="490" 
d="M150 700v-634h320v-66h-390v700h70zM289 -240h-46l10 170h66z" />
    <glyph glyph-name="lcommaaccent" unicode="&#x13c;" horiz-adv-x="206" 
d="M136 0h-66v730h66v-730zM107 -240h-46l10 170h66z" />
    <glyph glyph-name="Lcaron" unicode="&#x13d;" horiz-adv-x="490" 
d="M150 700v-634h320v-66h-390v700h70zM266 700h66l-30 -170h-46z" />
    <glyph glyph-name="lcaron" unicode="&#x13e;" horiz-adv-x="272" 
d="M136 0h-66v730h66v-730zM252 560h-46l10 170h66z" />
    <glyph glyph-name="Lslash" unicode="&#x141;" horiz-adv-x="510" 
d="M170 286v-220h320v-66h-390v244l-60 -35v63l60 35v393h70v-351l170 100v-63z" />
    <glyph glyph-name="lslash" unicode="&#x142;" horiz-adv-x="240" 
d="M153 414l67 46v-63l-67 -46v-351h-66v306l-67 -46v63l67 46v361h66v-316z" />
    <glyph glyph-name="Nacute" unicode="&#x143;" horiz-adv-x="680" 
d="M290 770l80 130h80l-96 -130h-64zM530 700v-570l-390 570h-60v-700h70v570l390 -570h60v700h-70z" />
    <glyph glyph-name="nacute" unicode="&#x144;" horiz-adv-x="558" 
d="M320 700h80l-96 -130h-64zM304 512q90 0 143 -55.5t53 -149.5v-307h-66v307q0 67 -35.5 104t-100.5 37q-75 0 -118.5 -47t-43.5 -139v-262h-66v500h66v-78q56 90 168 90z" />
    <glyph glyph-name="Ncommaaccent" unicode="&#x145;" horiz-adv-x="680" 
d="M530 130v570h70v-700h-60l-390 570v-570h-70v700h60zM344 -240h-46l10 170h66z" />
    <glyph glyph-name="ncommaaccent" unicode="&#x146;" horiz-adv-x="558" 
d="M304 512q90 0 143 -55.5t53 -149.5v-307h-66v307q0 67 -35.5 104t-100.5 37q-75 0 -118.5 -47t-43.5 -139v-262h-66v500h66v-78q56 90 168 90zM297 -240h-46l10 170h66z" />
    <glyph glyph-name="Ncaron" unicode="&#x147;" horiz-adv-x="680" 
d="M379 770h-78l-106 130h75l70 -87l70 87h75zM530 130v570h70v-700h-60l-390 570v-570h-70v700h60z" />
    <glyph glyph-name="ncaron" unicode="&#x148;" horiz-adv-x="558" 
d="M329 570h-78l-106 130h75l70 -87l70 87h75zM304 512q90 0 143 -55.5t53 -149.5v-307h-66v307q0 67 -35.5 104t-100.5 37q-75 0 -118.5 -47t-43.5 -139v-262h-66v500h66v-78q56 90 168 90z" />
    <glyph glyph-name="Eng" unicode="&#x14a;" horiz-adv-x="680" 
d="M530 130v570h70v-700q0 -200 -210 -200v68q73 0 106.5 28.5t33.5 103.5v15l-380 555v-570h-70v700h60z" />
    <glyph glyph-name="eng" unicode="&#x14b;" horiz-adv-x="558" 
d="M304 512q90 0 143 -55.5t53 -149.5v-347q0 -90 -47 -135t-133 -37v64q60 -6 87 19.5t27 88.5v347q0 67 -35.5 104t-100.5 37q-75 0 -118.5 -47t-43.5 -139v-262h-66v500h66v-78q56 90 168 90z" />
    <glyph glyph-name="Omacron" unicode="&#x14c;" horiz-adv-x="804" 
d="M532 780h-260v58h260v-58zM659 93q-105 -105 -257 -105t-257 105q-105 107 -105 257q0 151 105 256q105 106 257 106t257 -106q105 -105 105 -256q0 -150 -105 -257zM194 141q84 -85 208 -85t208 85t84 209q0 123 -84 208q-84 86 -208 86t-208 -86q-84 -85 -84 -208
q0 -124 84 -209z" />
    <glyph glyph-name="omacron" unicode="&#x14d;" horiz-adv-x="606" 
d="M433 580h-260v58h260v-58zM489 63q-77 -75 -186 -75q-111 0 -187 75q-76 76 -76 187t76 186q76 76 187 76q110 0 186 -76q77 -75 77 -186q0 -110 -77 -187zM163 109q57 -57 140 -57t140 57q57 59 57 141q0 83 -57 140q-57 58 -140 58t-140 -58q-57 -57 -57 -140
q0 -82 57 -141z" />
    <glyph glyph-name="Ohungarumlaut" unicode="&#x150;" horiz-adv-x="804" 
d="M272 770l70 130h74l-76 -130h-68zM415 770l80 130h74l-86 -130h-68zM659 93q105 107 105 257q0 151 -105 256q-105 106 -257 106t-257 -106q-105 -105 -105 -256q0 -150 105 -257q105 -105 257 -105t257 105zM194 141q-84 85 -84 209q0 123 84 208q84 86 208 86t208 -86
q84 -85 84 -208q0 -124 -84 -209t-208 -85t-208 85z" />
    <glyph glyph-name="ohungarumlaut" unicode="&#x151;" horiz-adv-x="606" 
d="M173 570l70 130h74l-76 -130h-68zM316 570l80 130h74l-86 -130h-68zM489 63q77 77 77 187q0 111 -77 186q-76 76 -186 76q-111 0 -187 -76q-76 -75 -76 -186t76 -187q76 -75 187 -75q109 0 186 75zM163 109q-57 59 -57 141q0 83 57 140q57 58 140 58t140 -58
q57 -57 57 -140q0 -82 -57 -141q-57 -57 -140 -57t-140 57z" />
    <glyph glyph-name="OE" unicode="&#x152;" horiz-adv-x="915" 
d="M555 320v-254h320v-66h-390q-43 -12 -93 -12q-152 0 -252 105q-100 104 -100 257t100 257q100 105 252 105q50 0 93 -12h385v-66h-315v-248h300v-66h-300zM485 71v558q-43 15 -93 15q-124 0 -203 -85t-79 -209t79 -209t203 -85q50 0 93 15z" />
    <glyph glyph-name="oe" unicode="&#x153;" horiz-adv-x="1044" 
d="M763 512q110 0 177 -79q69 -78 69 -185q0 -5 -2 -31h-439q10 -75 64 -120t135 -45q114 0 161 85l58 -34q-33 -54 -90 -84.5t-128 -30.5q-83 0 -144.5 39t-91.5 108q-30 -68 -91 -107.5t-138 -39.5q-113 0 -188 75t-75 187t75 187t188 75q77 0 138 -39.5t92 -108.5
q28 69 89 108.5t141 39.5zM303 52q83 0 140 57q57 59 57 141q0 83 -57 140q-57 58 -140 58q-86 0 -142 -57q-55 -56 -55 -141t55 -141q56 -57 142 -57zM761 448q-78 0 -130.5 -46t-62.5 -121h373q-11 80 -61 123q-52 44 -119 44z" />
    <glyph glyph-name="Racute" unicode="&#x154;" horiz-adv-x="610" 
d="M340 900h80l-96 -130h-64zM590 0h-80l-164 280h-196v-280h-70v700h280q86 0 148 -62t62 -148q0 -72 -43 -127q-41 -54 -108 -74zM360 634h-210v-288h210q58 0 99 42q41 44 41 102q0 59 -41 102q-41 42 -99 42z" />
    <glyph glyph-name="racute" unicode="&#x155;" horiz-adv-x="314" 
d="M212 700h80l-96 -130h-64zM136 500v-83q46 91 158 91v-64q-72 0 -115 -41.5t-43 -124.5v-278h-66v500h66z" />
    <glyph glyph-name="Rcommaaccent" unicode="&#x156;" horiz-adv-x="610" 
d="M419 289l171 -289h-80l-164 280h-196v-280h-70v700h280q86 0 148 -62t62 -148q0 -72 -43 -127q-41 -54 -108 -74zM360 634h-210v-288h210q58 0 99 42q41 44 41 102q0 59 -41 102q-41 42 -99 42zM334 -240h-46l10 170h66z" />
    <glyph glyph-name="rcommaaccent" unicode="&#x157;" horiz-adv-x="314" 
d="M136 500v-83q46 91 158 91v-64q-72 0 -115 -41.5t-43 -124.5v-278h-66v500h66zM107 -240h-46l10 170h66z" />
    <glyph glyph-name="Rcaron" unicode="&#x158;" horiz-adv-x="610" 
d="M349 770h-78l-106 130h75l70 -87l70 87h75zM590 0h-80l-164 280h-196v-280h-70v700h280q86 0 148 -62t62 -148q0 -72 -43 -127q-41 -54 -108 -74zM360 634h-210v-288h210q58 0 99 42q41 44 41 102q0 59 -41 102q-41 42 -99 42z" />
    <glyph glyph-name="rcaron" unicode="&#x159;" horiz-adv-x="314" 
d="M221 570h-78l-106 130h75l70 -87l70 87h75zM136 500v-83q46 91 158 91v-64q-72 0 -115 -41.5t-43 -124.5v-278h-66v500h66z" />
    <glyph glyph-name="Sacute" unicode="&#x15a;" horiz-adv-x="576" 
d="M232 770l80 130h80l-96 -130h-64zM300 -12q106 0 171 53q65 54 65 143q0 50 -25 90q-14 27 -67 59q-13 9 -47 22q-31 13 -48 18l-54 19q-82 27 -119 53q-36 25 -36 78q0 56 39.5 88.5t105.5 32.5q124 0 172 -116l59 33q-30 68 -91 109.5t-140 41.5q-92 0 -153 -52
q-62 -51 -62 -140q0 -91 80 -139q33 -21 144 -58q93 -30 132 -58q40 -28 40 -83q0 -58 -44 -92t-121 -34q-79 0 -130.5 36t-70.5 102l-60 -35q27 -80 95.5 -125.5t164.5 -45.5z" />
    <glyph glyph-name="sacute" unicode="&#x15b;" horiz-adv-x="454" 
d="M259 700h80l-96 -130h-64zM122 369q0 -58 103 -85q29 -7 38 -9.5t35.5 -11t37 -14.5t29.5 -18.5t27 -25t15 -32t7 -41.5q0 -64 -51 -104q-49 -40 -130 -40q-70 0 -121 31.5t-72 83.5l56 33q14 -39 50.5 -61.5t86.5 -22.5q51 0 83 20t32 60q0 58 -103 85q-29 7 -38 9.5
t-35.5 11t-37 14.5t-29.5 18.5t-27 25t-15 32t-7 41.5q0 61 48 102q50 41 123 41q60 0 106.5 -27t68.5 -75l-55 -32q-28 70 -120 70q-45 0 -75 -21t-30 -58z" />
    <glyph glyph-name="Scedilla" unicode="&#x15e;" horiz-adv-x="576" 
d="M536 184q0 -86 -59.5 -138.5t-159.5 -57.5v-33q43 -8 68 -29.5t25 -51.5q0 -102 -205 -90v54q147 -12 147 36q0 38 -93 41v75q-81 10 -138 54t-81 115l60 35q19 -66 70.5 -102t130.5 -36q77 0 121 34t44 92q0 55 -40 83q-39 28 -132 58q-111 37 -144 58q-80 48 -80 139
q0 89 62 140q61 52 153 52q79 0 140 -41.5t91 -109.5l-59 -33q-48 116 -172 116q-66 0 -105.5 -32.5t-39.5 -88.5q0 -53 36 -78q37 -26 119 -53l54 -19q17 -5 48 -18q34 -13 47 -22q53 -32 67 -59q25 -40 25 -90z" />
    <glyph glyph-name="scedilla" unicode="&#x15f;" horiz-adv-x="454" 
d="M414 132q0 -58 -43 -97t-113 -46v-34q43 -8 68 -29.5t25 -51.5q0 -102 -205 -90v54q147 -12 147 36q0 38 -93 41v75q-59 7 -100.5 37.5t-59.5 75.5l56 33q14 -39 50.5 -61.5t86.5 -22.5q51 0 83 20t32 60q0 58 -103 85q-29 7 -38 9.5t-35.5 11t-37 14.5t-29.5 18.5
t-27 25t-15 32t-7 41.5q0 61 48 102q50 41 123 41q60 0 106.5 -27t68.5 -75l-55 -32q-28 70 -120 70q-45 0 -75 -21t-30 -58q0 -58 103 -85q29 -7 38 -9.5t35.5 -11t37 -14.5t29.5 -18.5t27 -25t15 -32t7 -41.5z" />
    <glyph glyph-name="Scaron" unicode="&#x160;" horiz-adv-x="576" 
d="M321 770h-78l-106 130h75l70 -87l70 87h75zM295 392l54 -19q17 -5 48 -18q34 -13 47 -22q53 -32 67 -59q25 -40 25 -90q0 -89 -65 -143q-65 -53 -171 -53q-96 0 -164.5 45.5t-95.5 125.5l60 35q19 -66 70.5 -102t130.5 -36q77 0 121 34t44 92q0 55 -40 83q-39 28 -132 58
q-111 37 -144 58q-80 48 -80 139q0 89 62 140q61 52 153 52q79 0 140 -41.5t91 -109.5l-59 -33q-48 116 -172 116q-66 0 -105.5 -32.5t-39.5 -88.5q0 -53 36 -78q37 -26 119 -53z" />
    <glyph glyph-name="scaron" unicode="&#x161;" horiz-adv-x="454" 
d="M268 570h-78l-106 130h75l70 -87l70 87h75zM122 369q0 -58 103 -85q29 -7 38 -9.5t35.5 -11t37 -14.5t29.5 -18.5t27 -25t15 -32t7 -41.5q0 -64 -51 -104q-49 -40 -130 -40q-70 0 -121 31.5t-72 83.5l56 33q14 -39 50.5 -61.5t86.5 -22.5q51 0 83 20t32 60q0 58 -103 85
q-29 7 -38 9.5t-35.5 11t-37 14.5t-29.5 18.5t-27 25t-15 32t-7 41.5q0 61 48 102q50 41 123 41q60 0 106.5 -27t68.5 -75l-55 -32q-28 70 -120 70q-45 0 -75 -21t-30 -58z" />
    <glyph glyph-name="uni0162" unicode="&#x162;" horiz-adv-x="540" 
d="M20 700h500v-66h-215v-634h-70v634h-215v66zM274 -240h-46l10 170h66z" />
    <glyph glyph-name="uni0163" unicode="&#x163;" horiz-adv-x="375" 
d="M335 500v-64h-144v-303q0 -41 16 -58.5t48 -18t80 1.5v-58q-107 -16 -158.5 15.5t-51.5 117.5v303h-105v64h105v120l66 20v-140h144zM240 -240h-46l10 170h66z" />
    <glyph glyph-name="Tcaron" unicode="&#x164;" horiz-adv-x="540" 
d="M309 770h-78l-106 130h75l70 -87l70 87h75zM20 700h500v-66h-215v-634h-70v634h-215v66z" />
    <glyph glyph-name="tcaron" unicode="&#x165;" horiz-adv-x="375" 
d="M256 715h66l-30 -160h-46zM335 500v-64h-144v-303q0 -41 16 -58.5t48 -18t80 1.5v-58q-107 -16 -158.5 15.5t-51.5 117.5v303h-105v64h105v120l66 20v-140h144z" />
    <glyph glyph-name="Tbar" unicode="&#x166;" horiz-adv-x="540" 
d="M520 700v-66h-215v-252h145v-64h-145v-318h-70v318h-145v64h145v252h-215v66h500z" />
    <glyph glyph-name="tbar" unicode="&#x167;" horiz-adv-x="375" 
d="M335 500v-64h-144v-149h97v-54h-97v-100q0 -41 16 -58.5t48 -18t80 1.5v-58q-107 -16 -158.5 15.5t-51.5 117.5v100h-67v54h67v149h-105v64h105v120l66 20v-140h144z" />
    <glyph glyph-name="Umacron" unicode="&#x16a;" horiz-adv-x="660" 
d="M460 780h-260v58h260v-58zM70 238v462h70v-462q0 -85 50.5 -133.5t139.5 -48.5t139.5 48.5t50.5 133.5v462h70v-462q0 -114 -72 -182q-73 -68 -188 -68t-188 68q-72 68 -72 182z" />
    <glyph glyph-name="umacron" unicode="&#x16b;" horiz-adv-x="558" 
d="M141 638h260v-58h-260v58zM422 238v262h66v-500h-66v78q-56 -90 -168 -90q-90 0 -143 55.5t-53 149.5v307h66v-307q0 -67 35.5 -104t100.5 -37q75 0 118.5 47t43.5 139z" />
    <glyph glyph-name="Uring" unicode="&#x16e;" horiz-adv-x="660" 
d="M406 748q-28 -28 -76 -28t-77 28q-29 29 -29 72q0 42 29 71q31 29 77 29q47 0 76 -29q30 -29 30 -71q0 -44 -30 -72zM330 771q32 -3 46 23t0 52t-46 23q-31 3 -44.5 -23t0 -52t44.5 -23zM70 238v462h70v-462q0 -85 50.5 -133.5t139.5 -48.5t139.5 48.5t50.5 133.5v462h70
v-462q0 -114 -72 -182q-73 -68 -188 -68t-188 68q-72 68 -72 182z" />
    <glyph glyph-name="uring" unicode="&#x16f;" horiz-adv-x="558" 
d="M347 578q-28 -28 -76 -28t-77 28q-29 29 -29 72q0 42 29 71q31 29 77 29q47 0 76 -29q30 -29 30 -71q0 -44 -30 -72zM271 699q-31 3 -44.5 -23t0 -52t44.5 -23q32 -3 46 23t0 52t-46 23zM422 238v262h66v-500h-66v78q-56 -90 -168 -90q-90 0 -143 55.5t-53 149.5v307h66
v-307q0 -67 35.5 -104t100.5 -37q75 0 118.5 47t43.5 139z" />
    <glyph glyph-name="Uhungarumlaut" unicode="&#x170;" horiz-adv-x="660" 
d="M200 770l70 130h74l-76 -130h-68zM343 770l80 130h74l-86 -130h-68zM70 238q0 -114 72 -182q73 -68 188 -68t188 68q72 68 72 182v462h-70v-462q0 -85 -50.5 -133.5t-139.5 -48.5t-139.5 48.5t-50.5 133.5v462h-70v-462z" />
    <glyph glyph-name="uhungarumlaut" unicode="&#x171;" horiz-adv-x="558" 
d="M211 700h74l-76 -130h-68zM438 700l-86 -130h-68l80 130h74zM422 238v262h66v-500h-66v78q-56 -90 -168 -90q-90 0 -143 55.5t-53 149.5v307h66v-307q0 -67 35.5 -104t100.5 -37q75 0 118.5 47t43.5 139z" />
    <glyph glyph-name="Uogonek" unicode="&#x172;" horiz-adv-x="660" 
d="M520 238v462h70v-462q0 -130 -92 -198q-67 -62 -92.5 -97t-25.5 -67q0 -31 34 -31q21 0 42 9v-55q-28 -11 -59 -11q-38 0 -60 21t-22 55q0 62 64 127q-24 -3 -49 -3q-115 0 -188 68q-72 68 -72 182v462h70v-462q0 -85 50.5 -133.5t139.5 -48.5t139.5 48.5t50.5 133.5z
" />
    <glyph glyph-name="uogonek" unicode="&#x173;" horiz-adv-x="558" 
d="M488 500v-500q-34 -31 -55 -65t-21 -59q0 -31 34 -31q21 0 42 9v-55q-28 -11 -59 -11q-38 0 -60 21t-22 55q0 60 75 147v67q-56 -90 -168 -90q-90 0 -143 55.5t-53 149.5v307h66v-307q0 -67 35.5 -104t100.5 -37q75 0 118.5 47t43.5 139v262h66z" />
    <glyph glyph-name="Wcircumflex" unicode="&#x174;" horiz-adv-x="1000" 
d="M570 770l-70 87l-70 -87h-75l106 130h78l106 -130h-75zM723 95l173 605h74l-203 -700h-84l-183 608l-183 -608h-84l-203 700h74l173 -605l182 605h82z" />
    <glyph glyph-name="wcircumflex" unicode="&#x175;" horiz-adv-x="770" 
d="M455 570l-70 87l-70 -87h-75l106 130h78l106 -130h-75zM549 85l123 415h68l-154 -500h-72l-129 403l-129 -403h-72l-154 500h68l123 -415l131 415h66z" />
    <glyph glyph-name="Ycircumflex" unicode="&#x176;" horiz-adv-x="595" 
d="M364 770l-70 87l-70 -87h-75l106 130h78l106 -130h-75zM506 700h79l-253 -413v-287h-70v289l-252 411h79l209 -343z" />
    <glyph glyph-name="ycircumflex" unicode="&#x177;" horiz-adv-x="510" 
d="M323 570l-70 87l-70 -87h-75l106 130h78l106 -130h-75zM268 81l162 419h70l-214 -546q-30 -76 -83.5 -117.5t-118.5 -36.5v62q90 -11 137 104l13 31l-224 503h70z" />
    <glyph glyph-name="Ydieresis" unicode="&#x178;" horiz-adv-x="595" 
d="M231 788q-13 -13 -32 -13t-32 13t-13 32t13 32t32 13t32 -13t13 -32t-13 -32zM421 788q-13 -13 -32 -13t-32 13t-13 32t13 32t32 13t32 -13t13 -32t-13 -32zM506 700h79l-253 -413v-287h-70v289l-252 411h79l209 -343z" />
    <glyph glyph-name="Zacute" unicode="&#x179;" horiz-adv-x="520" 
d="M295 900h80l-96 -130h-64zM480 634l-362 -568h372v-66h-450v66l362 568h-352v66h430v-66z" />
    <glyph glyph-name="zacute" unicode="&#x17a;" horiz-adv-x="470" 
d="M272 700h80l-96 -130h-64zM420 456l-278 -392h288v-64h-380v44l278 392h-268v64h360v-44z" />
    <glyph glyph-name="Zdotaccent" unicode="&#x17b;" horiz-adv-x="520" 
d="M304 786q-16 -16 -39 -16t-39 16t-16 39t16 39t39 16t39 -16t16 -39t-16 -39zM480 634l-362 -568h372v-66h-450v66l362 568h-352v66h430v-66z" />
    <glyph glyph-name="zdotaccent" unicode="&#x17c;" horiz-adv-x="470" 
d="M281 586q-16 -16 -39 -16t-39 16t-16 39t16 39t39 16t39 -16t16 -39t-16 -39zM420 456l-278 -392h288v-64h-380v44l278 392h-268v64h360v-44z" />
    <glyph glyph-name="Zcaron" unicode="&#x17d;" horiz-adv-x="520" 
d="M304 770h-78l-106 130h75l70 -87l70 87h75zM480 634l-362 -568h372v-66h-450v66l362 568h-352v66h430v-66z" />
    <glyph glyph-name="zcaron" unicode="&#x17e;" horiz-adv-x="470" 
d="M281 570h-78l-106 130h75l70 -87l70 87h75zM420 456l-278 -392h288v-64h-380v44l278 392h-268v64h360v-44z" />
    <glyph glyph-name="florin" unicode="&#x192;" horiz-adv-x="439" 
d="M439 703v-64q-54 20 -89 1.5t-43 -69.5l-32 -188h115v-64h-126l-66 -388q-15 -87 -68 -121.5t-130 -10.5v64q54 -20 89 -1.5t43 69.5l66 388h-109v64h120l32 188q15 87 68 121.5t130 10.5z" />
    <glyph glyph-name="Scommaaccent" unicode="&#x218;" horiz-adv-x="576" 
d="M300 -12q-96 0 -164.5 45.5t-95.5 125.5l60 35q19 -66 70.5 -102t130.5 -36q77 0 121 34t44 92q0 55 -40 83q-39 28 -132 58q-111 37 -144 58q-80 48 -80 139q0 89 62 140q61 52 153 52q79 0 140 -41.5t91 -109.5l-59 -33q-48 116 -172 116q-66 0 -105.5 -32.5
t-39.5 -88.5q0 -53 36 -78q37 -26 119 -53l54 -19q17 -5 48 -18q34 -13 47 -22q53 -32 67 -59q25 -40 25 -90q0 -89 -65 -143q-65 -53 -171 -53zM309 -240h-46l10 170h66z" />
    <glyph glyph-name="scommaaccent" unicode="&#x219;" horiz-adv-x="454" 
d="M122 369q0 -58 103 -85q29 -7 38 -9.5t35.5 -11t37 -14.5t29.5 -18.5t27 -25t15 -32t7 -41.5q0 -64 -51 -104q-49 -40 -130 -40q-70 0 -121 31.5t-72 83.5l56 33q14 -39 50.5 -61.5t86.5 -22.5q51 0 83 20t32 60q0 58 -103 85q-29 7 -38 9.5t-35.5 11t-37 14.5
t-29.5 18.5t-27 25t-15 32t-7 41.5q0 61 48 102q50 41 123 41q60 0 106.5 -27t68.5 -75l-55 -32q-28 70 -120 70q-45 0 -75 -21t-30 -58zM250 -240h-46l10 170h66z" />
    <glyph glyph-name="uni021A" unicode="&#x21a;" horiz-adv-x="540" 
d="M20 700h500v-66h-215v-634h-70v634h-215v66zM274 -240h-46l10 170h66z" />
    <glyph glyph-name="uni021B" unicode="&#x21b;" horiz-adv-x="375" 
d="M335 500v-64h-144v-303q0 -41 16 -58.5t48 -18t80 1.5v-58q-107 -16 -158.5 15.5t-51.5 117.5v303h-105v64h105v120l66 20v-140h144zM240 -240h-46l10 170h66z" />
    <glyph glyph-name="circumflex" unicode="&#x2c6;" horiz-adv-x="330" 
d="M204 700l106 -130h-75l-70 87l-70 -87h-75l106 130h78z" />
    <glyph glyph-name="caron" unicode="&#x2c7;" horiz-adv-x="330" 
d="M165 613l70 87h75l-106 -130h-78l-106 130h75z" />
    <glyph glyph-name="breve" unicode="&#x2d8;" horiz-adv-x="320" 
d="M160 562q-64 0 -102 35t-38 95h64q0 -72 76 -72t76 72h64q0 -62 -37 -96t-103 -34z" />
    <glyph glyph-name="dotaccent" unicode="&#x2d9;" horiz-adv-x="150" 
d="M114 586q-16 -16 -39 -16t-39 16t-16 39t16 39t39 16t39 -16t16 -39t-16 -39z" />
    <glyph glyph-name="ring" unicode="&#x2da;" horiz-adv-x="252" 
d="M202 578q-28 -28 -76 -28t-77 28q-29 29 -29 72q0 42 29 71q31 29 77 29q47 0 76 -29q30 -29 30 -71q0 -44 -30 -72zM126 601q32 -3 46 23t0 52t-46 23q-31 3 -44.5 -23t0 -52t44.5 -23z" />
    <glyph glyph-name="ogonek" unicode="&#x2db;" horiz-adv-x="181" 
d="M102 -212q-38 0 -60 21t-22 55q0 66 72 136h69q-34 -31 -55 -65t-21 -59q0 -31 34 -31q21 0 42 9v-55q-28 -11 -59 -11z" />
    <glyph glyph-name="tilde" unicode="&#x2dc;" horiz-adv-x="320" 
d="M78 580h-58q0 58 21 87.5t53 28t67 -28.5q22 -17 35 -24.5t24.5 -8t16.5 13t5 42.5h58q0 -58 -21 -87.5t-52.5 -28t-66.5 28.5q-43 32 -60 33q-12 1 -17 -12.5t-5 -43.5z" />
    <glyph glyph-name="hungarumlaut" unicode="&#x2dd;" horiz-adv-x="337" 
d="M20 570l70 130h74l-76 -130h-68zM163 570l80 130h74l-86 -130h-68z" />
    <glyph glyph-name="gravecomb" unicode="&#x300;" horiz-adv-x="0" 
d="M-20 570h-64l-96 130h80z" />
    <glyph glyph-name="acutecomb" unicode="&#x301;" horiz-adv-x="0" 
d="M-180 570l80 130h80l-96 -130h-64z" />
    <glyph glyph-name="uni0302" unicode="&#x302;" horiz-adv-x="0" 
d="M-126 700l106 -130h-75l-70 87l-70 -87h-75l106 130h78z" />
    <glyph glyph-name="tildecomb" unicode="&#x303;" horiz-adv-x="0" 
d="M-242 580h-58q0 58 21 87.5t53 28t67 -28.5q22 -17 35 -24.5t24.5 -8t16.5 13t5 42.5h58q0 -58 -21 -87.5t-52.5 -28t-66.5 28.5q-43 32 -60 33q-12 1 -17 -12.5t-5 -43.5z" />
    <glyph glyph-name="uni0304" unicode="&#x304;" horiz-adv-x="0" 
d="M-20 580h-260v58h260v-58z" />
    <glyph glyph-name="uni0306" unicode="&#x306;" horiz-adv-x="0" 
d="M-160 562q-64 0 -102 35t-38 95h64q0 -72 76 -72t76 72h64q0 -62 -37 -96t-103 -34z" />
    <glyph glyph-name="uni0307" unicode="&#x307;" horiz-adv-x="0" 
d="M-36 586q-16 -16 -39 -16t-39 16t-16 39t16 39t39 16t39 -16t16 -39t-16 -39z" />
    <glyph glyph-name="uni0308" unicode="&#x308;" horiz-adv-x="0" 
d="M-223 588q-13 -13 -32 -13t-32 13t-13 32t13 32t32 13t32 -13t13 -32t-13 -32zM-33 588q-13 -13 -32 -13t-32 13t-13 32t13 32t32 13t32 -13t13 -32t-13 -32z" />
    <glyph glyph-name="uni030A" unicode="&#x30a;" horiz-adv-x="0" 
d="M-49 578q-29 -28 -77 -28t-76 28q-30 28 -30 72q0 42 30 71q29 29 76 29q46 0 77 -29q29 -29 29 -71q0 -43 -29 -72zM-126 601q32 -3 46 23t0 52t-46 23q-31 3 -44.5 -23t0 -52t44.5 -23z" />
    <glyph glyph-name="uni030B" unicode="&#x30b;" horiz-adv-x="0" 
d="M-317 570l70 130h74l-76 -130h-68zM-174 570l80 130h74l-86 -130h-68z" />
    <glyph glyph-name="uni030C" unicode="&#x30c;" horiz-adv-x="0" 
d="M-165 613l70 87h75l-106 -130h-78l-106 130h75z" />
    <glyph glyph-name="uni0312" unicode="&#x312;" horiz-adv-x="0" 
d="M-66 960h46l-10 -170h-66z" />
    <glyph glyph-name="uni0326" unicode="&#x326;" horiz-adv-x="0" 
d="M-50 -240h-46l10 170h66z" />
    <glyph glyph-name="uni0327" unicode="&#x327;" horiz-adv-x="0" 
d="M-113 0v-45q43 -8 68 -29.5t25 -51.5q0 -102 -205 -90v54q147 -12 147 36q0 38 -93 41v85h58z" />
    <glyph glyph-name="uni0328" unicode="&#x328;" horiz-adv-x="0" 
d="M-79 -212q-38 0 -60 21t-22 55q0 66 72 136h69q-34 -31 -55 -65t-21 -59q0 -31 34 -31q21 0 42 9v-55q-28 -11 -59 -11z" />
    <glyph glyph-name="uni0394" unicode="&#x394;" horiz-adv-x="630" 
d="M279 700h72l269 -700h-610zM315 613l-206 -547h412z" />
    <glyph glyph-name="uni03A9" unicode="&#x3a9;" horiz-adv-x="804" 
d="M764 350q0 -89 -40 -164t-111 -120h139v-66h-273v66q96 26 155 103q60 79 60 181q0 123 -84 208q-84 86 -208 86t-208 -86q-84 -85 -84 -208q0 -101 59 -181q60 -77 156 -103v-66h-273v66h139q-71 45 -111 119.5t-40 164.5q0 151 105 256q105 106 257 106t257 -106
q105 -105 105 -256z" />
    <glyph glyph-name="pi" unicode="&#x3c0;" horiz-adv-x="650" 
d="M30 500h590v-64h-83v-436h-66v436h-288v-436h-66v436h-87v64z" />
    <glyph glyph-name="uni0401" unicode="&#x401;" horiz-adv-x="530" 
d="M220 788q-13 -13 -32 -13t-32 13t-13 32t13 32t32 13t32 -13t13 -32t-13 -32zM410 788q-13 -13 -32 -13t-32 13t-13 32t13 32t32 13t32 -13t13 -32t-13 -32zM150 320v-254h340v-66h-410v700h405v-66h-335v-248h310v-66h-310z" />
    <glyph glyph-name="uni0402" unicode="&#x402;" horiz-adv-x="698" 
d="M444 472q86 0 137.5 -50t51.5 -140v-118q0 -90 -47 -135t-133 -37v64q58 -6 84 19.5t26 88.5v118q0 126 -118 126q-83 0 -160 -33v-375h-70v634h-195v66h490v-66h-225v-196q69 34 159 34z" />
    <glyph glyph-name="uni0403" unicode="&#x403;" horiz-adv-x="490" 
d="M306 899h80l-96 -130h-64zM80 700h390v-66h-320v-634h-70v700z" />
    <glyph glyph-name="uni0404" unicode="&#x404;" horiz-adv-x="740" 
d="M402 56q78 0 143 38t98 102l62 -35q-43 -79 -125 -126t-178 -47q-159 0 -261 104q-101 106 -101 258q0 153 101 257q102 105 261 105q96 0 177 -46.5t126 -125.5l-62 -36q-33 64 -98 102t-143 38q-120 0 -200 -74q-79 -73 -90 -187h383v-66h-383q11 -114 90 -187
q80 -74 200 -74z" />
    <glyph glyph-name="uni0405" unicode="&#x405;" horiz-adv-x="576" 
d="M300 -12q-96 0 -164.5 45.5t-95.5 125.5l60 35q19 -66 70.5 -102t130.5 -36q77 0 121 34t44 92q0 55 -40 83q-39 28 -132 58q-111 37 -144 58q-80 48 -80 139q0 89 62 140q61 52 153 52q79 0 140 -41.5t91 -109.5l-59 -33q-48 116 -172 116q-66 0 -105.5 -32.5
t-39.5 -88.5q0 -53 36 -78q37 -26 119 -53l54 -19q17 -5 48 -18q34 -13 47 -22q53 -32 67 -59q25 -40 25 -90q0 -89 -65 -143q-65 -53 -171 -53z" />
    <glyph glyph-name="uni0406" unicode="&#x406;" horiz-adv-x="230" 
d="M80 0v700h70v-700h-70z" />
    <glyph glyph-name="uni0407" unicode="&#x407;" horiz-adv-x="230" 
d="M52 788q-13 -13 -32 -13t-32 13t-13 32t13 32t32 13t32 -13t13 -32t-13 -32zM242 788q-13 -13 -32 -13t-32 13t-13 32t13 32t32 13t32 -13t13 -32t-13 -32zM80 0v700h70v-700h-70z" />
    <glyph glyph-name="uni0408" unicode="&#x408;" horiz-adv-x="553" 
d="M253 -12q-75 0 -132 31t-81 89l59 35q33 -87 154 -87q75 0 117.5 36t42.5 106v502h70v-502q0 -102 -66 -156q-65 -54 -164 -54z" />
    <glyph glyph-name="uni0409" unicode="&#x409;" horiz-adv-x="995" 
d="M585 400h160q88 0 149 -58q61 -57 61 -142q0 -86 -61 -143q-62 -57 -149 -57h-230v634h-284v-325q0 -185 -55 -252q-54 -67 -161 -58v62q72 -10 109 46q37 55 37 204v389h424v-300zM585 66h160q59 0 99 37q41 38 41 97q0 58 -41 96t-99 38h-160v-268z" />
    <glyph glyph-name="uni040A" unicode="&#x40a;" horiz-adv-x="980" 
d="M570 400h160q88 0 149 -58q61 -57 61 -142q0 -86 -61 -143t-149 -57h-230v334h-350v-334h-70v700h70v-300h350v300h70v-300zM570 66h160q59 0 99 37q41 38 41 97q0 58 -41 96t-99 38h-160v-268z" />
    <glyph glyph-name="uni040B" unicode="&#x40b;" horiz-adv-x="703" 
d="M444 472q86 0 137.5 -50t51.5 -140v-282h-70v282q0 126 -118 126q-83 0 -160 -33v-375h-70v634h-195v66h490v-66h-225v-196q69 34 159 34z" />
    <glyph glyph-name="uni040C" unicode="&#x40c;" horiz-adv-x="580" 
d="M316 899h80l-96 -130h-64zM224 360l346 -360h-92l-328 339v-339h-70v700h70v-320l318 320h92z" />
    <glyph glyph-name="uni040E" unicode="&#x40e;" horiz-adv-x="570" 
d="M161 837h260v-58h-260v58zM304 270l184 430h72l-233 -547q-35 -84 -89 -121t-134 -32v64q56 -6 92.5 16.5t60.5 78.5l14 33l-241 508h72z" />
    <glyph glyph-name="uni040F" unicode="&#x40f;" horiz-adv-x="660" 
d="M510 66v634h70v-700h-215v-134h-70v134h-215v700h70v-634h360z" />
    <glyph glyph-name="uni0410" unicode="&#x410;" horiz-adv-x="630" 
d="M620 0h-74l-65 172h-332l-65 -172h-74l269 700h72zM315 613l-141 -375h282z" />
    <glyph glyph-name="uni0411" unicode="&#x411;" horiz-adv-x="585" 
d="M150 420h190q86 0 148 -62t62 -148q0 -87 -62 -149q-61 -61 -148 -61h-260v700h410v-66h-340v-214zM150 66h190q58 0 99 42q41 43 41 102q0 58 -41 101q-40 43 -99 43h-190v-288z" />
    <glyph glyph-name="uni0412" unicode="&#x412;" horiz-adv-x="620" 
d="M468 363q52 -22 82 -67t30 -101q0 -81 -57 -138t-138 -57h-305v700h282q77 0 133 -56q55 -55 55 -132q0 -98 -82 -149zM362 634h-212v-244h212q48 0 83 35q35 37 35 87q0 49 -35 86q-35 36 -83 36zM150 66h235q52 0 88 37q37 37 37 92q0 54 -37 91q-36 38 -88 38h-235
v-258z" />
    <glyph glyph-name="uni0413" unicode="&#x413;" horiz-adv-x="490" 
d="M80 700h390v-66h-320v-634h-70v700z" />
    <glyph glyph-name="uni0414" unicode="&#x414;" horiz-adv-x="690" 
d="M580 700v-634h75v-200h-70v134h-500v-134h-70v200h57q69 81 69 250v384h439zM155 66h355v568h-299v-320q0 -165 -56 -248z" />
    <glyph glyph-name="uni0415" unicode="&#x415;" horiz-adv-x="530" 
d="M150 320v-254h340v-66h-410v700h405v-66h-335v-248h310v-66h-310z" />
    <glyph glyph-name="uni0416" unicode="&#x416;" horiz-adv-x="850" 
d="M529 360l301 -360h-82l-288 342v-342h-70v342l-288 -342h-82l301 360l-291 340h82l278 -323v323h70v-323l278 323h82z" />
    <glyph glyph-name="uni0417" unicode="&#x417;" horiz-adv-x="565" 
d="M403 362q58 -22 90 -67t32 -106q0 -88 -66 -145q-65 -56 -176 -56q-96 0 -157 43t-86 115l60 34q14 -57 59 -91.5t124 -34.5q80 0 126 37t46 98t-42 98t-114 37h-80v66h55q71 0 113 35.5t42 93.5q0 57 -41 92t-110 35q-129 0 -170 -110l-58 34q58 142 228 142
q98 0 160 -56q61 -55 61 -138q0 -105 -96 -156z" />
    <glyph glyph-name="uni0418" unicode="&#x418;" horiz-adv-x="680" 
d="M600 0h-70v570l-390 -570h-60v700h70v-570l390 570h60v-700z" />
    <glyph glyph-name="uni0419" unicode="&#x419;" horiz-adv-x="680" 
d="M470 780h-260v58h260v-58zM600 0h-70v570l-390 -570h-60v700h70v-570l390 570h60v-700z" />
    <glyph glyph-name="uni041A" unicode="&#x41a;" horiz-adv-x="580" 
d="M224 360l346 -360h-92l-328 339v-339h-70v700h70v-320l318 320h92z" />
    <glyph glyph-name="uni041B" unicode="&#x41b;" horiz-adv-x="695" 
d="M15 0v62q73 -10 109 45q37 55 37 204v389h454v-700h-70v634h-314v-325q0 -95 -15 -159t-44.5 -97t-67 -45t-89.5 -8z" />
    <glyph glyph-name="uni041C" unicode="&#x41c;" horiz-adv-x="800" 
d="M633 700h87v-700h-70v594l-245 -410h-10l-245 410v-594h-70v700h87l233 -390z" />
    <glyph glyph-name="uni041D" unicode="&#x41d;" horiz-adv-x="680" 
d="M530 393v307h70v-700h-70v327h-380v-327h-70v700h70v-307h380z" />
    <glyph glyph-name="uni041E" unicode="&#x41e;" horiz-adv-x="804" 
d="M659 93q-105 -105 -257 -105t-257 105q-105 107 -105 257q0 151 105 256q105 106 257 106t257 -106q105 -105 105 -256q0 -150 -105 -257zM194 141q84 -85 208 -85t208 85t84 209q0 123 -84 208q-84 86 -208 86t-208 -86q-84 -85 -84 -208q0 -124 84 -209z" />
    <glyph glyph-name="uni041F" unicode="&#x41f;" horiz-adv-x="660" 
d="M80 700h500v-700h-70v634h-360v-634h-70v700z" />
    <glyph glyph-name="uni0420" unicode="&#x420;" horiz-adv-x="590" 
d="M80 700h250q94 0 157 -63t63 -157t-63 -157t-157 -63h-180v-260h-70v700zM150 326h180q65 0 107 43q43 43 43 111q0 67 -43 110q-42 44 -107 44h-180v-308z" />
    <glyph glyph-name="uni0421" unicode="&#x421;" horiz-adv-x="745" 
d="M407 -12q-160 0 -263 105q-104 106 -104 257t104 257q103 105 263 105q96 0 177 -46.5t126 -125.5l-62 -36q-33 64 -98 102t-143 38q-132 0 -214 -85q-83 -86 -83 -209t83 -209q82 -85 214 -85q78 0 143 38t98 102l62 -35q-43 -79 -125 -126t-178 -47z" />
    <glyph glyph-name="uni0422" unicode="&#x422;" horiz-adv-x="540" 
d="M20 700h500v-66h-215v-634h-70v634h-215v66z" />
    <glyph glyph-name="uni0423" unicode="&#x423;" horiz-adv-x="570" 
d="M304 270l184 430h72l-233 -547q-35 -84 -89 -121t-134 -32v64q56 -6 92.5 16.5t60.5 78.5l14 33l-241 508h72z" />
    <glyph glyph-name="uni0424" unicode="&#x424;" horiz-adv-x="804" 
d="M437 79v-79h-70v79q-153 8 -245 77q-92 71 -92 194t92 194q92 69 245 77v79h70v-79q154 -8 244 -77q93 -71 93 -194q0 -124 -93 -194q-90 -69 -244 -77zM367 143v414q-125 -6 -196 -59.5t-71 -147.5t71 -147.5t196 -59.5zM437 557v-414q125 6 196 59.5t71 147.5
t-71 147.5t-196 59.5z" />
    <glyph glyph-name="uni0425" unicode="&#x425;" horiz-adv-x="580" 
d="M330 361l230 -361h-80l-190 299l-190 -299h-80l230 361l-215 339h79l176 -276l176 276h79z" />
    <glyph glyph-name="uni0426" unicode="&#x426;" horiz-adv-x="690" 
d="M580 700v-634h75v-200h-70v134h-505v700h70v-634h360v634h70z" />
    <glyph glyph-name="uni0427" unicode="&#x427;" horiz-adv-x="625" 
d="M475 361v339h70v-700h-70v295q-91 -45 -190 -45t-160 56q-60 56 -60 144v250h70v-250q0 -61 40 -97.5t110 -36.5q99 0 190 45z" />
    <glyph glyph-name="uni0428" unicode="&#x428;" horiz-adv-x="950" 
d="M800 66v634h70v-700h-790v700h70v-634h290v634h70v-634h290z" />
    <glyph glyph-name="uni0429" unicode="&#x429;" horiz-adv-x="980" 
d="M870 700v-634h75v-200h-70v134h-795v700h70v-634h290v634h70v-634h290v634h70z" />
    <glyph glyph-name="uni042A" unicode="&#x42a;" horiz-adv-x="700" 
d="M440 0h-250v634h-190v66h260v-260h180q94 0 157 -63t63 -157t-63 -157t-157 -63zM260 374v-308h180q65 0 107 43q43 43 43 111q0 67 -43 110q-42 44 -107 44h-180z" />
    <glyph glyph-name="uni042B" unicode="&#x42b;" horiz-adv-x="775" 
d="M330 0h-250v700h70v-260h180q94 0 157 -63t63 -157t-63 -157t-157 -63zM695 0h-70v700h70v-700zM150 374v-308h180q65 0 107 43q43 43 43 111q0 67 -43 110q-42 44 -107 44h-180z" />
    <glyph glyph-name="uni042C" unicode="&#x42c;" horiz-adv-x="590" 
d="M150 440h180q94 0 157 -63t63 -157t-63 -157t-157 -63h-250v700h70v-260zM150 66h180q65 0 107 43q43 43 43 111q0 67 -43 110q-42 44 -107 44h-180v-308z" />
    <glyph glyph-name="uni042D" unicode="&#x42d;" horiz-adv-x="740" 
d="M338 712q160 0 260 -105q102 -104 102 -257t-102 -258q-101 -104 -260 -104q-96 0 -178 47t-125 126l62 35q33 -64 98 -102t143 -38q120 0 200 74q79 73 90 187h-383v66h383q-11 114 -90 187q-80 74 -200 74q-78 0 -143 -38t-98 -102l-62 36q45 79 126 125.5t177 46.5z
" />
    <glyph glyph-name="uni042E" unicode="&#x42e;" horiz-adv-x="1040" 
d="M638 712q152 0 257 -106q105 -105 105 -256q0 -150 -105 -257q-105 -105 -257 -105q-145 0 -248 98q-101 98 -109 241h-131v-327h-70v700h70v-307h132q17 138 116 228q100 91 240 91zM430 141q84 -85 208 -85t208 85t84 209q0 123 -84 208q-84 86 -208 86t-208 -86
q-84 -85 -84 -208q0 -124 84 -209z" />
    <glyph glyph-name="uni042F" unicode="&#x42f;" horiz-adv-x="620" 
d="M260 700h280v-700h-70v280h-168l-192 -280h-80l195 283q-77 14 -125 71q-50 59 -50 136q0 87 61 148q62 62 149 62zM260 346h210v288h-210q-58 0 -99 -42q-41 -43 -41 -102q0 -58 41 -102q41 -42 99 -42z" />
    <glyph glyph-name="uni0430" unicode="&#x430;" 
d="M500 402v98h66v-500h-66v98q-69 -110 -202 -110q-107 0 -183 76q-75 76 -75 186t75 186q76 76 183 76q133 0 202 -110zM163 109q57 -57 140 -57t140 57q57 59 57 141q0 83 -57 140q-57 58 -140 58t-140 -58q-57 -57 -57 -140q0 -82 57 -141z" />
    <glyph glyph-name="uni0431" unicode="&#x431;" horiz-adv-x="567" 
d="M292 -12q-107 0 -180 71q-72 72 -72 186q0 128 38 196q38 69 154 125q37 17 58 26q35 14 55 24q87 40 88 99l52 -30q-5 -25 -16 -45q-13 -22 -25.5 -35t-38.5 -28q-17 -10 -41 -22l-50 -21l-47 -20q-69 -30 -102.5 -62.5t-47.5 -84.5q32 43 84 65.5t105 22.5
q100 0 165 -66q66 -65 66 -167q0 -101 -70 -168q-69 -66 -175 -66zM292 54q78 0 128 47q51 48 51 121q0 74 -48 121q-47 48 -126 48q-71 0 -129 -45q-58 -43 -58 -118q0 -76 52 -125t130 -49z" />
    <glyph glyph-name="uni0432" unicode="&#x432;" horiz-adv-x="500" 
d="M388 257q82 -30 82 -117q0 -62 -41.5 -101t-115.5 -39h-243v500h223q72 0 112.5 -37t40.5 -97q0 -75 -58 -109zM293 436h-157v-152h157q87 0 87 78q0 35 -22.5 54.5t-64.5 19.5zM136 64h177q44 0 67.5 21t23.5 59q0 36 -23.5 56t-67.5 20h-177v-156z" />
    <glyph glyph-name="uni0433" unicode="&#x433;" horiz-adv-x="400" 
d="M70 500h320v-64h-254v-436h-66v500z" />
    <glyph glyph-name="uni0434" unicode="&#x434;" horiz-adv-x="590" 
d="M490 500v-436h70v-198h-66v134h-408v-134h-66v198h61q51 68 51 189v247h358zM161 64h263v372h-226v-183q0 -116 -37 -189z" />
    <glyph glyph-name="uni0435" unicode="&#x435;" horiz-adv-x="584" 
d="M301 512q112 0 179 -79q69 -78 69 -185q0 -5 -2 -31h-439q10 -75 64 -120t135 -45q114 0 161 85l58 -34q-33 -54 -90.5 -84.5t-129.5 -30.5q-118 0 -192 74t-74 188q0 113 73 187q73 75 188 75zM301 448q-78 0 -130.5 -46t-62.5 -121h373q-11 80 -61 123q-52 44 -119 44z
" />
    <glyph glyph-name="uni0436" unicode="&#x436;" horiz-adv-x="674" 
d="M430 260l224 -260h-80l-204 241v-241h-66v241l-204 -241h-80l224 260l-214 240h80l194 -222v222h66v-222l194 222h80z" />
    <glyph glyph-name="uni0437" unicode="&#x437;" horiz-adv-x="445" 
d="M328 257q87 -33 87 -120q0 -63 -49 -106q-47 -43 -138 -43q-152 0 -198 120l56 33q32 -89 142 -89q57 0 89 24.5t32 64.5q0 36 -26 57.5t-70 21.5h-73v64h53q43 0 67.5 21.5t24.5 59.5q0 36 -29.5 59.5t-77.5 23.5q-93 0 -125 -75l-55 32q50 107 180 107q80 0 126 -42
q47 -41 47 -101q0 -77 -63 -112z" />
    <glyph glyph-name="uni0438" unicode="&#x438;" horiz-adv-x="560" 
d="M136 115l298 385h56v-500h-66v385l-298 -385h-56v500h66v-385z" />
    <glyph glyph-name="uni0439" unicode="&#x439;" horiz-adv-x="560" 
d="M410 580h-260v58h260v-58zM136 115l298 385h56v-500h-66v385l-298 -385h-56v500h66v-385z" />
    <glyph glyph-name="uni043A" unicode="&#x43a;" horiz-adv-x="494" 
d="M206 260l268 -260h-88l-250 241v-241h-66v500h66v-221l238 221h90z" />
    <glyph glyph-name="uni043B" unicode="&#x43b;" horiz-adv-x="550" 
d="M122 500h358v-500h-66v436h-226v-223q0 -125 -48 -172q-47 -47 -130 -41v62q58 -6 85 28t27 123v287z" />
    <glyph glyph-name="uni043C" unicode="&#x43c;" horiz-adv-x="630" 
d="M484 500h76v-500h-66v399l-175 -284h-8l-175 284v-399h-66v500h76l169 -274z" />
    <glyph glyph-name="uni043D" unicode="&#x43d;" horiz-adv-x="560" 
d="M424 282v218h66v-500h-66v218h-288v-218h-66v500h66v-218h288z" />
    <glyph glyph-name="uni043E" unicode="&#x43e;" horiz-adv-x="606" 
d="M489 63q-77 -75 -186 -75q-111 0 -187 75q-76 76 -76 187t76 186q76 76 187 76q110 0 186 -76q77 -75 77 -186q0 -110 -77 -187zM163 109q57 -57 140 -57t140 57q57 59 57 141q0 83 -57 140q-57 58 -140 58t-140 -58q-57 -57 -57 -140q0 -82 57 -141z" />
    <glyph glyph-name="uni043F" unicode="&#x43f;" horiz-adv-x="560" 
d="M70 500h420v-500h-66v436h-288v-436h-66v500z" />
    <glyph glyph-name="uni0440" unicode="&#x440;" 
d="M338 512q107 0 182 -76q76 -76 76 -186t-76 -186q-75 -76 -182 -76q-133 0 -202 110v-298h-66v700h66v-98q69 110 202 110zM193 109q57 -57 140 -57t140 57q57 59 57 141q0 83 -57 140q-57 58 -140 58t-140 -58q-57 -57 -57 -140q0 -82 57 -141z" />
    <glyph glyph-name="uni0441" unicode="&#x441;" horiz-adv-x="552" 
d="M303 -12q-113 0 -188 75q-75 77 -75 187q0 111 75 186q75 76 188 76q74 0 133 -35.5t86 -95.5l-54 -31q-20 45 -64.5 71.5t-100.5 26.5q-83 0 -140 -58q-57 -57 -57 -140q0 -82 57 -141q57 -57 140 -57q55 0 99.5 26t69.5 72l55 -32q-31 -60 -91 -95t-133 -35z" />
    <glyph glyph-name="uni0442" unicode="&#x442;" horiz-adv-x="440" 
d="M10 500h420v-64h-177v-436h-66v436h-177v64z" />
    <glyph glyph-name="uni0443" unicode="&#x443;" horiz-adv-x="510" 
d="M268 81l162 419h70l-214 -546q-30 -76 -83.5 -117.5t-118.5 -36.5v62q90 -11 137 104l13 31l-224 503h70z" />
    <glyph glyph-name="uni0444" unicode="&#x444;" horiz-adv-x="670" 
d="M368 -11v-189h-66v189q-119 11 -190 83q-72 74 -72 178t72 178q71 72 190 83v189h66v-189q119 -11 190 -83q72 -74 72 -178t-72 -178q-71 -72 -190 -83zM302 54v392q-89 -9 -142.5 -63t-53.5 -133t53.5 -133t142.5 -63zM368 446v-392q89 9 142.5 63t53.5 133t-53.5 133
t-142.5 63z" />
    <glyph glyph-name="uni0445" unicode="&#x445;" horiz-adv-x="510" 
d="M295 259l195 -259h-79l-156 206l-156 -206h-79l196 259l-183 241h79l143 -189l143 189h79z" />
    <glyph glyph-name="uni0446" unicode="&#x446;" horiz-adv-x="590" 
d="M480 500v-436h80v-198h-66v134h-424v500h66v-436h278v436h66z" />
    <glyph glyph-name="uni0447" unicode="&#x447;" horiz-adv-x="530" 
d="M394 251v249h66v-500h-66v190q-58 -30 -143 -30q-99 0 -150 45.5t-51 134.5v160h66v-160q0 -62 32.5 -90t100.5 -28q76 0 145 29z" />
    <glyph glyph-name="uni0448" unicode="&#x448;" horiz-adv-x="810" 
d="M674 64v436h66v-500h-670v500h66v-436h236v436h66v-436h236z" />
    <glyph glyph-name="uni0449" unicode="&#x449;" horiz-adv-x="840" 
d="M740 500v-436h70v-198h-66v134h-674v500h66v-436h236v436h66v-436h236v436h66z" />
    <glyph glyph-name="uni044A" unicode="&#x44a;" horiz-adv-x="540" 
d="M206 310h137q69 0 118 -44q49 -43 49 -111q0 -69 -49 -112q-47 -43 -118 -43h-203v436h-140v64h206v-190zM206 64h137q43 0 72 25.5t29 65.5t-29 65.5t-72 25.5h-137v-182z" />
    <glyph glyph-name="uni044B" unicode="&#x44b;" horiz-adv-x="646" 
d="M136 310h137q69 0 118 -44q49 -43 49 -111q0 -69 -49 -112q-47 -43 -118 -43h-203v500h66v-190zM510 0v500h66v-500h-66zM136 64h137q43 0 72 25.5t29 65.5t-29 65.5t-72 25.5h-137v-182z" />
    <glyph glyph-name="uni044C" unicode="&#x44c;" horiz-adv-x="470" 
d="M136 310h137q69 0 118 -44q49 -43 49 -111q0 -69 -49 -112q-47 -43 -118 -43h-203v500h66v-190zM136 64h137q43 0 72 25.5t29 65.5t-29 65.5t-72 25.5h-137v-182z" />
    <glyph glyph-name="uni044D" unicode="&#x44d;" horiz-adv-x="539" 
d="M248 512q113 0 182 -75q69 -74 69 -187q0 -114 -70 -188q-69 -74 -183 -74q-80 0 -139.5 35.5t-86.5 96.5l57 33q18 -47 62 -74t107 -27q74 0 124.5 46t60.5 120h-249v64h249q-9 74 -59 120t-124 46q-57 0 -101 -27t-65 -73l-58 33q30 61 89.5 96t134.5 35z" />
    <glyph glyph-name="uni044E" unicode="&#x44e;" horiz-adv-x="800" 
d="M497 512q110 0 186 -76q77 -75 77 -186q0 -110 -77 -187q-77 -75 -186 -75q-100 0 -174 65q-73 67 -83 165h-104v-218h-66v500h66v-218h104q11 99 83 164q73 66 174 66zM357 109q57 -57 140 -57t140 57q57 59 57 141q0 83 -57 140q-57 58 -140 58t-140 -58
q-57 -57 -57 -140q0 -82 57 -141z" />
    <glyph glyph-name="uni044F" unicode="&#x44f;" horiz-adv-x="500" 
d="M227 500h203v-500h-66v192h-86l-154 -192h-84l158 194q-61 9 -99.5 50.5t-38.5 100.5q0 67 48 111q50 44 119 44zM227 254h137v182h-137q-43 0 -72 -25.5t-29 -65.5t29 -65.5t72 -25.5z" />
    <glyph glyph-name="uni0451" unicode="&#x451;" horiz-adv-x="584" 
d="M232 588q-13 -13 -32 -13t-32 13t-13 32t13 32t32 13t32 -13t13 -32t-13 -32zM422 588q-13 -13 -32 -13t-32 13t-13 32t13 32t32 13t32 -13t13 -32t-13 -32zM301 512q112 0 179 -79q69 -78 69 -185q0 -5 -2 -31h-439q10 -75 64 -120t135 -45q114 0 161 85l58 -34
q-33 -54 -90.5 -84.5t-129.5 -30.5q-118 0 -192 74t-74 188q0 113 73 187q73 75 188 75zM301 448q-78 0 -130.5 -46t-62.5 -121h373q-11 80 -61 123q-52 44 -119 44z" />
    <glyph glyph-name="uni0452" unicode="&#x452;" horiz-adv-x="568" 
d="M314 512q90 0 143 -55.5t53 -149.5v-347q0 -90 -47 -135t-133 -37v64q60 -6 87 19.5t27 88.5v347q0 67 -35.5 104t-100.5 37q-75 0 -118.5 -47t-43.5 -139v-262h-66v576h-70v54h70v70h66v-70h144v-54h-144v-154q56 90 168 90z" />
    <glyph glyph-name="uni0453" unicode="&#x453;" horiz-adv-x="400" 
d="M236 700h80l-96 -130h-64zM70 500h320v-64h-254v-436h-66v500z" />
    <glyph glyph-name="uni0454" unicode="&#x454;" horiz-adv-x="539" 
d="M462 153l57 -33q-27 -61 -86.5 -96.5t-139.5 -35.5q-113 0 -184 74q-69 75 -69 188q0 114 69 187q69 75 182 75q75 0 134.5 -35t89.5 -96l-58 -33q-21 46 -65 73t-101 27q-74 0 -124 -46t-59 -120h249v-64h-249q10 -74 60.5 -120t124.5 -46q63 0 107 27t62 74z" />
    <glyph glyph-name="uni0455" unicode="&#x455;" horiz-adv-x="454" 
d="M122 369q0 -58 103 -85q29 -7 38 -9.5t35.5 -11t37 -14.5t29.5 -18.5t27 -25t15 -32t7 -41.5q0 -64 -51 -104q-49 -40 -130 -40q-70 0 -121 31.5t-72 83.5l56 33q14 -39 50.5 -61.5t86.5 -22.5q51 0 83 20t32 60q0 58 -103 85q-29 7 -38 9.5t-35.5 11t-37 14.5
t-29.5 18.5t-27 25t-15 32t-7 41.5q0 61 48 102q50 41 123 41q60 0 106.5 -27t68.5 -75l-55 -32q-28 70 -120 70q-45 0 -75 -21t-30 -58z" />
    <glyph glyph-name="uni0456" unicode="&#x456;" horiz-adv-x="206" 
d="M137 620q-14 -14 -34 -14t-34 14t-14 34t14 34t34 14t34 -14t14 -34t-14 -34zM136 0h-66v500h66v-500z" />
    <glyph glyph-name="uni0457" unicode="&#x457;" horiz-adv-x="206" 
d="M40 588q-13 -13 -32 -13t-32 13t-13 32t13 32t32 13t32 -13t13 -32t-13 -32zM230 588q-13 -13 -32 -13t-32 13t-13 32t13 32t32 13t32 -13t13 -32t-13 -32zM136 0h-66v500h66v-500z" />
    <glyph glyph-name="uni0458" unicode="&#x458;" horiz-adv-x="230" 
d="M93 688q14 14 34 14t34 -14t14 -34t-14 -34t-34 -14t-34 14t-14 34t14 34zM94 -40v540h66v-540q0 -90 -47 -135t-133 -37v64q60 -6 87 19.5t27 88.5z" />
    <glyph glyph-name="uni0459" unicode="&#x459;" horiz-adv-x="789" 
d="M470 290h132q68 0 112.5 -39.5t44.5 -105.5t-44.5 -105.5t-112.5 -39.5h-198v436h-216v-223q0 -125 -48 -172q-47 -47 -130 -41v62q58 -6 85 28t27 123v287h348v-210zM470 64h132q41 0 66 21t25 60t-25 60t-66 21h-132v-162z" />
    <glyph glyph-name="uni045A" unicode="&#x45a;" horiz-adv-x="789" 
d="M470 290h132q68 0 112.5 -39.5t44.5 -105.5t-44.5 -105.5t-112.5 -39.5h-198v226h-268v-226h-66v500h66v-210h268v210h66v-210zM470 64h132q41 0 66 21t25 60t-25 60t-66 21h-132v-162z" />
    <glyph glyph-name="uni045B" unicode="&#x45b;" horiz-adv-x="568" 
d="M314 512q90 0 143 -55.5t53 -149.5v-307h-66v307q0 67 -35.5 104t-100.5 37q-75 0 -118.5 -47t-43.5 -139v-262h-66v576h-70v54h70v70h66v-70h144v-54h-144v-154q56 90 168 90z" />
    <glyph glyph-name="uni045C" unicode="&#x45c;" horiz-adv-x="494" 
d="M276 700h80l-96 -130h-64zM206 260l268 -260h-88l-250 241v-241h-66v500h66v-221l238 221h90z" />
    <glyph glyph-name="uni045E" unicode="&#x45e;" horiz-adv-x="510" 
d="M123 638h260v-58h-260v58zM268 81l162 419h70l-214 -546q-30 -76 -83.5 -117.5t-118.5 -36.5v62q90 -11 137 104l13 31l-224 503h70z" />
    <glyph glyph-name="uni045F" unicode="&#x45f;" horiz-adv-x="560" 
d="M424 64v436h66v-500h-177v-134h-66v134h-177v500h66v-436h288z" />
    <glyph glyph-name="uni0490" unicode="&#x490;" horiz-adv-x="490" 
d="M400 700v120h70v-186h-320v-634h-70v700h320z" />
    <glyph glyph-name="uni0491" unicode="&#x491;" horiz-adv-x="400" 
d="M324 500v104h66v-168h-254v-436h-66v500h254z" />
    <glyph glyph-name="Wgrave" unicode="&#x1e80;" horiz-adv-x="1000" 
d="M560 770h-64l-96 130h80zM233 0h84l183 608l183 -608h84l203 700h-74l-173 -605l-182 605h-82l-182 -605l-173 605h-74z" />
    <glyph glyph-name="wgrave" unicode="&#x1e81;" horiz-adv-x="770" 
d="M365 700l80 -130h-64l-96 130h80zM549 85l123 415h68l-154 -500h-72l-129 403l-129 -403h-72l-154 500h68l123 -415l131 415h66z" />
    <glyph glyph-name="Wacute" unicode="&#x1e82;" horiz-adv-x="1000" 
d="M450 770l80 130h80l-96 -130h-64zM233 0h84l183 608l183 -608h84l203 700h-74l-173 -605l-182 605h-82l-182 -605l-173 605h-74z" />
    <glyph glyph-name="wacute" unicode="&#x1e83;" horiz-adv-x="770" 
d="M415 700h80l-96 -130h-64zM549 85l123 415h68l-154 -500h-72l-129 403l-129 -403h-72l-154 500h68l123 -415l131 415h66z" />
    <glyph glyph-name="Wdieresis" unicode="&#x1e84;" horiz-adv-x="1000" 
d="M437 788q-13 -13 -32 -13t-32 13t-13 32t13 32t32 13t32 -13t13 -32t-13 -32zM627 788q-13 -13 -32 -13t-32 13t-13 32t13 32t32 13t32 -13t13 -32t-13 -32zM317 0h-84l-203 700h74l173 -605l182 605h82l182 -605l173 605h74l-203 -700h-84l-183 608z" />
    <glyph glyph-name="wdieresis" unicode="&#x1e85;" horiz-adv-x="770" 
d="M322 588q-13 -13 -32 -13t-32 13t-13 32t13 32t32 13t32 -13t13 -32t-13 -32zM512 588q-13 -13 -32 -13t-32 13t-13 32t13 32t32 13t32 -13t13 -32t-13 -32zM549 85l123 415h68l-154 -500h-72l-129 403l-129 -403h-72l-154 500h68l123 -415l131 415h66z" />
    <glyph glyph-name="Ygrave" unicode="&#x1ef2;" horiz-adv-x="595" 
d="M274 900l80 -130h-64l-96 130h80zM506 700h79l-253 -413v-287h-70v289l-252 411h79l209 -343z" />
    <glyph glyph-name="ygrave" unicode="&#x1ef3;" horiz-adv-x="510" 
d="M233 700l80 -130h-64l-96 130h80zM268 81l162 419h70l-214 -546q-30 -76 -83.5 -117.5t-118.5 -36.5v62q90 -11 137 104l13 31l-224 503h70z" />
    <glyph glyph-name="endash" unicode="&#x2013;" horiz-adv-x="660" 
d="M580 277h-500v64h500v-64z" />
    <glyph glyph-name="emdash" unicode="&#x2014;" horiz-adv-x="760" 
d="M680 277h-600v64h600v-64z" />
    <glyph glyph-name="quoteleft" unicode="&#x2018;" horiz-adv-x="240" 
d="M140 475h-80l60 225h60z" />
    <glyph glyph-name="quoteright" unicode="&#x2019;" horiz-adv-x="240" 
d="M100 700h80l-60 -225h-60z" />
    <glyph glyph-name="quotesinglbase" unicode="&#x201a;" horiz-adv-x="240" 
d="M100 85h80l-60 -225h-60z" />
    <glyph glyph-name="quotedblleft" unicode="&#x201c;" horiz-adv-x="380" 
d="M140 475h-80l60 225h60zM280 475h-80l60 225h60z" />
    <glyph glyph-name="quotedblright" unicode="&#x201d;" horiz-adv-x="380" 
d="M100 700h80l-60 -225h-60zM240 700h80l-60 -225h-60z" />
    <glyph glyph-name="quotedblbase" unicode="&#x201e;" horiz-adv-x="380" 
d="M100 85h80l-60 -225h-60zM240 85h80l-60 -225h-60z" />
    <glyph glyph-name="dagger" unicode="&#x2020;" horiz-adv-x="480" 
d="M273 535h147v-64h-147v-471h-66v471h-147v64h147v165h66v-165z" />
    <glyph glyph-name="daggerdbl" unicode="&#x2021;" horiz-adv-x="480" 
d="M420 535v-64h-147v-242h147v-64h-147v-165h-66v165h-147v64h147v242h-147v64h147v165h66v-165h147z" />
    <glyph glyph-name="bullet" unicode="&#x2022;" horiz-adv-x="300" 
d="M151 250q-42 0 -71.5 29.5t-29.5 71.5q0 41 29.5 70t71.5 29q41 0 70 -29t29 -70q0 -42 -29 -71.5t-70 -29.5z" />
    <glyph glyph-name="ellipsis" unicode="&#x2026;" horiz-adv-x="610" 
d="M154 6q-16 -16 -39 -16t-39 16t-16 39t16 39t39 16t39 -16t16 -39t-16 -39zM344 6q-16 -16 -39 -16t-39 16t-16 39t16 39t39 16t39 -16t16 -39t-16 -39zM534 6q-16 -16 -39 -16t-39 16t-16 39t16 39t39 16t39 -16t16 -39t-16 -39z" />
    <glyph glyph-name="perthousand" unicode="&#x2030;" horiz-adv-x="1064" 
d="M213 412q-66 0 -109 43q-44 44 -44 107q0 62 44 106t109 44t109 -44t44 -106q0 -64 -43 -107t-110 -43zM149 498q25 -26 64 -26t64 26t25 64t-25 64t-64 26t-64 -26t-25 -64t25 -64zM137 71l-42 24l469 527l43 -24zM605 31q-43 -43 -109 -43t-109 43q-44 44 -44 107
q0 62 44 106t109 44t109 -44t44 -106q0 -63 -44 -107zM960 31q-43 -43 -109 -43t-109 43q-44 44 -44 107q0 62 44 106t109 44t109 -44t44 -106q0 -63 -44 -107zM432 74q25 -26 64 -26t64 26t25 64t-25 64t-64 26t-64 -26t-25 -64t25 -64zM787 74q25 -26 64 -26t64 26t25 64
t-25 64t-64 26t-64 -26t-25 -64t25 -64z" />
    <glyph glyph-name="guilsinglleft" unicode="&#x2039;" horiz-adv-x="332" 
d="M180 489h82l-110 -180l110 -180h-82l-110 180z" />
    <glyph glyph-name="guilsinglright" unicode="&#x203a;" horiz-adv-x="332" 
d="M70 489h82l110 -180l-110 -180h-82l110 180z" />
    <glyph glyph-name="fraction" unicode="&#x2044;" horiz-adv-x="220" 
d="M340 700l-400 -700h-60l400 700h60z" />
    <glyph glyph-name="Euro" unicode="&#x20ac;" horiz-adv-x="594" 
d="M360 56q53 0 92.5 26t58.5 75l58 -33q-26 -65 -80.5 -100.5t-128.5 -35.5q-108 0 -177.5 74t-87.5 204h-75v58h70v26q0 27 1 34h-71v58h77q18 126 87.5 198t175.5 72q74 0 128.5 -35.5t80.5 -99.5l-58 -33q-42 100 -151 100q-76 0 -126.5 -53t-66.5 -149h253v-58h-259
q-1 -7 -1 -34q0 -21 1 -26h259v-58h-254q15 -101 65.5 -155.5t128.5 -54.5z" />
    <glyph glyph-name="uni20BD" unicode="&#x20bd;" horiz-adv-x="590" 
d="M360 280h-180v-94h260v-58h-260v-128h-70v128h-90v58h90v94h-90v66h90v354h250q86 0 148 -62t62 -148t-62 -148t-148 -62zM360 634h-180v-288h180q58 0 99 42q41 44 41 102q0 59 -41 102q-41 42 -99 42z" />
    <glyph glyph-name="uni2116" unicode="&#x2116;" horiz-adv-x="1016" 
d="M823 412q-66 0 -109 43q-44 44 -44 107q0 62 44 106t109 44t109 -44t44 -106q0 -64 -43 -107t-110 -43zM530 130v570h70v-700h-60l-390 570v-570h-70v700h60zM759 498q25 -26 64 -26t64 26t25 64t-25 64t-64 26t-64 -26t-25 -64t25 -64zM964 278h-282v64h282v-64z" />
    <glyph glyph-name="trademark" unicode="&#x2122;" horiz-adv-x="465" 
d="M40 700h155v-37h-57v-163h-40v163h-58v37zM322 600l63 100h40v-200h-40v133l-61 -97h-4l-61 97v-133h-40v200h40z" />
    <glyph glyph-name="estimated" unicode="&#x212e;" horiz-adv-x="820" 
d="M780 350q0 -15 -15 -15h-560q-15 0 -15 -15v-192q0 -12 7 -19q84 -89 233 -89q146 0 231 97q7 9 18 9h37q10 0 13 -6t-4 -13q-109 -117 -295 -117q-177 0 -283 103q-107 104 -107 257t103 256q104 104 267 104q162 0 266 -104t104 -256zM630 380v192q0 12 -7 19
q-84 89 -213 89t-213 -89q-7 -7 -7 -19v-192q0 -15 15 -15h410q15 0 15 15z" />
    <glyph glyph-name="oneeighth" unicode="&#x215b;" horiz-adv-x="802" 
d="M179 700v-400h-62v332l-91 -27l-16 53l116 42h53zM127 0l400 700h60l-400 -700h-60zM712 211q66 -35 66 -105q0 -54 -39.5 -86t-103.5 -32t-104 32t-40 86q0 71 66 104q-53 32 -53 88q0 52 37 83t94 31q56 0 93 -31t37 -83q0 -55 -53 -87zM566 298q0 -27 18 -43t51 -16
q32 0 50 16t18 43q0 26 -17.5 41t-50.5 15t-51 -15t-18 -41zM635 48q38 0 59.5 18t21.5 48t-22 47.5t-59 17.5q-40 0 -61 -17t-21 -48q0 -30 21.5 -48t60.5 -18z" />
    <glyph glyph-name="threeeighths" unicode="&#x215c;" horiz-adv-x="907" 
d="M313 417q0 -58 -40 -93.5t-106 -35.5q-101 0 -142 84l52 30q25 -54 90 -54q40 0 62 18.5t22 50.5q0 31 -22.5 50t-61.5 19h-4l-31 47l90 107h-184v60h258v-60l-89 -106q50 -10 78 -40.5t28 -76.5zM232 0l400 700h60l-400 -700h-60zM817 211q66 -35 66 -105
q0 -54 -39.5 -86t-103.5 -32t-104 32t-40 86q0 71 66 104q-53 32 -53 88q0 52 37 83t94 31q56 0 93 -31t37 -83q0 -55 -53 -87zM671 298q0 -27 18 -43t51 -16q32 0 50 16t18 43q0 26 -17.5 41t-50.5 15t-51 -15t-18 -41zM740 48q38 0 59.5 18t21.5 48t-22 47.5t-59 17.5
q-40 0 -61 -17t-21 -48q0 -30 21.5 -48t60.5 -18z" />
    <glyph glyph-name="fiveeighths" unicode="&#x215d;" horiz-adv-x="896" 
d="M303 417q0 -59 -38.5 -94t-104.5 -35q-103 0 -140 85l53 29q25 -54 87 -54q38 0 59.5 19t21.5 50q0 34 -21.5 53.5t-59.5 19.5h-122l15 210h234v-58h-181l-6 -92h62q63 0 102 -36.5t39 -96.5zM221 0l400 700h60l-400 -700h-60zM806 211q66 -35 66 -105q0 -54 -39.5 -86
t-103.5 -32t-104 32t-40 86q0 71 66 104q-53 32 -53 88q0 52 37 83t94 31q56 0 93 -31t37 -83q0 -55 -53 -87zM660 298q0 -27 18 -43t51 -16q32 0 50 16t18 43q0 26 -17.5 41t-50.5 15t-51 -15t-18 -41zM729 48q38 0 59.5 18t21.5 48t-22 47.5t-59 17.5q-40 0 -61 -17
t-21 -48q0 -30 21.5 -48t60.5 -18z" />
    <glyph glyph-name="seveneighths" unicode="&#x215e;" horiz-adv-x="851" 
d="M10 700h266v-50l-148 -350h-66l146 340h-198v60zM176 0l400 700h60l-400 -700h-60zM761 211q66 -35 66 -105q0 -54 -39.5 -86t-103.5 -32t-104 32t-40 86q0 71 66 104q-53 32 -53 88q0 52 37 83t94 31q56 0 93 -31t37 -83q0 -55 -53 -87zM615 298q0 -27 18 -43t51 -16
q32 0 50 16t18 43q0 26 -17.5 41t-50.5 15t-51 -15t-18 -41zM684 48q38 0 59.5 18t21.5 48t-22 47.5t-59 17.5q-40 0 -61 -17t-21 -48q0 -30 21.5 -48t60.5 -18z" />
    <glyph glyph-name="arrowleft" unicode="&#x2190;" horiz-adv-x="820" 
d="M182 382h578v-64h-578l268 -268h-90l-300 300l300 300h90z" />
    <glyph glyph-name="arrowup" unicode="&#x2191;" horiz-adv-x="720" 
d="M360 700l300 -300v-90l-267 267v-577h-66v577l-267 -267v90z" />
    <glyph glyph-name="arrowright" unicode="&#x2192;" horiz-adv-x="820" 
d="M370 650h90l300 -300l-300 -300h-90l268 268h-578v64h578z" />
    <glyph glyph-name="arrowdown" unicode="&#x2193;" horiz-adv-x="720" 
d="M393 700v-577l267 267v-90l-300 -300l-300 300v90l267 -267v577h66z" />
    <glyph glyph-name="arrowboth" unicode="&#x2194;" horiz-adv-x="1040" 
d="M641 600h90l249 -250l-249 -250h-90l217 218h-676l217 -218h-90l-249 250l249 250h90l-217 -218h676z" />
    <glyph glyph-name="arrowupdn" unicode="&#x2195;" horiz-adv-x="620" 
d="M560 561v-90l-217 216v-674l217 216v-90l-250 -249l-250 249v90l217 -216v674l-217 -216v90l250 249z" />
    <glyph glyph-name="uni2196" unicode="&#x2196;" horiz-adv-x="638" 
d="M170 524l408 -408l-47 -47l-408 408v-377l-63 63v424h424l63 -63h-377z" />
    <glyph glyph-name="uni2197" unicode="&#x2197;" horiz-adv-x="638" 
d="M91 524l63 63h424v-424l-63 -63v377l-408 -408l-47 47l408 408h-377z" />
    <glyph glyph-name="uni2198" unicode="&#x2198;" horiz-adv-x="638" 
d="M515 199v377l63 -63v-424h-424l-63 63h377l-408 408l47 47z" />
    <glyph glyph-name="uni2199" unicode="&#x2199;" horiz-adv-x="638" 
d="M531 607l47 -47l-408 -408h377l-63 -63h-424v424l63 63v-377z" />
    <glyph glyph-name="partialdiff" unicode="&#x2202;" horiz-adv-x="576" 
d="M232 712q121 0 202 -100q82 -100 82 -262q0 -171 -73 -266q-73 -96 -186 -96q-97 0 -152 60q-55 59 -55 152q0 104 61 166q61 64 168 64q93 0 170 -53q-6 114 -63 192t-154 78q-72 0 -131 -35v64q56 36 131 36zM257 52q82 0 133.5 69t58.5 189q-73 56 -170 56
q-76 0 -119.5 -43.5t-43.5 -122.5q0 -67 37 -107.5t104 -40.5z" />
    <glyph glyph-name="emptyset" unicode="&#x2205;" horiz-adv-x="804" 
d="M744 720l-91 -109q111 -107 111 -261q0 -150 -106 -256t-256 -106q-116 0 -210 67l-62 -75h-70l91 109q-111 107 -111 261q0 150 106 256t256 106q116 0 210 -67l62 75h70zM100 350q0 -127 88 -216l387 466q-78 54 -173 54q-125 0 -214 -89q-88 -88 -88 -215zM402 46
q126 0 214 88t88 216q0 127 -88 216l-387 -466q78 -54 173 -54z" />
    <glyph glyph-name="product" unicode="&#x220f;" horiz-adv-x="640" 
d="M146 -200h-66v900h480v-900h-66v836h-348v-836z" />
    <glyph glyph-name="summation" unicode="&#x2211;" horiz-adv-x="540" 
d="M510 -200h-460v65l240 395l-225 374v66h430v-64h-355l227 -376l-241 -396h384v-64z" />
    <glyph glyph-name="minus" unicode="&#x2212;" horiz-adv-x="540" 
d="M480 318h-420v64h420v-64z" />
    <glyph glyph-name="radical" unicode="&#x221a;" horiz-adv-x="644" 
d="M355 0h-70l-137 236h-88v64h126l127 -220l241 720h70z" />
    <glyph glyph-name="infinity" unicode="&#x221e;" horiz-adv-x="800" 
d="M584 510q69 0 115 -46t46 -114t-46 -114t-115 -46q-97 0 -184 110q-87 -110 -184 -110q-69 0 -115 46t-46 114t46 114t115 46q97 0 184 -110q87 110 184 110zM217 250q73 0 145 100q-72 100 -145 100q-43 0 -70 -28t-27 -72t27 -72t70 -28zM584 250q43 0 70 28t27 72
t-27 72t-70 28q-73 0 -145 -100q72 -100 145 -100z" />
    <glyph glyph-name="integral" unicode="&#x222b;" horiz-adv-x="439" 
d="M0 -202v64q54 -19 86 -1.5t40 69.5l109 640q15 89 67 122t137 10v-64q-120 40 -138 -68l-109 -640q-15 -87 -65.5 -121t-126.5 -11z" />
    <glyph glyph-name="approxequal" unicode="&#x2248;" horiz-adv-x="594" 
d="M282 402q-77 44 -112 33q-33 -10 -50 -69l-60 28q27 86 90 103t162 -39q50 -31 83 -34.5t50.5 14t28.5 56.5l60 -28q-55 -178 -252 -64zM120 206l-60 28q27 86 90 103t162 -39q50 -31 83 -34.5t50.5 14t28.5 56.5l60 -28q-55 -178 -252 -64q-77 44 -112 33
q-33 -10 -50 -69z" />
    <glyph glyph-name="notequal" unicode="&#x2260;" horiz-adv-x="540" 
d="M480 482v-64h-155l-60 -136h215v-64h-244l-66 -148h-50l66 148h-126v64h155l60 136h-215v64h244l66 148h50l-66 -148h126z" />
    <glyph glyph-name="lessequal" unicode="&#x2264;" horiz-adv-x="520" 
d="M60 444l400 156v-74l-317 -115l317 -115v-74l-400 156v66zM460 100h-400v64h400v-64z" />
    <glyph glyph-name="greaterequal" unicode="&#x2265;" horiz-adv-x="520" 
d="M60 526v74l400 -156v-66l-400 -156v74l317 115zM460 100h-400v64h400v-64z" />
    <glyph glyph-name="lozenge" unicode="&#x25ca;" horiz-adv-x="540" 
d="M304 0h-68l-186 350l186 350h68l186 -350zM121 350l149 -279l149 279l-149 279z" />
    <glyph glyph-name="NULL" horiz-adv-x="0" 
 />
    <glyph glyph-name="CR" horiz-adv-x="333" 
 />
    <glyph glyph-name="i.loclTRK" horiz-adv-x="206" 
d="M142 586q-16 -16 -39 -16t-39 16t-16 39t16 39t39 16t39 -16t16 -39t-16 -39zM136 0h-66v500h66v-500z" />
    <glyph glyph-name="f_f_j" horiz-adv-x="786" 
d="M446 500h270v-540q0 -90 -47 -135t-133 -37v64q60 -6 87 19.5t27 88.5v476h-204v-436h-66v436h-204v-436h-66v436h-85v64h85v20q0 99 54.5 149t155.5 43v-64q-73 6 -108.5 -25t-35.5 -103v-20h204v30q0 192 210 192q42 0 96 -12v-60q-50 8 -96 8q-76 0 -110 -29.5
t-34 -98.5v-30z" />
    <glyph glyph-name="f_j" horiz-adv-x="516" 
d="M176 500h270v-540q0 -90 -47 -135t-133 -37v64q60 -6 87 19.5t27 88.5v476h-204v-436h-66v436h-85v64h85v20q0 192 210 192q42 0 96 -12v-60q-50 8 -96 8q-76 0 -110 -29.5t-34 -98.5v-20z" />
    <glyph glyph-name="uni0414.loclBGR" horiz-adv-x="700" 
d="M386 700l225 -634h64v-200h-70v134h-510v-134h-70v200h64l225 634h72zM350 613l-187 -547h374z" />
    <glyph glyph-name="uni041B.loclBGR" horiz-adv-x="608" 
d="M10 0l258 700h72l258 -700h-76l-218 607l-218 -607h-76z" />
    <glyph glyph-name="uni0424.loclBGR" horiz-adv-x="844" 
d="M457 -11v-89h-70v89q-154 10 -251 109q-96 98 -96 252t96 252q97 99 251 109v89h70v-89q154 -10 251 -109q96 -98 96 -252t-96 -252q-97 -99 -251 -109zM387 53v594q-124 -10 -202 -91q-75 -80 -75 -206q0 -128 75 -207q77 -80 202 -90zM457 647v-594q126 11 201 90
q76 79 76 207q0 127 -76 206q-76 81 -201 91z" />
    <glyph glyph-name="uni0414.ss01" horiz-adv-x="690" 
d="M580 700v-634h75v-66h-640v66h57q69 81 69 250v384h439zM155 66h355v568h-299v-320q0 -165 -56 -248z" />
    <glyph glyph-name="uni0426.ss01" horiz-adv-x="690" 
d="M580 700v-634h75v-66h-575v700h70v-634h360v634h70z" />
    <glyph glyph-name="uni0429.ss01" horiz-adv-x="980" 
d="M870 700v-634h75v-66h-865v700h70v-634h290v634h70v-634h290v634h70z" />
    <glyph glyph-name="uni0414.loclBGR.ss01" horiz-adv-x="700" 
d="M386 700l225 -634h64v-66h-650v66h64l225 634h72zM350 613l-187 -547h374z" />
    <glyph glyph-name="uni0432.loclBGR" horiz-adv-x="570" 
d="M399 400q62 -20 96.5 -72t34.5 -128q0 -100 -60.5 -156t-169.5 -56t-169.5 64t-60.5 178v235q0 114 58 180.5t160 66.5q83 0 132.5 -46t49.5 -122q0 -79 -71 -144zM288 648q-71 0 -111.5 -49.5t-40.5 -133.5v-81l103 21q42 8 82 8q83 60 83 131q0 46 -31.5 75t-84.5 29z
M464 200q0 84 -62 123t-163 18l-103 -21v-90q0 -84 43.5 -131t120.5 -47t120.5 39t43.5 109z" />
    <glyph glyph-name="uni0433.loclBGR" horiz-adv-x="454" 
d="M363 141l56 -33q-21 -53 -72.5 -86.5t-120.5 -33.5q-81 0 -131 40q-50 41 -50 104q0 48 28 80.5t73 46.5q16 5 50 14.5t52.5 16t40.5 17.5t32.5 26.5t10.5 35.5q0 37 -29.5 58t-70.5 21q-43 0 -76.5 -19.5t-48.5 -55.5l-55 32q24 49 71 78t109 29q72 0 118 -42
q48 -41 48 -101q0 -48 -28 -80.5t-73 -47.5q-13 -4 -49 -13.5t-53 -15.5t-40.5 -17.5t-33.5 -27t-10 -35.5q0 -40 32 -60t83 -20q48 0 85.5 24.5t51.5 64.5z" />
    <glyph glyph-name="uni0434.loclBGR" 
d="M500 402v98h66v-480q0 -108 -74 -170t-177 -62q-175 0 -237 122l58 33q45 -91 179 -91q86 0 135.5 45t49.5 123v78q-69 -110 -202 -110q-107 0 -183 76q-75 76 -75 186t75 186q76 76 183 76q133 0 202 -110zM163 109q57 -57 140 -57t140 57q57 59 57 141q0 83 -57 140
q-57 58 -140 58t-140 -58q-57 -57 -57 -140q0 -82 57 -141z" />
    <glyph glyph-name="uni0436.loclBGR" horiz-adv-x="674" 
d="M430 260l224 -260h-80l-204 241v-241h-66v241l-204 -241h-80l224 260l-214 240h80l194 -222v422h66v-422l194 222h80z" />
    <glyph glyph-name="uni0438.loclBGR" horiz-adv-x="558" 
d="M422 238v262h66v-500h-66v78q-56 -90 -168 -90q-90 0 -143 55.5t-53 149.5v307h66v-307q0 -67 35.5 -104t100.5 -37q75 0 118.5 47t43.5 139z" />
    <glyph glyph-name="uni0439.loclBGR" horiz-adv-x="558" 
d="M141 638h260v-58h-260v58zM422 238v262h66v-500h-66v78q-56 -90 -168 -90q-90 0 -143 55.5t-53 149.5v307h66v-307q0 -67 35.5 -104t100.5 -37q75 0 118.5 47t43.5 139z" />
    <glyph glyph-name="uni043A.loclBGR" horiz-adv-x="494" 
d="M206 260l268 -260h-88l-250 241v-241h-66v700h66v-421l238 221h90z" />
    <glyph glyph-name="uni043B.loclBGR" horiz-adv-x="510" 
d="M295 500l205 -500h-70l-175 431l-175 -431h-70l205 500h80z" />
    <glyph glyph-name="uni043F.loclBGR" horiz-adv-x="558" 
d="M304 512q90 0 143 -55.5t53 -149.5v-307h-66v307q0 67 -35.5 104t-100.5 37q-75 0 -118.5 -47t-43.5 -139v-262h-66v500h66v-78q56 90 168 90z" />
    <glyph glyph-name="uni0442.loclBGR" horiz-adv-x="848" 
d="M603 512q85 0 136 -54t51 -146v-312h-66v312q0 64 -33 100t-89 36q-65 0 -102 -43t-37 -128v-277h-66v312q0 65 -31 100.5t-86 35.5q-63 0 -103.5 -44t-40.5 -127v-277h-66v500h66v-73q54 85 153 85q109 0 152 -91q54 91 162 91z" />
    <glyph glyph-name="uni0446.loclBGR" horiz-adv-x="594" 
d="M525 64h39v-198h-66v136q-30 5 -50 26t-25 53q-55 -93 -169 -93q-90 0 -143 55.5t-53 149.5v307h66v-307q0 -67 35.5 -104t100.5 -37q75 0 118.5 47t43.5 139v262h66v-400q0 -16 10 -26t27 -10z" />
    <glyph glyph-name="uni0448.loclBGR" horiz-adv-x="848" 
d="M712 223v277h66v-500h-66v73q-54 -85 -153 -85q-109 0 -152 91q-54 -91 -162 -91q-85 0 -136 54t-51 146v312h66v-312q0 -64 33 -100t89 -36q65 0 102 43t37 128v277h66v-312q0 -65 31 -100.5t86 -35.5q63 0 103.5 44t40.5 127z" />
    <glyph glyph-name="uni0449.loclBGR" horiz-adv-x="884" 
d="M815 64h39v-198h-66v136q-29 4 -48.5 24t-25.5 50q-54 -88 -155 -88q-109 0 -152 91q-54 -91 -162 -91q-85 0 -136 54t-51 146v312h66v-312q0 -64 33 -100t89 -36q65 0 102 43t37 128v277h66v-312q0 -65 31 -100.5t86 -35.5q63 0 103.5 44t40.5 127v277h66v-400
q0 -16 10 -26t27 -10z" />
    <glyph glyph-name="uni044C.loclBGR" horiz-adv-x="478" 
d="M124 338h129q92 0 143.5 -45t51.5 -125q0 -75 -55 -127q-55 -53 -140 -53q-91 0 -143 51t-52 129v332h66v-162zM253 52q55 0 92 35q37 34 37 81q0 50 -34 78t-95 28h-129v-106q0 -47 35 -82q35 -34 94 -34z" />
    <glyph glyph-name="uni044A.loclBGR" horiz-adv-x="562" 
d="M206 338h129q92 0 143.5 -45t51.5 -125q0 -75 -55 -127q-55 -53 -140 -53q-91 0 -143 51t-52 129v268h-140v64h206v-162zM335 52q55 0 92 35q37 34 37 81q0 50 -34 78t-95 28h-129v-106q0 -47 35 -82q35 -34 94 -34z" />
    <glyph glyph-name="uni044E.loclBGR" horiz-adv-x="800" 
d="M497 512q110 0 186 -76q77 -75 77 -186q0 -110 -77 -187q-77 -75 -186 -75q-100 0 -174 65q-73 67 -83 165h-104v-218h-66v700h66v-418h104q11 99 83 164q73 66 174 66zM357 109q57 -57 140 -57t140 57q57 59 57 141q0 83 -57 140q-57 58 -140 58t-140 -58
q-57 -57 -57 -140q0 -82 57 -141z" />
    <glyph glyph-name="zero.sinf" horiz-adv-x="410" 
d="M333 -114q-46 -58 -128 -58q-83 0 -129 58t-46 154t46 154t129 58q82 0 128 -58q47 -59 47 -154t-47 -154zM122 -73q30 -39 83 -39t83 39t30 113t-30 113t-83 39t-83 -39t-30 -113t30 -113z" />
    <glyph glyph-name="one.sinf" horiz-adv-x="239" 
d="M10 198l116 42h53v-400h-62v332l-91 -27z" />
    <glyph glyph-name="two.sinf" horiz-adv-x="341" 
d="M311 -160h-280v51l168 154q42 37 42 85q0 28 -19.5 45t-52.5 17q-61 0 -87 -62l-52 29q38 93 139 93q59 0 96.5 -35t37.5 -87q0 -69 -62 -125l-118 -105h188v-60z" />
    <glyph glyph-name="three.sinf" horiz-adv-x="348" 
d="M296 180l-89 -106q50 -10 78 -40.5t28 -76.5q0 -58 -40 -93.5t-106 -35.5q-101 0 -142 84l52 30q25 -54 90 -54q40 0 62 18.5t22 50.5q0 31 -22.5 50t-61.5 19h-4l-31 47l90 107h-184v60h258v-60z" />
    <glyph glyph-name="four.sinf" horiz-adv-x="354" 
d="M283 -27h51v-58h-51v-75h-62v75h-206v58l149 267h67l-148 -267h138v96h62v-96z" />
    <glyph glyph-name="five.sinf" horiz-adv-x="328" 
d="M105 90h62q63 0 102 -36.5t39 -96.5q0 -59 -38.5 -94t-104.5 -35q-103 0 -140 85l53 29q26 -54 87 -54q38 0 59.5 19t21.5 50q0 34 -21.5 53.5t-59.5 19.5h-122l15 210h234v-58h-181z" />
    <glyph glyph-name="six.sinf" horiz-adv-x="335" 
d="M167 107q64 0 105 -40q43 -40 43 -99t-43 -99q-43 -41 -105 -41t-105 41q-42 41 -42 99q0 39 19 70v1l3 3l1 2l125 196h75l-92 -134q3 1 16 1zM167 -112q39 0 62.5 22.5t23.5 57.5t-23.5 57t-62.5 22t-62 -22t-23 -57t23.5 -57.5t61.5 -22.5z" />
    <glyph glyph-name="seven.sinf" horiz-adv-x="296" 
d="M10 180v60h266v-50l-148 -350h-66l146 340h-198z" />
    <glyph glyph-name="eight.sinf" horiz-adv-x="335" 
d="M245 51q66 -35 66 -105q0 -54 -39.5 -86t-103.5 -32t-104 32t-40 86q0 71 66 104q-53 32 -53 88q0 52 37 83t94 31q56 0 93 -31t37 -83q0 -55 -53 -87zM99 138q0 -27 18 -43t51 -16q32 0 50 16t18 43q0 26 -17.5 41t-50.5 15t-51 -15t-18 -41zM168 -112q38 0 59.5 18
t21.5 48t-22 47.5t-59 17.5q-40 0 -61 -17t-21 -48q0 -30 21.5 -48t60.5 -18z" />
    <glyph glyph-name="nine.sinf" horiz-adv-x="335" 
d="M296 42v-1l-2 -3l-2 -2l-125 -196h-75l92 134q-3 -1 -16 -1q-63 0 -106 40q-42 41 -42 99t42 99q44 41 106 41t105 -41q42 -41 42 -99q0 -39 -19 -70zM168 192q-39 0 -62.5 -22.5t-23.5 -57.5t23.5 -57t62.5 -22t62 22t23 57t-23.5 57.5t-61.5 22.5z" />
    <glyph glyph-name="zero.tf" horiz-adv-x="570" 
d="M480 86q-69 -98 -195 -98q-125 0 -196 98q-69 99 -69 264q0 166 69 263q71 99 196 99q126 0 195 -99q70 -97 70 -263t-70 -264zM141 133q53 -77 144 -77q92 0 143 77q52 76 52 217t-52 217q-51 77 -143 77q-91 0 -144 -77q-51 -77 -51 -217t51 -217z" />
    <glyph glyph-name="one.tf" horiz-adv-x="570" 
d="M335 700v-634h205v-66h-500v66h225v557l-157 -47l-18 60l185 64h60z" />
    <glyph glyph-name="two.tf" horiz-adv-x="570" 
d="M530 0h-485v63l253 218q77 66 112 114t35 97q0 71 -44 111.5t-117 40.5q-58 0 -103.5 -31t-69.5 -87l-58 34q32 72 93.5 112t137.5 40q99 0 165 -60t66 -160q0 -66 -42 -128.5t-127 -131.5l-201 -164h385v-68z" />
    <glyph glyph-name="three.tf" horiz-adv-x="570" 
d="M500 634l-179 -225q96 -10 152.5 -64t56.5 -142q0 -101 -72 -158t-183 -57q-88 0 -157 42q-69 44 -92 116l59 34q15 -57 66.5 -90.5t123.5 -33.5q86 0 135.5 38.5t49.5 108.5t-49.5 108.5t-135.5 38.5v1l-1 -1h-18l-31 46l191 238h-366v66h450v-66z" />
    <glyph glyph-name="four.tf" horiz-adv-x="570" 
d="M460 206h90v-66h-90v-140h-70v140h-370v66l260 494h76l-260 -494h294v194h70v-194z" />
    <glyph glyph-name="five.tf" horiz-adv-x="570" 
d="M149 418h136q104 0 174 -58q71 -57 71 -157q0 -99 -71 -158q-71 -57 -174 -57q-88 0 -157 42q-69 44 -92 116l59 34q15 -57 66.5 -90.5t123.5 -33.5q80 0 127.5 38.5t47.5 108.5t-47.5 108.5t-127.5 38.5h-210l25 350h405v-66h-341z" />
    <glyph glyph-name="six.tf" horiz-adv-x="570" 
d="M275 450q117 0 185 -64q70 -63 70 -167t-70 -168q-69 -63 -185 -63q-115 0 -186 63q-69 65 -69 168q0 80 44 139l244 342h83l-182 -256q30 6 66 6zM138 100q50 -44 137 -44t136 44q49 43 49 119t-49 119q-49 44 -136 44t-137 -44q-48 -44 -48 -119t48 -119z" />
    <glyph glyph-name="seven.tf" horiz-adv-x="570" 
d="M40 634v66h490v-66l-285 -634h-72l284 634h-417z" />
    <glyph glyph-name="eight.tf" horiz-adv-x="570" 
d="M418 361q55 -25 86 -69.5t31 -101.5q0 -96 -69 -149q-68 -53 -181 -53q-112 0 -182 53q-68 53 -68 149q0 57 31 101.5t86 69.5q-93 56 -93 157q0 94 64 143q65 51 162 51t162 -51q64 -49 64 -143q0 -101 -93 -157zM129 518q0 -59 42 -92.5t114 -33.5t114 33.5t42 92.5
q0 62 -41 94t-115 32t-115 -32t-41 -94zM151 91q47 -35 134 -35q86 0 133 35t47 99t-47 99t-133 35q-87 0 -134 -35q-46 -34 -46 -99t46 -99z" />
    <glyph glyph-name="nine.tf" horiz-adv-x="570" 
d="M550 481q0 -80 -44 -139l-244 -342h-83l182 256q-30 -6 -66 -6q-115 0 -186 63q-69 65 -69 168q0 104 69 167q70 64 186 64q117 0 185 -64q70 -63 70 -167zM158 600q-48 -44 -48 -119t48 -119q50 -44 137 -44t136 44q49 43 49 119t-49 119q-49 44 -136 44t-137 -44z" />
    <glyph glyph-name="zero.dnom" horiz-adv-x="410" 
d="M333 46q-46 -58 -128 -58q-83 0 -129 58t-46 154t46 154t129 58q82 0 128 -58q47 -59 47 -154t-47 -154zM122 87q30 -39 83 -39t83 39t30 113t-30 113t-83 39t-83 -39t-30 -113t30 -113z" />
    <glyph glyph-name="one.dnom" horiz-adv-x="247" 
d="M10 358l116 42h53v-400h-62v332l-91 -27z" />
    <glyph glyph-name="two.dnom" horiz-adv-x="340" 
d="M311 0h-280v51l168 154q42 37 42 85q0 28 -19.5 45t-52.5 17q-61 0 -87 -62l-52 29q38 93 139 93q59 0 96.5 -35t37.5 -87q0 -69 -62 -125l-118 -105h188v-60z" />
    <glyph glyph-name="three.dnom" horiz-adv-x="352" 
d="M296 340l-89 -106q50 -10 78 -40.5t28 -76.5q0 -58 -40 -93.5t-106 -35.5q-101 0 -142 84l52 30q25 -54 90 -54q40 0 62 18.5t22 50.5q0 31 -22.5 50t-61.5 19h-4l-31 47l90 107h-184v60h258v-60z" />
    <glyph glyph-name="four.dnom" horiz-adv-x="354" 
d="M283 133h51v-58h-51v-75h-62v75h-206v58l149 267h67l-148 -267h138v96h62v-96z" />
    <glyph glyph-name="five.dnom" horiz-adv-x="341" 
d="M100 250h62q63 0 102 -36.5t39 -96.5q0 -59 -38.5 -94t-104.5 -35q-103 0 -140 85l53 29q25 -54 87 -54q38 0 59.5 19t21.5 50q0 34 -21.5 53.5t-59.5 19.5h-122l15 210h234v-58h-181z" />
    <glyph glyph-name="six.dnom" horiz-adv-x="335" 
d="M167 267q64 0 105 -40q43 -40 43 -99q0 -60 -43 -100q-41 -40 -105 -40t-105 40q-42 40 -42 100q0 39 19 70v1l3 3l1 2l125 196h75l-92 -134q3 1 16 1zM167 48q39 0 62.5 22.5t23.5 57.5t-23.5 57t-62.5 22t-62 -22t-23 -57t23.5 -57.5t61.5 -22.5z" />
    <glyph glyph-name="seven.dnom" horiz-adv-x="296" 
d="M10 340v60h266v-50l-148 -350h-66l146 340h-198z" />
    <glyph glyph-name="eight.dnom" horiz-adv-x="335" 
d="M245 211q66 -35 66 -105q0 -54 -39.5 -86t-103.5 -32t-104 32t-40 86q0 71 66 104q-53 32 -53 88q0 52 37 83t94 31q56 0 93 -31t37 -83q0 -55 -53 -87zM99 298q0 -27 18 -43t51 -16q32 0 50 16t18 43q0 26 -17.5 41t-50.5 15t-51 -15t-18 -41zM168 48q38 0 59.5 18
t21.5 48t-22 47.5t-59 17.5q-40 0 -61 -17t-21 -48q0 -30 21.5 -48t60.5 -18z" />
    <glyph glyph-name="nine.dnom" horiz-adv-x="335" 
d="M296 202v-1l-2 -3l-2 -2l-125 -196h-75l92 134q-3 -1 -16 -1q-63 0 -106 40q-42 41 -42 99t42 99q44 41 106 41t105 -41q42 -41 42 -99q0 -39 -19 -70zM168 352q-39 0 -62.5 -22.5t-23.5 -57.5t23.5 -57t62.5 -22t62 22t23 57t-23.5 57.5t-61.5 22.5z" />
    <glyph glyph-name="zero.numr" horiz-adv-x="410" 
d="M333 346q-46 -58 -128 -58q-83 0 -129 58t-46 154t46 154t129 58q82 0 128 -58q47 -59 47 -154t-47 -154zM122 387q30 -39 83 -39t83 39t30 113t-30 113t-83 39t-83 -39t-30 -113t30 -113z" />
    <glyph glyph-name="one.numr" horiz-adv-x="247" 
d="M10 658l116 42h53v-400h-62v332l-91 -27z" />
    <glyph glyph-name="two.numr" horiz-adv-x="340" 
d="M311 300h-280v51l168 154q42 37 42 85q0 28 -19.5 45t-52.5 17q-61 0 -87 -62l-52 29q37 93 139 93q59 0 96.5 -35t37.5 -87q0 -69 -62 -125l-118 -105h188v-60z" />
    <glyph glyph-name="three.numr" horiz-adv-x="352" 
d="M296 640l-89 -106q50 -10 78 -40.5t28 -76.5q0 -58 -40 -93.5t-106 -35.5q-101 0 -142 84l52 30q25 -54 90 -54q40 0 62 18.5t22 50.5q0 31 -22.5 50t-61.5 19h-4l-31 47l90 107h-184v60h258v-60z" />
    <glyph glyph-name="four.numr" horiz-adv-x="354" 
d="M283 433h51v-58h-51v-75h-62v75h-206v58l149 267h67l-148 -267h138v96h62v-96z" />
    <glyph glyph-name="five.numr" horiz-adv-x="341" 
d="M100 550h62q63 0 102 -36.5t39 -96.5q0 -59 -38.5 -94t-104.5 -35q-103 0 -140 85l53 29q25 -54 87 -54q38 0 59.5 19t21.5 50q0 34 -21.5 53.5t-59.5 19.5h-122l15 210h234v-58h-181z" />
    <glyph glyph-name="six.numr" horiz-adv-x="335" 
d="M167 567q64 0 105 -40q43 -40 43 -99q0 -60 -43 -100q-41 -40 -105 -40t-105 40q-42 40 -42 100q0 39 19 70v1l3 3l1 2l125 196h75l-92 -134q3 1 16 1zM167 348q39 0 62.5 22.5t23.5 57.5t-23.5 57t-62.5 22t-62 -22t-23 -57t23.5 -57.5t61.5 -22.5z" />
    <glyph glyph-name="seven.numr" horiz-adv-x="296" 
d="M10 640v60h266v-50l-148 -350h-66l146 340h-198z" />
    <glyph glyph-name="eight.numr" horiz-adv-x="335" 
d="M245 511q66 -35 66 -105q0 -54 -39.5 -86t-103.5 -32t-104 32t-40 86q0 71 66 104q-53 32 -53 88q0 52 37 83t94 31q56 0 93 -31t37 -83q0 -55 -53 -87zM99 598q0 -27 18 -43t51 -16q32 0 50 16t18 43q0 26 -17.5 41t-50.5 15t-51 -15t-18 -41zM168 348q38 0 59.5 18
t21.5 48t-22 47.5t-59 17.5q-40 0 -61 -17t-21 -48q0 -30 21.5 -48t60.5 -18z" />
    <glyph glyph-name="nine.numr" horiz-adv-x="335" 
d="M296 502v-1l-2 -3l-2 -2l-125 -196h-75l92 134q-3 -1 -16 -1q-63 0 -106 40q-42 41 -42 99t42 99q44 41 106 41t105 -41q42 -41 42 -99q0 -39 -19 -70zM168 652q-39 0 -62.5 -22.5t-23.5 -57.5t23.5 -57t62.5 -22t62 22t23 57t-23.5 57.5t-61.5 22.5z" />
    <glyph glyph-name="zero.sups" horiz-adv-x="410" 
d="M333 506q-46 -58 -128 -58q-83 0 -129 58t-46 154t46 154t129 58q82 0 128 -58q47 -59 47 -154t-47 -154zM122 547q30 -39 83 -39t83 39t30 113t-30 113t-83 39t-83 -39t-30 -113t30 -113z" />
    <glyph glyph-name="one.sups" horiz-adv-x="247" 
d="M10 818l116 42h53v-400h-62v332l-91 -27z" />
    <glyph glyph-name="two.sups" horiz-adv-x="340" 
d="M311 460h-280v51l168 154q42 37 42 85q0 28 -19.5 45t-52.5 17q-61 0 -87 -62l-52 29q37 93 139 93q59 0 96.5 -35t37.5 -87q0 -69 -62 -125l-118 -105h188v-60z" />
    <glyph glyph-name="three.sups" horiz-adv-x="352" 
d="M296 800l-89 -106q50 -10 78 -40.5t28 -76.5q0 -58 -40 -93.5t-106 -35.5q-101 0 -142 84l52 30q25 -54 90 -54q40 0 62 18.5t22 50.5q0 31 -22.5 50t-61.5 19h-4l-31 47l90 107h-184v60h258v-60z" />
    <glyph glyph-name="four.sups" horiz-adv-x="354" 
d="M283 593h51v-58h-51v-75h-62v75h-206v58l149 267h67l-148 -267h138v96h62v-96z" />
    <glyph glyph-name="five.sups" horiz-adv-x="341" 
d="M100 710h62q63 0 102 -36.5t39 -96.5q0 -59 -38.5 -94t-104.5 -35q-103 0 -140 85l53 29q25 -54 87 -54q38 0 59.5 19t21.5 50q0 34 -21.5 53.5t-59.5 19.5h-122l15 210h234v-58h-181z" />
    <glyph glyph-name="six.sups" horiz-adv-x="335" 
d="M167 727q64 0 105 -40q43 -40 43 -99q0 -60 -43 -100q-41 -40 -105 -40t-105 40q-42 40 -42 100q0 39 19 70v1l3 3l1 2l125 196h75l-92 -134q3 1 16 1zM167 508q39 0 62.5 22.5t23.5 57.5t-23.5 57t-62.5 22t-62 -22t-23 -57t23.5 -57.5t61.5 -22.5z" />
    <glyph glyph-name="seven.sups" horiz-adv-x="296" 
d="M10 800v60h266v-50l-148 -350h-66l146 340h-198z" />
    <glyph glyph-name="eight.sups" horiz-adv-x="335" 
d="M245 671q66 -35 66 -105q0 -54 -39.5 -86t-103.5 -32t-104 32t-40 86q0 71 66 104q-53 32 -53 88q0 52 37 83t94 31q56 0 93 -31t37 -83q0 -55 -53 -87zM99 758q0 -27 18 -43t51 -16q32 0 50 16t18 43q0 26 -17.5 41t-50.5 15t-51 -15t-18 -41zM168 508q38 0 59.5 18
t21.5 48t-22 47.5t-59 17.5q-40 0 -61 -17t-21 -48q0 -30 21.5 -48t60.5 -18z" />
    <glyph glyph-name="nine.sups" horiz-adv-x="335" 
d="M296 662v-1l-2 -3l-2 -2l-125 -196h-75l92 134q-3 -1 -16 -1q-63 0 -106 40q-42 41 -42 99t42 99q44 41 106 41t105 -41q42 -41 42 -99q0 -39 -19 -70zM168 812q-39 0 -62.5 -22.5t-23.5 -57.5t23.5 -57t62.5 -22t62 22t23 57t-23.5 57.5t-61.5 22.5z" />
    <glyph glyph-name="cent.tf" horiz-adv-x="570" 
d="M480 250l55 -32q-31 -60 -91 -95t-133 -35q-31 0 -68 8l-31 -96h-50l36 112q-69 30 -109.5 94t-40.5 144q0 111 75 186q75 76 188 76q30 0 47 -4l30 92h50l-34 -105q88 -33 126 -114l-54 -31q-29 59 -91 84l-122 -376q23 -6 48 -6q55 0 99.5 26t69.5 72zM114 350
q0 -57 28 -104t76 -72l120 372q-24 2 -27 2q-83 0 -140 -58q-57 -57 -57 -140z" />
    <glyph glyph-name="dollar.tf" horiz-adv-x="570" 
d="M530 182q0 -80 -54.5 -132t-145.5 -60v-90h-60v89q-171 10 -230 155l60 35q36 -113 170 -122v275q-88 26 -138 63q-57 42 -57 131q0 78 54 127q57 51 141 58v89h60v-90q136 -13 185 -139l-59 -33q-32 92 -126 104v-259q103 -31 151.5 -76t48.5 -125zM145 526
q0 -47 29 -75.5t96 -49.5v242q-58 -6 -91.5 -37t-33.5 -80zM330 313v-255q62 7 96 40t34 84q0 50 -31 79.5t-99 51.5z" />
    <glyph glyph-name="Euro.tf" horiz-adv-x="570" 
d="M485 172l57 -32q-23 -74 -76 -113t-126 -39q-102 0 -167.5 74t-82.5 204h-65v58h60v26q0 27 1 34h-61v58h66q18 126 83.5 198t165.5 72q72 0 123 -37t75 -106l-58 -33q-17 52 -53.5 80t-86.5 28q-70 0 -116.5 -52.5t-61.5 -149.5h243v-58h-249q-1 -7 -1 -34v-26h250v-58
h-245q14 -101 61 -155.5t119 -54.5q51 0 89 30t56 86z" />
    <glyph glyph-name="florin.tf" horiz-adv-x="570" 
d="M540 703v-64q-117 41 -143 -68l-47 -188h150v-64h-166l-96 -388q-44 -177 -208 -132v64q116 -41 142 68l96 388h-149v64h165l47 188q44 179 209 132z" />
    <glyph glyph-name="uni20BD.tf" horiz-adv-x="570" 
d="M330 280h-160v-94h240v-58h-240v-128h-70v128h-90v58h90v94h-90v66h90v354h230q86 0 148 -62t62 -148t-62 -148t-148 -62zM330 634h-160v-288h160q58 0 99 42q41 44 41 102q0 59 -41 102q-41 42 -99 42z" />
    <glyph glyph-name="sterling.tf" horiz-adv-x="570" 
d="M194 289v-221h366v-68h-530v68h94v221h-74v62h74v151q0 101 61 155q61 55 144 55q137 0 191 -134l-57 -32q-36 98 -134 98q-60 0 -97.5 -36.5t-37.5 -105.5v-151h231v-62h-231z" />
    <glyph glyph-name="yen.tf" horiz-adv-x="570" 
d="M486 700h77l-229 -353h167v-58h-181v-60h181v-58h-181v-171h-70v171h-179v58h179v60h-179v58h166l-229 353h77l201 -309z" />
    <glyph glyph-name="brevecy" horiz-adv-x="300" 
d="M280 580h-260v58h260v-58z" />
    </font>
</defs>
</svg>
