<?xml version="1.0" standalone="no"?>
<!DOCTYPE svg PUBLIC "-//W3C//DTD SVG 1.1//EN" "http://www.w3.org/Graphics/SVG/1.1/DTD/svg11.dtd" >
<svg xmlns="http://www.w3.org/2000/svg" xmlns:xlink="http://www.w3.org/1999/xlink" version="1.1">
<metadata>
Created by FontForge 20170731 at Fri Jul 22 02:22:51 2016
 By Aleksey,,,
Copyright (c) 2016 by Radomir Tinkov. All rights reserved.
</metadata>
<defs>
<font id="Gilroy-Semibold" horiz-adv-x="630" >
  <font-face 
    font-family="Gilroy"
    font-weight="600"
    font-stretch="normal"
    units-per-em="1000"
    panose-1="0 0 7 0 0 0 0 0 0 0"
    ascent="774"
    descent="-226"
    x-height="500"
    cap-height="700"
    bbox="-382 -255 1064 970"
    underline-thickness="50"
    underline-position="-200"
    unicode-range="U+0020-FB02"
  />
<missing-glyph horiz-adv-x="500" 
d="M93 800h317v-1000h-317v1000zM333 700v33h-165v-33h65v-37h-66v-33h166v33h-66v37h66zM267 534v70h-100v-104h166v34h-66zM200 570h33v-36h-33v36zM333 440v33h-166v-33h66v-37h-66v-33h100v70h66zM333 313v100h-33v-66h-133v-34h166zM333 178v113h-100v-56h34v23h33v-47
h-100v80h-33v-113h166zM333 5v113h-166v-113h166zM200 85h100v-47h-100v47zM333 -51v33h-166v-33h70l-70 -47v-33h166v33h-102l70 47h32z" />
    <glyph glyph-name="fi" unicode="fi" horiz-adv-x="543" 
d="M207 500h274v-500h-108v396h-166v-396h-108v396h-76v104h76v10q0 203 226 203q55 0 111 -13v-99q-56 8 -111 8q-61 0 -89.5 -22.5t-28.5 -76.5v-10z" />
    <glyph glyph-name="fl" unicode="fl" horiz-adv-x="543" 
d="M325 713q71 0 156 -18v-695h-108v617q-11 1 -48 1q-118 0 -118 -108v-10h93v-104h-93v-396h-108v396h-76v104h76v10q0 203 226 203z" />
    <glyph glyph-name="f_f" unicode="ff" horiz-adv-x="600" 
d="M600 723v-104q-118 10 -118 -99v-20h118v-104h-118v-396h-108v396h-167v-396h-108v396h-76v104h76v10q0 104 58 157t168 46v-104q-118 10 -118 -99v-10h167v20q0 104 58 157t168 46z" />
    <glyph glyph-name="f_f_i" unicode="ffi" horiz-adv-x="818" 
d="M482 500h274v-500h-108v396h-166v-396h-108v396h-167v-396h-108v396h-76v104h76v10q0 104 58 157t168 46v-104q-118 10 -118 -99v-10h167v20q0 203 226 203q55 0 111 -13v-99q-56 8 -111 8q-61 0 -89.5 -22.5t-28.5 -76.5v-20z" />
    <glyph glyph-name="f_f_l" unicode="ffl" horiz-adv-x="818" 
d="M600 723q70 0 156 -18v-705h-108v627q-11 1 -48 1q-118 0 -118 -108v-20h93v-104h-93v-396h-108v396h-167v-396h-108v396h-76v104h76v10q0 104 58 157t168 46v-104q-118 10 -118 -99v-10h167v20q0 203 226 203z" />
    <glyph glyph-name=".notdef" horiz-adv-x="500" 
d="M93 800h317v-1000h-317v1000zM333 700v33h-165v-33h65v-37h-66v-33h166v33h-66v37h66zM267 534v70h-100v-104h166v34h-66zM200 570h33v-36h-33v36zM333 440v33h-166v-33h66v-37h-66v-33h100v70h66zM333 313v100h-33v-66h-133v-34h166zM333 178v113h-100v-56h34v23h33v-47
h-100v80h-33v-113h166zM333 5v113h-166v-113h166zM200 85h100v-47h-100v47zM333 -51v33h-166v-33h70l-70 -47v-33h166v33h-102l70 47h32z" />
    <glyph glyph-name=".null" horiz-adv-x="0" 
 />
    <glyph glyph-name="nonmarkingreturn" horiz-adv-x="333" 
 />
    <glyph glyph-name="space" unicode=" " horiz-adv-x="250" 
 />
    <glyph glyph-name="exclam" unicode="!" horiz-adv-x="255" 
d="M170 220h-85l-22 280v200h130v-200zM128 138q31 0 53 -22t22 -53t-22 -53t-53 -22t-53 22t-22 53t21.5 53t53.5 22z" />
    <glyph glyph-name="quotedbl" unicode="&#x22;" horiz-adv-x="355" 
d="M135 480h-75l-15 220h105zM295 480h-75l-15 220h105z" />
    <glyph glyph-name="numbersign" unicode="#" horiz-adv-x="610" 
d="M585 485l-14 -85h-112l-16 -100h112l-13 -85h-113l-28 -165h-89l28 165h-112l-28 -165h-89l28 165h-114l14 85h114l16 100h-114l14 85h115l27 165h89l-27 -165h112l27 165h89l-27 -165h111zM242 300h112l16 100h-112z" />
    <glyph glyph-name="dollar" unicode="$" horiz-adv-x="549" 
d="M519 192q0 -83 -54 -137.5t-143 -65.5v-89h-65v88q-83 5 -142 45t-85 109l99 57q34 -87 128 -98v208q-86 33 -133 68q-62 48 -62 139q0 83 56 136q55 52 139 60v88h65v-89q133 -18 186 -137l-97 -56q-26 65 -89 79v-198q38 -15 48 -19q60 -24 87 -49q67 -57 62 -139z
M177 516q0 -30 18 -50t62 -41v174q-37 -6 -58.5 -28t-21.5 -55zM322 284v-182q39 8 60.5 32t21.5 57q0 32 -19 53t-63 40z" />
    <glyph glyph-name="percent" unicode="%" horiz-adv-x="747" 
d="M377 553q0 -67 -47 -114q-46 -46 -116 -46q-71 0 -117 46q-47 47 -47 114q0 66 47 113t117 47t116 -46q47 -47 47 -114zM213 481q32 0 52 20.5t20 51.5t-20 52t-52 21q-31 0 -51 -21t-20 -52q0 -30 20.5 -51t50.5 -21zM163 71l-54 32l461 513l54 -31zM534 -12
q-71 0 -117 46q-47 47 -47 114q0 66 47 113t117 47q69 0 116 -47t47 -113q0 -67 -47 -114q-46 -46 -116 -46zM533 76q32 0 52 20.5t20 51.5t-20 52t-52 21q-31 0 -51 -21t-20 -52q0 -30 20.5 -51t50.5 -21z" />
    <glyph glyph-name="ampersand" unicode="&#x26;" horiz-adv-x="668" 
d="M554 134l91 -99l-93 -54l-67 72q-83 -66 -195 -66q-107 0 -174 55q-66 56 -66 150q0 64 32 116.5t91 84.5q-40 55 -40 122q0 88 61 143t152 55q73 0 131 -38.5t85 -107.5l-98 -56q-14 42 -45 66t-72 24q-43 0 -71 -25t-28 -64q0 -21 9 -42q13 -31 51 -70l170 -184
q25 51 36 122l98 -56q-18 -84 -58 -148zM296 94q67 0 116 37l-172 185q-74 -38 -74 -115q0 -49 34 -78t96 -29z" />
    <glyph glyph-name="quotesingle" unicode="'" horiz-adv-x="195" 
d="M135 480h-75l-15 220h105z" />
    <glyph glyph-name="parenleft" unicode="(" horiz-adv-x="293" 
d="M273 -100h-108q-110 220 -110 450t110 450h108q-110 -220 -110 -450t110 -450z" />
    <glyph glyph-name="parenright" unicode=")" horiz-adv-x="293" 
d="M128 -100h-108q110 220 110 450t-110 450h108q110 -220 110 -450t-110 -450z" />
    <glyph glyph-name="asterisk" unicode="*" horiz-adv-x="396" 
d="M251 603l90 6v-72l-90 6l53 -72l-62 -38l-44 83l-44 -83l-62 38l54 72l-91 -6v72l91 -6l-54 72l62 38l44 -83l44 83l62 -38z" />
    <glyph glyph-name="plus" unicode="+" horiz-adv-x="550" 
d="M326 401h169v-102h-169v-169h-102v169h-169v102h169v169h102v-169z" />
    <glyph glyph-name="comma" unicode="," horiz-adv-x="265" 
d="M93 120h120l-70 -260h-90z" />
    <glyph glyph-name="hyphen" unicode="-" horiz-adv-x="510" 
d="M440 252h-370v104h370v-104z" />
    <glyph glyph-name="period" unicode="." horiz-adv-x="255" 
d="M128 138q31 0 53 -22t22 -53t-22 -53t-53 -22t-53 22t-22 53t21.5 53t53.5 22z" />
    <glyph glyph-name="slash" unicode="/" horiz-adv-x="525" 
d="M490 800l-400 -900h-55l400 900h55z" />
    <glyph glyph-name="zero" unicode="0" 
d="M517 86q-72 -99 -202 -99q-129 0 -203 99q-72 99 -72 264t72 264q74 99 203 99q130 0 202 -99q73 -98 73 -264t-73 -264zM315 99q78 0 119 65t41 186t-41 186t-119 65q-77 0 -118.5 -65t-41.5 -186t41.5 -186t118.5 -65z" />
    <glyph glyph-name="one" unicode="1" horiz-adv-x="372" 
d="M13 635l184 65h100v-700h-115v577l-141 -40z" />
    <glyph glyph-name="two" unicode="2" horiz-adv-x="529" 
d="M492 0h-461v90l244 249q89 89 89 154q0 50 -30 79t-78 29q-88 0 -130 -87l-97 57q32 69 92 105.5t134 36.5q93 0 158 -58q66 -59 66 -158q0 -106 -119 -228l-158 -158h290v-111z" />
    <glyph glyph-name="three" unicode="3" horiz-adv-x="540" 
d="M476 602l-142 -188q78 -18 124.5 -71.5t46.5 -130.5q0 -105 -71 -165q-70 -60 -174 -60q-82 0 -145 37.5t-90 107.5l98 57q31 -90 137 -90q60 0 95 30.5t35 82.5t-35 82t-95 30h-26l-46 69l151 199h-293v108h430v-98z" />
    <glyph glyph-name="four" unicode="4" horiz-adv-x="580" 
d="M483 233h80v-107h-80v-126h-116v126h-344v107l241 467h125l-241 -467h219v182h116v-182z" />
    <glyph glyph-name="five" unicode="5" horiz-adv-x="545" 
d="M187 436h88q100 0 169 -60q69 -59 69 -164t-71 -165q-70 -60 -174 -60q-85 0 -148 39t-90 111l99 57q29 -95 139 -95q59 0 94.5 30.5t35.5 82.5q0 51 -35 81.5t-93 30.5h-204l27 376h390v-108h-284z" />
    <glyph glyph-name="six" unicode="6" horiz-adv-x="545" 
d="M260 465h13q110 0 178 -67q69 -66 69 -172q0 -105 -69 -173q-69 -66 -178 -66q-110 0 -179 66q-69 68 -69 173q0 80 42 141l222 333h131zM273 96q58 0 95 35.5t37 94.5t-37 94.5t-95 35.5q-60 0 -96.5 -35.5t-36.5 -94.5t36.5 -94.5t96.5 -35.5z" />
    <glyph glyph-name="seven" unicode="7" horiz-adv-x="490" 
d="M15 590v110h445v-100l-246 -600h-121l242 590h-320z" />
    <glyph glyph-name="eight" unicode="8" horiz-adv-x="561" 
d="M423 364q103 -57 103 -170q0 -95 -66.5 -151t-178.5 -56t-179 55t-67 152q0 54 27 98.5t76 71.5q-79 52 -79 148t64 148q65 53 158 53q92 0 157 -53t65 -148t-80 -148zM281 604q-48 0 -77.5 -25.5t-29.5 -71.5q0 -44 30 -70.5t77 -26.5q46 0 76.5 26.5t30.5 70.5
q0 46 -30 71.5t-77 25.5zM281 96q59 0 94.5 29t35.5 80t-35.5 80t-94.5 29q-60 0 -95.5 -29t-35.5 -80t35.5 -80t95.5 -29z" />
    <glyph glyph-name="nine" unicode="9" horiz-adv-x="545" 
d="M520 474q0 -80 -42 -141l-221 -333h-132l160 235h-12q-109 0 -179 66q-69 67 -69 173t69 172q70 67 179 67q110 0 178 -67q69 -66 69 -172zM140 474q0 -57 37.5 -93.5t95.5 -36.5t95 35.5t37 94.5t-37 94.5t-95 35.5t-95.5 -35.5t-37.5 -94.5z" />
    <glyph glyph-name="colon" unicode=":" horiz-adv-x="255" 
d="M53 438q0 32 21.5 53.5t53.5 21.5q31 2 53 -22t22 -53t-22 -53q-24 -22 -53 -22t-53 22t-22 53zM128 138q31 0 53 -22t22 -53t-22 -53t-53 -22t-53 22t-22 53t21.5 53t53.5 22z" />
    <glyph glyph-name="semicolon" unicode=";" horiz-adv-x="268" 
d="M66 438q0 32 22 53.5t53 21.5t53 -22t22 -53t-22 -53t-53 -22t-53 22t-22 53zM93 120h120l-70 -260h-90z" />
    <glyph glyph-name="less" unicode="&#x3c;" horiz-adv-x="525" 
d="M50 400l425 185v-114l-303 -121l303 -121v-114l-425 185v100z" />
    <glyph glyph-name="equal" unicode="=" horiz-adv-x="530" 
d="M480 402h-430v102h430v-102zM480 197h-430v102h430v-102z" />
    <glyph glyph-name="greater" unicode="&#x3e;" horiz-adv-x="525" 
d="M50 471v114l425 -185v-100l-425 -185v114l303 121z" />
    <glyph glyph-name="question" unicode="?" horiz-adv-x="546" 
d="M315 220h-115q0 40 18 75.5t44 61t52 49t44 51.5t18 57q0 41 -29 64t-78 23q-47 0 -81 -24t-49 -68l-99 56q27 70 89.5 109t142.5 39q90 0 154 -51q65 -51 65 -141q0 -41 -18 -78t-44 -63t-52 -50.5t-44 -52.5t-18 -57zM258 138q31 0 53 -22t22 -53t-22 -53t-53 -22
t-53 22t-22 53t21.5 53t53.5 22z" />
    <glyph glyph-name="at" unicode="@" horiz-adv-x="784" 
d="M399 612q106 0 188 -52q80 -50 121 -126.5t41 -163.5q0 -102 -43 -158.5t-111 -56.5q-100 0 -125 82q-37 -49 -103 -49t-109 46t-43 116t43 116q44 47 109 47q59 0 96 -40v30h92v-226q0 -81 61 -81q44 0 71 45t27 129q0 133 -91 221q-91 89 -224 89q-136 0 -233 -95
q-96 -95 -96 -235q0 -142 98 -237q99 -93 249 -93q94 0 167 26v-34q-74 -24 -167 -24q-164 0 -273 103q-109 102 -109 259q0 150 104 256q105 106 260 106zM386 172q33 0 55 21.5t22 56.5t-22 57t-55 22q-34 0 -56 -22t-22 -57t22 -56.5t56 -21.5z" />
    <glyph glyph-name="A" unicode="A" horiz-adv-x="655" 
d="M650 0h-124l-49 141h-298l-49 -141h-125l254 700h138zM328 565l-111 -316h222z" />
    <glyph glyph-name="B" unicode="B" horiz-adv-x="610" 
d="M482 363q46 -24 72 -66.5t26 -96.5q0 -86 -61 -143t-149 -57h-300v700h278q86 0 145 -56q60 -56 60 -138q0 -90 -71 -143zM348 592h-163v-184h163q38 0 64 26.5t26 65.5t-26 65.5t-64 26.5zM185 108h185q40 0 67.5 28.5t27.5 69.5t-27.5 69.5t-67.5 28.5h-185v-196z" />
    <glyph glyph-name="C" unicode="C" horiz-adv-x="732" 
d="M401 -13q-158 0 -262 104q-104 106 -104 259q0 154 104 258q103 105 262 105q95 0 175.5 -45t125.5 -122l-100 -58q-28 52 -81.5 82.5t-119.5 30.5q-111 0 -182 -71q-69 -70 -69 -180t69 -180q71 -71 182 -71q66 0 120 30.5t81 82.5l100 -57q-43 -76 -125 -123
q-79 -45 -176 -45z" />
    <glyph glyph-name="D" unicode="D" horiz-adv-x="715" 
d="M70 700h275q144 0 239 -101q96 -101 96 -249q0 -147 -96 -249q-95 -101 -239 -101h-275v700zM185 110h160q99 0 161 68q63 68 63 172t-63 172q-62 68 -161 68h-160v-480z" />
    <glyph glyph-name="E" unicode="E" horiz-adv-x="530" 
d="M185 299v-189h310v-110h-425v700h420v-110h-305v-182h280v-109h-280z" />
    <glyph glyph-name="F" unicode="F" horiz-adv-x="518" 
d="M480 700v-110h-295v-196h285v-110h-285v-284h-115v700h410z" />
    <glyph glyph-name="G" unicode="G" horiz-adv-x="786" 
d="M401 362h350v-48q0 -144 -95 -236q-94 -91 -248 -91q-162 0 -268 105q-105 105 -105 258q0 152 105 257q106 106 262 106q97 0 178.5 -44.5t126.5 -121.5l-99 -57q-28 51 -83 81t-123 30q-110 0 -181 -72q-71 -73 -71 -180q0 -108 71 -179q73 -71 188 -71q92 0 151 43
t75 117h-234v103z" />
    <glyph glyph-name="H" unicode="H" horiz-adv-x="670" 
d="M485 413v287h115v-700h-115v303h-300v-303h-115v700h115v-287h300z" />
    <glyph glyph-name="I" unicode="I" horiz-adv-x="255" 
d="M70 0v700h115v-700h-115z" />
    <glyph glyph-name="J" unicode="J" horiz-adv-x="564" 
d="M260 -13q-163 0 -225 128l99 58q35 -74 127 -74q60 0 92.5 29.5t32.5 83.5v488h115v-488q0 -108 -68 -167q-67 -58 -173 -58z" />
    <glyph glyph-name="K" unicode="K" horiz-adv-x="603" 
d="M305 359l293 -359h-137l-276 333v-333h-115v700h115v-314l266 314h137z" />
    <glyph glyph-name="L" unicode="L" horiz-adv-x="485" 
d="M185 700v-590h285v-110h-400v700h115z" />
    <glyph glyph-name="M" unicode="M" horiz-adv-x="810" 
d="M617 700h123v-700h-115v499l-213 -352h-14l-213 353v-500h-115v700h124l211 -350z" />
    <glyph glyph-name="N" unicode="N" horiz-adv-x="675" 
d="M490 225v475h115v-700h-90l-330 475v-475h-115v700h90z" />
    <glyph glyph-name="O" unicode="O" horiz-adv-x="796" 
d="M655 92q-105 -105 -257 -105t-258 105q-105 106 -105 258t105 257q106 106 258 106t257 -106q106 -105 106 -257t-106 -258zM221 170q73 -71 177 -71q105 0 176 71q72 72 72 180t-72 179q-71 72 -176 72t-177 -72q-71 -71 -71 -179q0 -107 71 -180z" />
    <glyph glyph-name="P" unicode="P" horiz-adv-x="590" 
d="M70 700h258q99 0 165 -66q67 -66 67 -164q0 -97 -67 -164q-66 -66 -165 -66h-143v-240h-115v700zM185 348h143q51 0 84 34.5t33 87.5t-33 87.5t-84 34.5h-143v-244z" />
    <glyph glyph-name="Q" unicode="Q" horiz-adv-x="801" 
d="M761 350q0 -139 -92 -242l74 -76l-81 -73l-77 79q-89 -51 -187 -51q-150 0 -257 105q-106 106 -106 258t106 257q106 106 257 106t257 -106q106 -105 106 -257zM398 99q54 0 105 23l-128 131l81 73l134 -137q56 70 56 161q0 107 -72 179t-176 72t-176 -72t-72 -179
t72 -179t176 -72z" />
    <glyph glyph-name="R" unicode="R" horiz-adv-x="613" 
d="M595 0h-126l-148 255h-136v-255h-115v700h280q94 0 159 -66q66 -64 66 -159q0 -67 -38.5 -122.5t-100.5 -80.5zM350 592h-165v-234h165q46 0 78 34t32 83t-32 83t-78 34z" />
    <glyph glyph-name="S" unicode="S" horiz-adv-x="581" 
d="M303 -13q-101 0 -171.5 45.5t-98.5 126.5l99 58q42 -118 174 -118q64 0 97 25t33 67t-35 65t-124 50q-91 27 -147 64q-68 48 -68 141t66 147q65 55 159 55q83 0 146.5 -40.5t97.5 -113.5l-97 -56q-44 98 -147 98q-50 0 -80 -23.5t-30 -63.5q0 -39 30 -61.5t111 -47.5
q50 -17 58 -20q13 -4 52 -20q32 -13 51 -28q78 -61 72 -144q0 -95 -69 -151q-67 -55 -179 -55z" />
    <glyph glyph-name="T" unicode="T" horiz-adv-x="540" 
d="M15 700h510v-110h-197v-590h-115v590h-198v110z" />
    <glyph glyph-name="U" unicode="U" horiz-adv-x="655" 
d="M63 232v468h115v-461q0 -65 38.5 -102.5t111.5 -37.5t111.5 37.5t38.5 102.5v461h115v-468q0 -111 -74 -179q-73 -66 -191 -66t-191 66q-74 68 -74 179z" />
    <glyph glyph-name="V" unicode="V" horiz-adv-x="634" 
d="M386 0h-138l-243 700h126l186 -561l187 561h125z" />
    <glyph glyph-name="W" unicode="W" horiz-adv-x="999" 
d="M351 0h-133l-198 700h121l147 -547l159 547h106l158 -547l147 547h121l-198 -700h-133l-148 511z" />
    <glyph glyph-name="X" unicode="X" horiz-adv-x="600" 
d="M366 360l219 -360h-131l-154 253l-154 -253h-131l220 360l-207 340h130l142 -233l142 233h131z" />
    <glyph glyph-name="Y" unicode="Y" horiz-adv-x="613" 
d="M477 700h131l-244 -422v-278h-115v278l-244 422h131l171 -310z" />
    <glyph glyph-name="Z" unicode="Z" horiz-adv-x="530" 
d="M495 605l-314 -495h322v-110h-465v95l314 495h-307v110h450v-95z" />
    <glyph glyph-name="bracketleft" unicode="[" horiz-adv-x="300" 
d="M280 800v-104h-117v-692h117v-104h-225v900h225z" />
    <glyph glyph-name="backslash" unicode="\" horiz-adv-x="525" 
d="M490 -100h-55l-400 900h55z" />
    <glyph glyph-name="bracketright" unicode="]" horiz-adv-x="300" 
d="M20 800h225v-900h-225v104h117v692h-117v104z" />
    <glyph glyph-name="asciicircum" unicode="^" horiz-adv-x="540" 
d="M226 700h88l186 -320h-118l-112 197l-111 -197h-119z" />
    <glyph glyph-name="underscore" unicode="_" horiz-adv-x="520" 
d="M485 -161h-450v104h450v-104z" />
    <glyph glyph-name="grave" unicode="`" horiz-adv-x="250" 
d="M230 565h-104l-106 135h130z" />
    <glyph glyph-name="a" unicode="a" 
d="M459 429v71h108v-500h-108v72q-61 -85 -175 -85q-103 0 -176 76t-73 187t73 187t176 76q114 0 175 -84zM188 135q45 -45 113 -45t113 45q45 46 45 115t-45 114q-45 46 -113 46t-113 -46q-45 -45 -45 -114q0 -68 45 -115z" />
    <glyph glyph-name="b" unicode="b" 
d="M346 513q103 0 176 -76t73 -187t-73 -187t-176 -76q-114 0 -175 85v-72h-108v700h108v-271q62 84 175 84zM216 135q45 -45 113 -45t113 45q45 46 45 115t-45 114q-45 46 -113 46t-113 -46q-45 -45 -45 -114q0 -68 45 -115z" />
    <glyph glyph-name="c" unicode="c" horiz-adv-x="542" 
d="M299 -13q-113 0 -189 76q-75 77 -75 187q0 112 75 187q76 76 189 76q73 0 133 -35t90 -94l-93 -54q-17 36 -51.5 56.5t-79.5 20.5q-66 0 -111 -45q-44 -46 -44 -112t44 -112q45 -45 111 -45q44 0 79.5 20.5t53.5 56.5l93 -53q-32 -60 -92.5 -95t-132.5 -35z" />
    <glyph glyph-name="d" unicode="d" 
d="M459 429v271h108v-700h-108v72q-61 -85 -175 -85q-103 0 -176 76t-73 187t73 187t176 76q114 0 175 -84zM188 135q45 -45 113 -45t113 45q45 46 45 115t-45 114q-45 46 -113 46t-113 -46q-45 -45 -45 -114q0 -68 45 -115z" />
    <glyph glyph-name="e" unicode="e" horiz-adv-x="582" 
d="M546 204h-398q12 -56 54.5 -87t105.5 -31q85 0 129 62l89 -52q-73 -109 -219 -109q-121 0 -197 74q-75 75 -75 189q0 111 74 187q73 76 190 76q109 0 180 -77t71 -187q0 -20 -4 -45zM147 292h294q-11 59 -49.5 91t-93.5 32q-60 0 -100 -33t-51 -90z" />
    <glyph glyph-name="f" unicode="f" horiz-adv-x="325" 
d="M325 713v-104q-118 10 -118 -99v-10h118v-104h-118v-396h-108v396h-76v104h76v10q0 104 58 157t168 46z" />
    <glyph glyph-name="g" unicode="g" 
d="M461 426v74h106v-477q0 -114 -75 -175q-74 -61 -182 -61q-173 0 -237 121l93 54q39 -77 146 -77q70 0 109.5 36.5t39.5 101.5v61q-61 -87 -174 -87q-105 0 -179 75q-73 76 -73 183q0 108 73 182q73 76 179 76q113 0 174 -87zM188 143q46 -45 114 -45t113 45q46 45 46 112
t-46 112q-45 45 -113 45t-114 -45q-45 -45 -45 -112t45 -112z" />
    <glyph glyph-name="h" unicode="h" horiz-adv-x="571" 
d="M326 513q87 0 139.5 -55.5t52.5 -150.5v-307h-108v296q0 56 -30 86t-82 30q-59 0 -93 -36.5t-34 -107.5v-268h-108v700h108v-264q50 77 155 77z" />
    <glyph glyph-name="i" unicode="i" horiz-adv-x="233" 
d="M165 595q-20 -20 -48 -20t-49 20q-20 21 -20 49t20 48q20 21 49 21t49 -21q20 -20 20 -48t-21 -49zM171 0h-108v500h108v-500z" />
    <glyph glyph-name="j" unicode="j" horiz-adv-x="253" 
d="M184 595q-20 -20 -48 -20t-49 20q-20 21 -20 49t20 48q21 21 49 21t48 -21q21 -20 21 -48t-21 -49zM82 -20v520h108v-520q0 -208 -205 -193v104q50 -5 73.5 16t23.5 73z" />
    <glyph glyph-name="k" unicode="k" horiz-adv-x="515" 
d="M277 255l228 -255h-129l-205 231v-231h-108v700h108v-421l194 221h132z" />
    <glyph glyph-name="l" unicode="l" horiz-adv-x="233" 
d="M171 0h-108v730h108v-730z" />
    <glyph glyph-name="m" unicode="m" horiz-adv-x="851" 
d="M609 513q85 0 137 -55t52 -148v-310h-108v303q0 51 -26 80t-71 29q-51 0 -80 -33.5t-29 -98.5v-280h-108v303q0 52 -24.5 80.5t-69.5 28.5q-50 0 -80.5 -34t-30.5 -98v-280h-108v500h108v-60q48 73 143 73q96 0 142 -79q49 79 153 79z" />
    <glyph glyph-name="n" unicode="n" horiz-adv-x="571" 
d="M326 513q87 0 139.5 -55.5t52.5 -150.5v-307h-108v296q0 56 -30 86t-82 30q-59 0 -93 -36.5t-34 -107.5v-268h-108v500h108v-64q50 77 155 77z" />
    <glyph glyph-name="o" unicode="o" horiz-adv-x="598" 
d="M299 -13q-111 0 -187 76q-77 77 -77 187t77 187q76 76 187 76t187 -76q77 -77 77 -187t-77 -187q-76 -76 -187 -76zM188 137q45 -45 111 -45t111 45t45 113t-45 113t-111 45t-111 -45t-45 -113t45 -113z" />
    <glyph glyph-name="p" unicode="p" 
d="M346 513q102 0 176 -77q73 -76 73 -186q0 -111 -73 -187t-176 -76q-113 0 -175 84v-271h-108v700h108v-72q61 85 175 85zM216 135q45 -45 113 -45t113 45q45 46 45 115t-45 114q-45 46 -113 46t-113 -46q-45 -45 -45 -114q0 -68 45 -115z" />
    <glyph glyph-name="q" unicode="q" 
d="M459 428v72h108v-700h-108v271q-61 -84 -175 -84q-103 0 -176 76t-73 187q0 110 73 186q74 77 176 77q114 0 175 -85zM188 135q45 -45 113 -45t113 45q45 46 45 115t-45 114q-45 46 -113 46t-113 -46q-45 -45 -45 -114q0 -68 45 -115z" />
    <glyph glyph-name="r" unicode="r" horiz-adv-x="342" 
d="M171 500v-84q41 93 154 93v-117q-61 4 -108 -30q-46 -33 -46 -110v-252h-108v500h108z" />
    <glyph glyph-name="s" unicode="s" horiz-adv-x="461" 
d="M160 362q0 -23 24 -37.5t70 -27.5q35 -8 61 -17t55 -26.5t44.5 -46t14.5 -66.5q0 -72 -56 -113t-139 -41q-74 0 -127 31t-77 86l93 54q25 -72 111 -72q85 0 85 56q0 41 -95 64q-36 9 -60.5 18t-54 26t-45 45t-14.5 65q0 69 52 111q53 42 131 42q62 0 110.5 -27.5
t74.5 -76.5l-91 -51q-25 57 -94 57q-32 0 -52.5 -14t-20.5 -39z" />
    <glyph glyph-name="t" unicode="t" horiz-adv-x="382" 
d="M342 500v-104h-124v-240q0 -31 14 -44.5t41.5 -15t68.5 0.5v-97q-124 -15 -178 21.5t-54 134.5v240h-92v104h92v108l108 32v-140h124z" />
    <glyph glyph-name="u" unicode="u" horiz-adv-x="571" 
d="M400 232v268h108v-500h-108v64q-50 -77 -155 -77q-87 0 -139.5 55.5t-52.5 150.5v307h108v-296q0 -56 30 -86t82 -30q59 0 93 36.5t34 107.5z" />
    <glyph glyph-name="v" unicode="v" horiz-adv-x="525" 
d="M263 120l139 380h118l-195 -500h-125l-195 500h118z" />
    <glyph glyph-name="w" unicode="w" horiz-adv-x="770" 
d="M541 155l98 345h114l-157 -500h-106l-104 337l-105 -337h-106l-157 500h114l97 -345l105 345h103z" />
    <glyph glyph-name="x" unicode="x" horiz-adv-x="520" 
d="M323 256l187 -256h-125l-124 171l-125 -171h-126l188 257l-178 243h125l115 -158l115 158h126z" />
    <glyph glyph-name="y" unicode="y" horiz-adv-x="520" 
d="M272 137l128 363h115l-192 -516q-72 -194 -244 -184v101q50 -3 81 21t52 77l5 10l-212 491h118z" />
    <glyph glyph-name="z" unicode="z" horiz-adv-x="473" 
d="M425 428l-233 -326h243v-102h-390v72l234 326h-224v102h370v-72z" />
    <glyph glyph-name="braceleft" unicode="{" horiz-adv-x="357" 
d="M337 -4v-104q-200 -15 -200 179v154q0 46 -20 61t-67 13v105q47 -2 67 13t20 61v154q0 193 200 178v-104q-49 6 -70.5 -10.5t-21.5 -63.5v-154q0 -96 -65 -126q65 -32 65 -127v-154q0 -47 21.5 -63.5t70.5 -11.5z" />
    <glyph glyph-name="bar" unicode="|" horiz-adv-x="248" 
d="M178 -200h-108v920h108v-920z" />
    <glyph glyph-name="braceright" unicode="}" horiz-adv-x="357" 
d="M20 -108v104q49 -5 70.5 11.5t21.5 63.5v154q0 95 65 127q-65 30 -65 126v154q0 47 -21.5 63.5t-70.5 10.5v104q200 15 200 -178v-154q0 -46 20 -61t67 -13v-105q-47 2 -67 -13t-20 -61v-154q0 -194 -200 -179z" />
    <glyph glyph-name="asciitilde" unicode="~" horiz-adv-x="597" 
d="M457 433l90 -43q-26 -94 -92.5 -119.5t-157.5 22.5q-77 39 -108 33q-33 -6 -49 -61l-90 43q26 94 93.5 119.5t157.5 -22.5q77 -39 107 -33q31 7 49 61z" />
    <glyph glyph-name="exclamdown" unicode="&#xa1;" horiz-adv-x="255" 
d="M128 362q-32 0 -53.5 22t-21.5 53t22 53t53 22t53 -22t22 -53t-22 -53t-53 -22zM63 0l22 280h85l23 -280v-200h-130v200z" />
    <glyph glyph-name="cent" unicode="&#xa2;" horiz-adv-x="542" 
d="M431 270l93 -53q-32 -60 -92.5 -95t-132.5 -35q-37 0 -64 7l-30 -94h-55l36 111q-69 31 -110 95t-41 144q0 112 75 187q76 76 189 76q29 0 48 -4l29 91h55l-34 -105q84 -34 125 -111l-93 -54q-19 43 -65 63l-96 -297q15 -3 30 -3q44 0 79.5 20.5t53.5 56.5zM143 350
q0 -92 76 -136l94 292q-3 1 -15 1q-66 0 -111 -45q-44 -46 -44 -112z" />
    <glyph glyph-name="sterling" unicode="&#xa3;" horiz-adv-x="583" 
d="M230 279v-168h340v-111h-535v111h80v168h-65v101h65v118q0 104 64 159q65 56 151 56q74 0 128 -37t81 -104l-98 -56q-28 85 -108 85q-46 0 -74.5 -27.5t-28.5 -79.5v-114h213v-101h-213z" />
    <glyph glyph-name="currency" unicode="&#xa4;" horiz-adv-x="546" 
d="M487 350q0 -76 -46 -132l70 -70l-36 -36l-70 71q-58 -44 -132 -44q-73 0 -131 44l-71 -71l-36 36l70 70q-46 56 -46 132q0 77 46 133l-70 69l36 36l71 -70q56 43 131 43q76 0 132 -43l70 70l36 -36l-69 -70q45 -58 45 -132zM196 272q31 -30 77 -30t76 30q31 31 31 78
t-31 77q-30 31 -76 31t-77 -31q-30 -30 -30 -77q0 -46 30 -78z" />
    <glyph glyph-name="yen" unicode="&#xa5;" horiz-adv-x="593" 
d="M477 700h131l-198 -343h112v-73h-155l-3 -6v-44h158v-73h-158v-161h-115v161h-177v73h177v44l-3 6h-174v73h131l-198 343h131l171 -310z" />
    <glyph glyph-name="brokenbar" unicode="&#xa6;" horiz-adv-x="248" 
d="M178 350h-108v370h108v-370zM178 -200h-108v370h108v-370z" />
    <glyph glyph-name="section" unicode="&#xa7;" horiz-adv-x="531" 
d="M494 277q0 -76 -61 -127q37 -40 37 -101q0 -74 -55 -117q-55 -44 -139 -44q-164 0 -218 129l96 54q29 -86 122 -86q39 0 62.5 17t23.5 47q0 29 -36 53q-10 7 -54 28q-25 10 -32 13l-33 14q-77 32 -115.5 71.5t-38.5 101.5q0 76 64 125q-33 41 -33 99q0 72 53 116
q52 43 132 43q66 0 116.5 -32t76.5 -92l-89 -49q-33 76 -104 76q-34 0 -55.5 -16.5t-21.5 -45.5q0 -30 35 -55q3 -2 15.5 -9t23.5 -12q17 -7 21 -10l49 -20q79 -33 118.5 -72t39.5 -99zM161 335q0 -31 22.5 -52t70.5 -39l100 -39q32 24 32 62q0 31 -24 52t-76 41l-40 15
l-51 22q-34 -22 -34 -62z" />
    <glyph glyph-name="dieresis" unicode="&#xa8;" horiz-adv-x="350" 
d="M122 575q-17 -17 -42 -17t-43 17q-17 18 -17 43t17 42q18 18 43 18t42 -18q18 -17 18 -42t-18 -43zM312 575q-17 -17 -42 -17t-43 17q-17 18 -17 43t17 42q18 18 43 18t42 -18q18 -17 18 -42t-18 -43z" />
    <glyph glyph-name="copyright" unicode="&#xa9;" horiz-adv-x="794" 
d="M653 94q-106 -106 -256 -106t-256 106t-106 256t106 256t256 106t256 -106t106 -256t-106 -256zM397 20q137 0 231 96q96 98 96 234q0 137 -96 233q-94 97 -231 97q-135 0 -231 -97q-96 -96 -96 -233q0 -136 96 -233t231 -97zM400 156q-82 0 -139 57t-57 137t57 137
q57 58 139 58q53 0 97 -25t70 -70l-83 -48q-25 48 -85 48q-44 0 -72 -29t-28 -71q0 -41 28 -70.5t72 -29.5q61 0 86 49l82 -48q-25 -44 -69.5 -69.5t-97.5 -25.5z" />
    <glyph glyph-name="guillemotleft" unicode="&#xab;" horiz-adv-x="527" 
d="M175 494h107l-110 -185l110 -185h-107l-110 185zM355 494h107l-110 -185l110 -185h-107l-110 185z" />
    <glyph glyph-name="logicalnot" unicode="&#xac;" horiz-adv-x="540" 
d="M50 299v102h440v-220h-108v118h-332z" />
    <glyph glyph-name="registered" unicode="&#xae;" horiz-adv-x="794" 
d="M141 606q106 106 256 106t256 -106t106 -256t-106 -256t-256 -106t-256 106t-106 256t106 256zM397 20q137 0 231 96q96 98 96 234q0 137 -96 233q-94 97 -231 97q-135 0 -231 -97q-96 -96 -96 -233q0 -136 96 -233t231 -97zM549 414q0 -75 -59 -110l76 -139h-100
l-59 117h-45v-117h-92v370h137q62 0 102 -34.5t40 -86.5zM402 450h-40v-88h40q26 0 40.5 12t14.5 32q0 44 -55 44z" />
    <glyph glyph-name="overscore" unicode="&#xaf;" horiz-adv-x="320" 
d="M300 570h-280v89h280v-89z" />
    <glyph glyph-name="degree" unicode="&#xb0;" horiz-adv-x="396" 
d="M198 490q-71 0 -117 46t-46 114q0 67 46 113q47 47 117 47q69 0 116 -47t47 -113q0 -68 -46 -114t-117 -46zM198 580q30 0 49.5 20t19.5 50t-19.5 50t-49.5 20t-49.5 -20t-19.5 -50t19.5 -50t49.5 -20z" />
    <glyph glyph-name="plusminus" unicode="&#xb1;" horiz-adv-x="550" 
d="M326 635v-151h169v-102h-169v-152h-102v152h-169v102h169v151h102zM495 65h-440v102h440v-102z" />
    <glyph glyph-name="acute" unicode="&#xb4;" horiz-adv-x="250" 
d="M20 565l80 135h130l-106 -135h-104z" />
    <glyph glyph-name="uni00B5" unicode="&#xb5;" horiz-adv-x="613" 
d="M551 102h37v-102h-56q-76 0 -107 58q-50 -71 -151 -71q-59 0 -103 29v-216h-108v700h108v-296q0 -54 30 -85t81 -31q60 0 94 36.5t34 108.5v267h108v-365q0 -15 9 -24t24 -9z" />
    <glyph glyph-name="paragraph" unicode="&#xb6;" horiz-adv-x="639" 
d="M240 700h355v-96h-61v-804h-102v804h-90v-804h-102v480q-87 0 -149 62q-61 61 -61 148q0 88 61 149t149 61z" />
    <glyph glyph-name="middot" unicode="&#xb7;" horiz-adv-x="255" 
d="M53 348q0 32 21.5 53.5t53.5 21.5q31 2 53 -22t22 -53t-22 -53q-24 -22 -53 -22t-53 22t-22 53z" />
    <glyph glyph-name="cedilla" unicode="&#xb8;" horiz-adv-x="255" 
d="M157 0v-46q35 -6 56.5 -27t21.5 -52q0 -105 -215 -91v79q121 -10 121 25q0 27 -73 30v82h89z" />
    <glyph glyph-name="guillemotright" unicode="&#xbb;" horiz-adv-x="527" 
d="M65 494h107l110 -185l-110 -185h-107l110 185zM245 494h107l110 -185l-110 -185h-107l110 185z" />
    <glyph glyph-name="onequarter" unicode="&#xbc;" horiz-adv-x="817" 
d="M204 700v-400h-92v306l-85 -25l-22 76l119 43h80zM121 0l400 700h80l-400 -700h-80zM756 152h44v-84h-44v-68h-89v68h-193v84l135 248h99l-132 -248h91v79h89v-79z" />
    <glyph glyph-name="onehalf" unicode="&#xbd;" horiz-adv-x="812" 
d="M204 700v-400h-92v306l-85 -25l-22 76l119 43h80zM121 0l400 700h80l-400 -700h-80zM707 161l-82 -76h155v-85h-293v64l157 151q37 34 37 69q0 20 -14 32t-38 12q-47 0 -70 -54l-75 42q40 97 146 97q63 0 103 -35t40 -89q0 -65 -66 -128z" />
    <glyph glyph-name="threequarters" unicode="&#xbe;" horiz-adv-x="905" 
d="M319 419q0 -62 -41 -97t-111 -35q-111 0 -152 87l78 45q20 -50 74 -50q43 -4 55 31q12 31 -11 54q-17 18 -47 15h-14l-36 55l75 91h-158v85h270v-72l-78 -93q46 -11 71 -41.5t25 -74.5zM209 0l400 700h80l-400 -700h-80zM844 152h44v-84h-44v-68h-89v68h-193v84l135 248
h99l-132 -248h91v79h89v-79z" />
    <glyph glyph-name="questiondown" unicode="&#xbf;" horiz-adv-x="546" 
d="M288 362q-31 0 -53 22t-22 53t22 53t53 22t53 -22t22 -53t-21.5 -53t-53.5 -22zM231 280h115q0 -40 -18 -75.5t-44 -61t-52 -49t-44 -51.5t-18 -57q0 -41 29 -64t78 -23q47 0 81 24t49 68l99 -56q-27 -70 -89.5 -109t-142.5 -39q-90 0 -154 51q-65 51 -65 141q0 41 18 78
t44 63t52 50.5t44 52.5t18 57z" />
    <glyph glyph-name="Agrave" unicode="&#xc0;" horiz-adv-x="655" 
d="M323 900l80 -135h-104l-106 135h130zM650 0h-124l-49 141h-298l-49 -141h-125l254 700h138zM328 565l-111 -316h222z" />
    <glyph glyph-name="Aacute" unicode="&#xc1;" horiz-adv-x="655" 
d="M338 900h130l-106 -135h-104zM650 0h-124l-49 141h-298l-49 -141h-125l254 700h138zM328 565l-111 -316h222z" />
    <glyph glyph-name="Acircumflex" unicode="&#xc2;" horiz-adv-x="655" 
d="M378 760l-52 74l-53 -74h-110l106 140h113l106 -140h-110zM650 0h-124l-49 141h-298l-49 -141h-125l254 700h138zM328 565l-111 -316h222z" />
    <glyph glyph-name="Atilde" unicode="&#xc3;" horiz-adv-x="655" 
d="M320 790q-33 27 -48 22.5t-15 -45.5h-89q0 70 26 105.5t63.5 32.5t79.5 -28q32 -27 47 -22.5t15 45.5h89q0 -42 -9.5 -72.5t-26 -45.5t-38 -19t-45.5 3t-49 24zM650 0h-124l-49 141h-298l-49 -141h-125l254 700h138zM328 565l-111 -316h222z" />
    <glyph glyph-name="Adieresis" unicode="&#xc4;" horiz-adv-x="655" 
d="M275 775q-17 -17 -42 -17t-43 17q-17 18 -17 43t17 42q18 18 43 18t42 -18q18 -17 18 -42t-18 -43zM465 775q-17 -17 -42 -17t-43 17q-17 18 -17 43t17 42q18 18 43 18t42 -18q18 -17 18 -42t-18 -43zM650 0h-124l-49 141h-298l-49 -141h-125l254 700h138zM328 565
l-111 -316h222z" />
    <glyph glyph-name="Aring" unicode="&#xc5;" horiz-adv-x="655" 
d="M650 0h-124l-49 141h-298l-49 -141h-125l246 677q-43 31 -43 88q0 48 34 80.5t85 32.5q53 0 86.5 -32t33.5 -81q0 -55 -42 -88zM327 807q-20 0 -31.5 -11.5t-11.5 -30.5q0 -18 11.5 -29.5t31.5 -11.5q21 0 32.5 11.5t11.5 29.5q0 19 -11.5 30.5t-32.5 11.5zM328 565
l-111 -316h222z" />
    <glyph glyph-name="AE" unicode="&#xc6;" horiz-adv-x="880" 
d="M563 299v-189h282v-110h-395v141h-236l-84 -141h-130l419 700h421v-110h-277v-182h257v-109h-257zM450 537l-172 -288h172v288z" />
    <glyph glyph-name="Ccedilla" unicode="&#xc7;" horiz-adv-x="732" 
d="M401 99q66 0 120 30.5t81 82.5l100 -57q-38 -68 -105.5 -111.5t-149.5 -53.5v-36q35 -6 56.5 -27t21.5 -52q0 -105 -215 -91v79q121 -10 121 25q0 27 -73 30v71q-141 15 -233 117q-90 102 -90 244q0 154 104 258q103 105 262 105q95 0 175.5 -45t125.5 -122l-100 -58
q-28 52 -81.5 82.5t-119.5 30.5q-111 0 -182 -71q-69 -70 -69 -180t69 -180q71 -71 182 -71z" />
    <glyph glyph-name="Egrave" unicode="&#xc8;" horiz-adv-x="530" 
d="M276 900l80 -135h-104l-106 135h130zM185 299v-189h310v-110h-425v700h420v-110h-305v-182h280v-109h-280z" />
    <glyph glyph-name="Eacute" unicode="&#xc9;" horiz-adv-x="530" 
d="M291 900h130l-106 -135h-104zM185 299v-189h310v-110h-425v700h420v-110h-305v-182h280v-109h-280z" />
    <glyph glyph-name="Ecircumflex" unicode="&#xca;" horiz-adv-x="530" 
d="M331 760l-52 74l-53 -74h-110l106 140h113l106 -140h-110zM185 299v-189h310v-110h-425v700h420v-110h-305v-182h280v-109h-280z" />
    <glyph glyph-name="Edieresis" unicode="&#xcb;" horiz-adv-x="530" 
d="M228 775q-17 -17 -42 -17t-43 17q-17 18 -17 43t17 42q18 18 43 18t42 -18q18 -17 18 -42t-18 -43zM418 775q-17 -17 -42 -17t-43 17q-17 18 -17 43t17 42q18 18 43 18t42 -18q18 -17 18 -42t-18 -43zM185 299v-189h310v-110h-425v700h420v-110h-305v-182h280v-109h-280z
" />
    <glyph glyph-name="Igrave" unicode="&#xcc;" horiz-adv-x="255" 
d="M203 765h-104l-106 135h130zM70 700v-700h115v700h-115z" />
    <glyph glyph-name="Iacute" unicode="&#xcd;" horiz-adv-x="255" 
d="M58 765l80 135h130l-106 -135h-104zM70 700v-700h115v700h-115z" />
    <glyph glyph-name="Icircumflex" unicode="&#xce;" horiz-adv-x="255" 
d="M178 760l-52 74l-53 -74h-110l106 140h113l106 -140h-110zM185 0h-115v700h115v-700z" />
    <glyph glyph-name="Idieresis" unicode="&#xcf;" horiz-adv-x="255" 
d="M75 775q-17 -17 -42 -17t-42 17q-18 18 -18 43t18 42q17 18 42 18t42 -18q18 -17 18 -42t-18 -43zM265 775q-17 -17 -42 -17t-43 17q-17 18 -17 43t17 42q18 18 43 18t42 -18q18 -17 18 -42t-18 -43zM70 0v700h115v-700h-115z" />
    <glyph glyph-name="Eth" unicode="&#xd0;" horiz-adv-x="745" 
d="M100 700h275q144 0 239 -101q96 -101 96 -249q0 -147 -96 -249q-95 -101 -239 -101h-275v293h-75v104h75v303zM215 110h160q99 0 161 68q63 68 63 172t-63 172q-62 68 -161 68h-160v-193h180v-104h-180v-183z" />
    <glyph glyph-name="Ntilde" unicode="&#xd1;" horiz-adv-x="675" 
d="M262 767h-89q0 70 26 105.5t63.5 32.5t79.5 -28q32 -27 47 -22.5t15 45.5h89q0 -42 -9.5 -72.5t-26 -45.5t-38 -19t-45.5 3t-49 24q-33 27 -48 22.5t-15 -45.5zM490 225v475h115v-700h-90l-330 475v-475h-115v700h90z" />
    <glyph glyph-name="Ograve" unicode="&#xd2;" horiz-adv-x="796" 
d="M473 770h-104l-106 135h130zM655 92q106 106 106 258t-106 257q-105 106 -257 106t-258 -106q-105 -105 -105 -257t105 -258q106 -105 258 -105t257 105zM221 170q-71 73 -71 180q0 108 71 179q72 72 177 72q106 0 176 -72q72 -71 72 -179t-72 -180q-71 -71 -176 -71
q-104 0 -177 71z" />
    <glyph glyph-name="Oacute" unicode="&#xd3;" horiz-adv-x="796" 
d="M328 770l80 135h130l-106 -135h-104zM655 92q106 106 106 258t-106 257q-105 106 -257 106t-258 -106q-105 -105 -105 -257t105 -258q106 -105 258 -105t257 105zM221 170q-71 73 -71 180q0 108 71 179q72 72 177 72q106 0 176 -72q72 -71 72 -179t-72 -180
q-71 -71 -176 -71q-104 0 -177 71z" />
    <glyph glyph-name="Ocircumflex" unicode="&#xd4;" horiz-adv-x="796" 
d="M448 765l-52 74l-53 -74h-110l106 140h113l106 -140h-110zM140 607q106 106 258 106t257 -106q106 -105 106 -257t-106 -258q-105 -105 -257 -105t-258 105q-105 106 -105 258t105 257zM221 170q73 -71 177 -71q105 0 176 71q72 72 72 180t-72 179q-71 72 -176 72
t-177 -72q-71 -71 -71 -179q0 -107 71 -180z" />
    <glyph glyph-name="Otilde" unicode="&#xd5;" horiz-adv-x="796" 
d="M327 772h-89q0 70 26 105.5t63.5 32.5t79.5 -28q32 -27 47 -22.5t15 45.5h89q0 -42 -9.5 -72.5t-26 -45.5t-38 -19t-45.5 3t-49 24q-33 27 -48 22.5t-15 -45.5zM655 92q-105 -105 -257 -105t-258 105q-105 106 -105 258t105 257q106 106 258 106t257 -106
q106 -105 106 -257t-106 -258zM221 170q73 -71 177 -71q105 0 176 71q72 72 72 180t-72 179q-71 72 -176 72t-177 -72q-71 -71 -71 -179q0 -107 71 -180z" />
    <glyph glyph-name="Odieresis" unicode="&#xd6;" horiz-adv-x="796" 
d="M345 780q-17 -17 -42 -17t-43 17q-17 18 -17 43t17 42q18 18 43 18t42 -18q18 -17 18 -42t-18 -43zM535 780q-17 -17 -42 -17t-43 17q-17 18 -17 43t17 42q18 18 43 18t42 -18q18 -17 18 -42t-18 -43zM655 92q-105 -105 -257 -105t-258 105q-105 106 -105 258t105 257
q106 106 258 106t257 -106q106 -105 106 -257t-106 -258zM221 170q73 -71 177 -71q105 0 176 71q72 72 72 180t-72 179q-71 72 -176 72t-177 -72q-71 -71 -71 -179q0 -107 71 -180z" />
    <glyph glyph-name="multiply" unicode="&#xd7;" horiz-adv-x="498" 
d="M376 548l72 -70l-128 -128l128 -128l-72 -70l-127 127l-127 -127l-72 70l128 128l-128 128l72 70l127 -127z" />
    <glyph glyph-name="Oslash" unicode="&#xd8;" horiz-adv-x="804" 
d="M721 672l-56 -66q104 -104 104 -256t-106 -258q-105 -105 -257 -105q-114 0 -206 63l-48 -57l-61 35l56 66q-104 107 -104 256q0 152 105 257q106 106 258 106q114 0 206 -63l48 57zM158 350q0 -99 61 -169l321 383q-61 37 -134 37q-105 0 -177 -72q-71 -71 -71 -179z
M406 99q105 0 176 71q72 72 72 180q0 99 -61 169l-321 -383q61 -37 134 -37z" />
    <glyph glyph-name="Ugrave" unicode="&#xd9;" horiz-adv-x="655" 
d="M403 765h-104l-106 135h130zM63 232q0 -111 74 -179q73 -66 191 -66t191 66q74 68 74 179v468h-115v-461q0 -65 -38.5 -102.5t-111.5 -37.5t-111.5 37.5t-38.5 102.5v461h-115v-468z" />
    <glyph glyph-name="Uacute" unicode="&#xda;" horiz-adv-x="655" 
d="M258 765l80 135h130l-106 -135h-104zM63 232q0 -111 74 -179q73 -66 191 -66t191 66q74 68 74 179v468h-115v-461q0 -65 -38.5 -102.5t-111.5 -37.5t-111.5 37.5t-38.5 102.5v461h-115v-468z" />
    <glyph glyph-name="Ucircumflex" unicode="&#xdb;" horiz-adv-x="655" 
d="M378 760l-52 74l-53 -74h-110l106 140h113l106 -140h-110zM478 239v461h115v-468q0 -111 -74 -179q-73 -66 -191 -66t-191 66q-74 68 -74 179v468h115v-461q0 -65 38.5 -102.5t111.5 -37.5t111.5 37.5t38.5 102.5z" />
    <glyph glyph-name="Udieresis" unicode="&#xdc;" horiz-adv-x="655" 
d="M275 775q-17 -17 -42 -17t-43 17q-17 18 -17 43t17 42q18 18 43 18t42 -18q18 -17 18 -42t-18 -43zM465 775q-17 -17 -42 -17t-43 17q-17 18 -17 43t17 42q18 18 43 18t42 -18q18 -17 18 -42t-18 -43zM63 232v468h115v-461q0 -65 38.5 -102.5t111.5 -37.5t111.5 37.5
t38.5 102.5v461h115v-468q0 -111 -74 -179q-73 -66 -191 -66t-191 66q-74 68 -74 179z" />
    <glyph glyph-name="Yacute" unicode="&#xdd;" horiz-adv-x="613" 
d="M315 900h130l-106 -135h-104zM477 700h131l-244 -422v-278h-115v278l-244 422h131l171 -310z" />
    <glyph glyph-name="Thorn" unicode="&#xde;" horiz-adv-x="590" 
d="M185 580h145q98 0 164 -66t66 -164q0 -97 -67 -164q-66 -66 -163 -66h-145v-120h-115v700h115v-120zM185 228h145q49 0 82 34.5t33 87.5t-32.5 87.5t-82.5 34.5h-145v-244z" />
    <glyph glyph-name="germandbls" unicode="&#xdf;" horiz-adv-x="530" 
d="M283 -5v96q122 -11 122 68q0 47 -64 117q-63 73 -63 116q0 27 35 73q36 47 36 75q0 33 -22.5 53t-59.5 20q-43 0 -69.5 -26t-26.5 -76v-511h-108v510q0 93 57 148t151 55q85 0 135 -47q51 -46 51 -113q1 -31 -17 -63t-35.5 -56.5t-16.5 -36.5q0 -32 62 -104
q26 -29 44.5 -69.5t18.5 -79.5q0 -78 -58 -119t-172 -30z" />
    <glyph glyph-name="agrave" unicode="&#xe0;" 
d="M303 700l80 -135h-104l-106 135h130zM459 429v71h108v-500h-108v72q-61 -85 -175 -85q-103 0 -176 76t-73 187t73 187t176 76q114 0 175 -84zM188 135q45 -45 113 -45t113 45q45 46 45 115t-45 114q-45 46 -113 46t-113 -46q-45 -45 -45 -114q0 -68 45 -115z" />
    <glyph glyph-name="aacute" unicode="&#xe1;" 
d="M318 700h130l-106 -135h-104zM459 429v71h108v-500h-108v72q-61 -85 -175 -85q-103 0 -176 76t-73 187t73 187t176 76q114 0 175 -84zM188 135q45 -45 113 -45t113 45q45 46 45 115t-45 114q-45 46 -113 46t-113 -46q-45 -45 -45 -114q0 -68 45 -115z" />
    <glyph glyph-name="acircumflex" unicode="&#xe2;" 
d="M358 560l-52 74l-53 -74h-110l106 140h113l106 -140h-110zM459 429v71h108v-500h-108v72q-61 -85 -175 -85q-103 0 -176 76t-73 187t73 187t176 76q114 0 175 -84zM188 135q45 -45 113 -45t113 45q45 46 45 115t-45 114q-45 46 -113 46t-113 -46q-45 -45 -45 -114
q0 -68 45 -115z" />
    <glyph glyph-name="atilde" unicode="&#xe3;" 
d="M300 590q-33 27 -48 22.5t-15 -45.5h-89q0 70 26 105.5t63.5 32.5t79.5 -28q32 -27 47 -22.5t15 45.5h89q0 -42 -9.5 -72.5t-26 -45.5t-38 -19t-45.5 3t-49 24zM459 429v71h108v-500h-108v72q-61 -85 -175 -85q-103 0 -176 76t-73 187t73 187t176 76q114 0 175 -84z
M188 135q45 -45 113 -45t113 45q45 46 45 115t-45 114q-45 46 -113 46t-113 -46q-45 -45 -45 -114q0 -68 45 -115z" />
    <glyph glyph-name="adieresis" unicode="&#xe4;" 
d="M255 575q-17 -17 -42 -17t-43 17q-17 18 -17 43t17 42q18 18 43 18t42 -18q18 -17 18 -42t-18 -43zM445 575q-17 -17 -42 -17t-43 17q-17 18 -17 43t17 42q18 18 43 18t42 -18q18 -17 18 -42t-18 -43zM459 429v71h108v-500h-108v72q-61 -85 -175 -85q-103 0 -176 76
t-73 187t73 187t176 76q114 0 175 -84zM188 135q45 -45 113 -45t113 45q45 46 45 115t-45 114q-45 46 -113 46t-113 -46q-45 -45 -45 -114q0 -68 45 -115z" />
    <glyph glyph-name="aring" unicode="&#xe5;" 
d="M308 543q-52 0 -85.5 32t-33.5 80t34 80.5t85 32.5q53 0 86.5 -32t33.5 -81t-33.5 -80.5t-86.5 -31.5zM308 697q-20 0 -31.5 -11.5t-11.5 -30.5q0 -18 11.5 -29.5t31.5 -11.5q21 0 32.5 11.5t11.5 29.5q0 19 -11.5 30.5t-32.5 11.5zM459 429v71h108v-500h-108v72
q-61 -85 -175 -85q-103 0 -176 76t-73 187t73 187t176 76q114 0 175 -84zM188 135q45 -45 113 -45t113 45q45 46 45 115t-45 114q-45 46 -113 46t-113 -46q-45 -45 -45 -114q0 -68 45 -115z" />
    <glyph glyph-name="ae" unicode="&#xe6;" horiz-adv-x="1006" 
d="M970 204h-397q12 -56 54 -87t103 -31q87 0 131 62l89 -52q-73 -109 -206 -109q-119 0 -182 87v-74h-103v72q-61 -85 -175 -85q-103 0 -176 76t-73 187t73 187t176 76q114 0 175 -84v71h103v-74q63 87 176 87q110 0 173 -76q63 -75 63 -188q0 -20 -4 -45zM572 293h293
q-9 59 -47.5 90.5t-93.5 31.5q-61 0 -101 -32.5t-51 -89.5zM188 135q45 -45 113 -45t113 45q45 46 45 115t-45 114q-45 46 -113 46t-113 -46q-45 -45 -45 -114q0 -68 45 -115z" />
    <glyph glyph-name="ccedilla" unicode="&#xe7;" horiz-adv-x="542" 
d="M431 170l93 -53q-26 -50 -73.5 -83t-105.5 -43v-37q35 -6 56.5 -27t21.5 -52q0 -105 -215 -91v79q121 -10 121 25q0 27 -73 30v72q-98 15 -159 87q-62 74 -62 173q0 112 75 187q76 76 189 76q73 0 133 -35t90 -94l-93 -54q-17 36 -51.5 56.5t-79.5 20.5q-66 0 -111 -45
q-44 -46 -44 -112t44 -112q45 -45 111 -45q44 0 79.5 20.5t53.5 56.5z" />
    <glyph glyph-name="egrave" unicode="&#xe8;" horiz-adv-x="582" 
d="M288 703l80 -135h-104l-106 135h130zM546 204h-398q12 -56 54.5 -87t105.5 -31q85 0 129 62l89 -52q-73 -109 -219 -109q-121 0 -197 74q-75 75 -75 189q0 111 74 187q73 76 190 76q109 0 180 -77t71 -187q0 -20 -4 -45zM147 292h294q-11 59 -49.5 91t-93.5 32
q-60 0 -100 -33t-51 -90z" />
    <glyph glyph-name="eacute" unicode="&#xe9;" horiz-adv-x="582" 
d="M303 703h130l-106 -135h-104zM546 204h-398q12 -56 54.5 -87t105.5 -31q85 0 129 62l89 -52q-73 -109 -219 -109q-121 0 -197 74q-75 75 -75 189q0 111 74 187q73 76 190 76q109 0 180 -77t71 -187q0 -20 -4 -45zM147 292h294q-11 59 -49.5 91t-93.5 32q-60 0 -100 -33
t-51 -90z" />
    <glyph glyph-name="ecircumflex" unicode="&#xea;" horiz-adv-x="582" 
d="M343 563l-52 74l-53 -74h-110l106 140h113l106 -140h-110zM546 204h-398q12 -56 54.5 -87t105.5 -31q85 0 129 62l89 -52q-73 -109 -219 -109q-121 0 -197 74q-75 75 -75 189q0 111 74 187q73 76 190 76q109 0 180 -77t71 -187q0 -20 -4 -45zM147 292h294
q-11 59 -49.5 91t-93.5 32q-60 0 -100 -33t-51 -90z" />
    <glyph glyph-name="edieresis" unicode="&#xeb;" horiz-adv-x="582" 
d="M240 578q-17 -17 -42 -17t-43 17q-17 18 -17 43t17 42q18 18 43 18t42 -18q18 -17 18 -42t-18 -43zM430 578q-17 -17 -42 -17t-43 17q-17 18 -17 43t17 42q18 18 43 18t42 -18q18 -17 18 -42t-18 -43zM546 204h-398q12 -56 54.5 -87t105.5 -31q85 0 129 62l89 -52
q-73 -109 -219 -109q-121 0 -197 74q-75 75 -75 189q0 111 74 187q73 76 190 76q109 0 180 -77t71 -187q0 -20 -4 -45zM147 292h294q-11 59 -49.5 91t-93.5 32q-60 0 -100 -33t-51 -90z" />
    <glyph glyph-name="igrave" unicode="&#xec;" horiz-adv-x="233" 
d="M167 560h-104l-66 140h125zM171 0v500h-108v-500h108z" />
    <glyph glyph-name="iacute" unicode="&#xed;" horiz-adv-x="233" 
d="M64 560l45 140h125l-66 -140h-104zM63 0h108v500h-108v-500z" />
    <glyph glyph-name="icircumflex" unicode="&#xee;" horiz-adv-x="233" 
d="M154 560l-37 62l-38 -62h-110l91 140h113l91 -140h-110zM171 0h-108v500h108v-500z" />
    <glyph glyph-name="idieresis" unicode="&#xef;" horiz-adv-x="233" 
d="M79 577q-17 -17 -42 -17t-43 17q-18 18 -18 43t18 42q18 18 43 18t42 -18q18 -17 18 -42t-18 -43zM239 577q-17 -17 -42 -17t-43 17q-17 18 -17 43t17 42q18 18 43 18t42 -18q18 -17 18 -42t-18 -43zM171 0h-108v500h108v-500z" />
    <glyph glyph-name="eth" unicode="&#xf0;" horiz-adv-x="576" 
d="M328 594l167 -224q46 -61 46 -140q0 -108 -74 -176q-73 -66 -179 -66t-179 66q-74 68 -74 176q0 107 80 175q80 67 188 50h1l-66 91l-123 -65v80l80 43l-70 96h124l36 -49l117 62v-80zM433 230q0 50 -24 81l-1 1q-40 54 -119 54q-64 0 -105 -37t-41 -99q0 -63 41 -101.5
t104 -38.5t104 38.5t41 101.5z" />
    <glyph glyph-name="ntilde" unicode="&#xf1;" horiz-adv-x="571" 
d="M288 595q-33 27 -48 22.5t-15 -45.5h-89q0 70 26 105.5t63.5 32.5t79.5 -28q32 -27 47 -22.5t15 45.5h89q0 -42 -9.5 -72.5t-26 -45.5t-38 -19t-45.5 3t-49 24zM326 513q87 0 139.5 -55.5t52.5 -150.5v-307h-108v296q0 56 -30 86t-82 30q-59 0 -93 -36.5t-34 -107.5v-268
h-108v500h108v-64q50 77 155 77z" />
    <glyph glyph-name="ograve" unicode="&#xf2;" horiz-adv-x="598" 
d="M374 570h-104l-106 135h130zM299 -13q111 0 187 76q77 77 77 187t-77 187q-76 76 -187 76t-187 -76q-77 -77 -77 -187t77 -187q76 -76 187 -76zM188 137q-45 45 -45 113t45 113t111 45t111 -45t45 -113t-45 -113t-111 -45t-111 45z" />
    <glyph glyph-name="oacute" unicode="&#xf3;" horiz-adv-x="598" 
d="M229 570l80 135h130l-106 -135h-104zM299 -13q111 0 187 76q77 77 77 187t-77 187q-76 76 -187 76t-187 -76q-77 -77 -77 -187t77 -187q76 -76 187 -76zM188 137q-45 45 -45 113t45 113t111 45t111 -45t45 -113t-45 -113t-111 -45t-111 45z" />
    <glyph glyph-name="ocircumflex" unicode="&#xf4;" horiz-adv-x="598" 
d="M349 565l-52 74l-53 -74h-110l106 140h113l106 -140h-110zM299 513q111 0 187 -76q77 -77 77 -187t-77 -187q-76 -76 -187 -76t-187 76q-77 77 -77 187t77 187q76 76 187 76zM188 137q45 -45 111 -45t111 45t45 113t-45 113t-111 45t-111 -45t-45 -113t45 -113z" />
    <glyph glyph-name="otilde" unicode="&#xf5;" horiz-adv-x="598" 
d="M228 572h-89q0 70 26 105.5t63.5 32.5t79.5 -28q32 -27 47 -22.5t15 45.5h89q0 -42 -9.5 -72.5t-26 -45.5t-38 -19t-45.5 3t-49 24q-33 27 -48 22.5t-15 -45.5zM299 -13q-111 0 -187 76q-77 77 -77 187t77 187q76 76 187 76t187 -76q77 -77 77 -187t-77 -187
q-76 -76 -187 -76zM188 137q45 -45 111 -45t111 45t45 113t-45 113t-111 45t-111 -45t-45 -113t45 -113z" />
    <glyph glyph-name="odieresis" unicode="&#xf6;" horiz-adv-x="598" 
d="M246 580q-17 -17 -42 -17t-43 17q-17 18 -17 43t17 42q18 18 43 18t42 -18q18 -17 18 -42t-18 -43zM436 580q-17 -17 -42 -17t-43 17q-17 18 -17 43t17 42q18 18 43 18t42 -18q18 -17 18 -42t-18 -43zM299 -13q-111 0 -187 76q-77 77 -77 187t77 187q76 76 187 76
t187 -76q77 -77 77 -187t-77 -187q-76 -76 -187 -76zM188 137q45 -45 111 -45t111 45t45 113t-45 113t-111 45t-111 -45t-45 -113t45 -113z" />
    <glyph glyph-name="divide" unicode="&#xf7;" horiz-adv-x="570" 
d="M337 490q-21 -20 -52 -20t-52 20q-20 21 -20 52t20 52q21 21 52 21t52 -21t21 -52t-21 -52zM520 299h-470v102h470v-102zM337 106q-21 -20 -52 -20t-52 20q-20 21 -20 52t20 52q21 21 52 21t52 -21t21 -52t-21 -52z" />
    <glyph glyph-name="oslash" unicode="&#xf8;" horiz-adv-x="598" 
d="M534 479l-41 -48q70 -76 70 -181q0 -110 -77 -187q-76 -76 -187 -76q-81 0 -149 45l-34 -40l-51 29l41 48q-71 77 -71 181q0 110 77 187q76 76 187 76q83 0 150 -45l34 40zM143 250q0 -58 33 -100l203 237q-37 21 -80 21q-66 0 -111 -45t-45 -113zM299 92q66 0 111 45
t45 113q0 57 -33 99l-202 -236q34 -21 79 -21z" />
    <glyph glyph-name="ugrave" unicode="&#xf9;" horiz-adv-x="571" 
d="M275 700l80 -135h-104l-106 135h130zM400 232v268h108v-500h-108v64q-50 -77 -155 -77q-87 0 -139.5 55.5t-52.5 150.5v307h108v-296q0 -56 30 -86t82 -30q59 0 93 36.5t34 107.5z" />
    <glyph glyph-name="uacute" unicode="&#xfa;" horiz-adv-x="571" 
d="M290 700h130l-106 -135h-104zM400 232v268h108v-500h-108v64q-50 -77 -155 -77q-87 0 -139.5 55.5t-52.5 150.5v307h108v-296q0 -56 30 -86t82 -30q59 0 93 36.5t34 107.5z" />
    <glyph glyph-name="ucircumflex" unicode="&#xfb;" horiz-adv-x="571" 
d="M330 560l-52 74l-53 -74h-110l106 140h113l106 -140h-110zM400 232v268h108v-500h-108v64q-50 -77 -155 -77q-87 0 -139.5 55.5t-52.5 150.5v307h108v-296q0 -56 30 -86t82 -30q59 0 93 36.5t34 107.5z" />
    <glyph glyph-name="udieresis" unicode="&#xfc;" horiz-adv-x="571" 
d="M227 575q-17 -17 -42 -17t-43 17q-17 18 -17 43t17 42q18 18 43 18t42 -18q18 -17 18 -42t-18 -43zM417 575q-17 -17 -42 -17t-43 17q-17 18 -17 43t17 42q18 18 43 18t42 -18q18 -17 18 -42t-18 -43zM400 232v268h108v-500h-108v64q-50 -77 -155 -77q-87 0 -139.5 55.5
t-52.5 150.5v307h108v-296q0 -56 30 -86t82 -30q59 0 93 36.5t34 107.5z" />
    <glyph glyph-name="yacute" unicode="&#xfd;" horiz-adv-x="520" 
d="M270 700h130l-106 -135h-104zM272 137l128 363h115l-192 -516q-72 -194 -244 -184v101q50 -3 81 21t52 77l5 10l-212 491h118z" />
    <glyph glyph-name="thorn" unicode="&#xfe;" 
d="M346 513q103 0 176 -76t73 -187t-73 -187t-176 -76q-114 0 -175 85v-272h-108v900h108v-271q62 84 175 84zM216 135q45 -45 113 -45t113 45q45 46 45 115t-45 114q-45 46 -113 46t-113 -46q-45 -45 -45 -114q0 -68 45 -115z" />
    <glyph glyph-name="ydieresis" unicode="&#xff;" horiz-adv-x="520" 
d="M207 575q-17 -17 -42 -17t-43 17q-17 18 -17 43t17 42q18 18 43 18t42 -18q18 -17 18 -42t-18 -43zM397 575q-17 -17 -42 -17t-43 17q-17 18 -17 43t17 42q18 18 43 18t42 -18q18 -17 18 -42t-18 -43zM272 137l128 363h115l-192 -516q-72 -194 -244 -184v101q50 -3 81 21
t52 77l5 10l-212 491h118z" />
    <glyph glyph-name="Amacron" unicode="&#x100;" horiz-adv-x="655" 
d="M188 859h280v-89h-280v89zM650 0h-124l-49 141h-298l-49 -141h-125l254 700h138zM328 565l-111 -316h222z" />
    <glyph glyph-name="amacron" unicode="&#x101;" 
d="M168 659h280v-89h-280v89zM459 429v71h108v-500h-108v72q-61 -85 -175 -85q-103 0 -176 76t-73 187t73 187t176 76q114 0 175 -84zM188 135q45 -45 113 -45t113 45q45 46 45 115t-45 114q-45 46 -113 46t-113 -46q-45 -45 -45 -114q0 -68 45 -115z" />
    <glyph glyph-name="Abreve" unicode="&#x102;" horiz-adv-x="655" 
d="M328 752q-75 0 -116.5 36.5t-41.5 103.5h98q0 -59 60 -59q59 0 59 59h98q0 -67 -41.5 -103.5t-115.5 -36.5zM650 0h-124l-49 141h-298l-49 -141h-125l254 700h138zM328 565l-111 -316h222z" />
    <glyph glyph-name="abreve" unicode="&#x103;" 
d="M308 552q-75 0 -116.5 36.5t-41.5 103.5h98q0 -59 60 -59q59 0 59 59h98q0 -67 -41.5 -103.5t-115.5 -36.5zM459 429v71h108v-500h-108v72q-61 -85 -175 -85q-103 0 -176 76t-73 187t73 187t176 76q114 0 175 -84zM188 135q45 -45 113 -45t113 45q45 46 45 115t-45 114
q-45 46 -113 46t-113 -46q-45 -45 -45 -114q0 -68 45 -115z" />
    <glyph glyph-name="Aogonek" unicode="&#x104;" horiz-adv-x="655" 
d="M618 -133q12 -2 32 6v-72q-36 -14 -73 -14q-42 0 -66.5 22t-24.5 61q0 62 68 130h-28l-49 141h-298l-49 -141h-125l254 700h138l253 -700q-60 -60 -60 -105q-1 -28 28 -28zM328 565l-111 -316h222z" />
    <glyph glyph-name="aogonek" unicode="&#x105;" 
d="M567 500v-500q-60 -60 -60 -105q-1 -28 28 -28q12 -2 32 6v-72q-36 -14 -73 -14q-42 0 -66.5 22t-24.5 61q0 59 64 130h-8v72q-61 -85 -175 -85q-103 0 -176 76t-73 187t73 187t176 76q114 0 175 -84v71h108zM188 135q45 -45 113 -45t113 45q45 46 45 115t-45 114
q-45 46 -113 46t-113 -46q-45 -45 -45 -114q0 -68 45 -115z" />
    <glyph glyph-name="Cacute" unicode="&#x106;" horiz-adv-x="732" 
d="M331 770l80 135h130l-106 -135h-104zM401 -13q97 0 176 45q82 47 125 123l-100 57q-27 -52 -81 -82.5t-120 -30.5q-111 0 -182 71q-69 70 -69 180t69 180q71 71 182 71q66 0 119.5 -30.5t81.5 -82.5l100 58q-45 77 -125.5 122t-175.5 45q-159 0 -262 -105
q-104 -104 -104 -258q0 -153 104 -259q104 -104 262 -104z" />
    <glyph glyph-name="cacute" unicode="&#x107;" horiz-adv-x="542" 
d="M225 565l80 135h130l-106 -135h-104zM299 -13q72 0 132.5 35t92.5 95l-93 53q-18 -36 -53.5 -56.5t-79.5 -20.5q-66 0 -111 45q-44 46 -44 112t44 112q45 45 111 45q45 0 79.5 -20.5t51.5 -56.5l93 54q-30 59 -90 94t-133 35q-113 0 -189 -76q-75 -75 -75 -187
q0 -110 75 -187q76 -76 189 -76z" />
    <glyph glyph-name="Cdotaccent" unicode="&#x10a;" horiz-adv-x="732" 
d="M450 783q-20 -20 -49 -20t-50 20q-20 21 -20 50t20 49q21 21 50 21t49 -21q21 -20 21 -49t-21 -50zM401 -13q-158 0 -262 104q-104 106 -104 259q0 154 104 258q103 105 262 105q95 0 175.5 -45t125.5 -122l-100 -58q-28 52 -81.5 82.5t-119.5 30.5q-111 0 -182 -71
q-69 -70 -69 -180t69 -180q71 -71 182 -71q66 0 120 30.5t81 82.5l100 -57q-43 -76 -125 -123q-79 -45 -176 -45z" />
    <glyph glyph-name="cdotaccent" unicode="&#x10b;" horiz-adv-x="542" 
d="M225 628q0 28 20.5 49t49.5 21t49.5 -20.5t20.5 -49.5t-20.5 -49.5t-49.5 -20.5t-49.5 20.5t-20.5 49.5zM299 -13q-113 0 -189 76q-75 77 -75 187q0 112 75 187q76 76 189 76q73 0 133 -35t90 -94l-93 -54q-17 36 -51.5 56.5t-79.5 20.5q-66 0 -111 -45q-44 -46 -44 -112
t44 -112q45 -45 111 -45q44 0 79.5 20.5t53.5 56.5l93 -53q-32 -60 -92.5 -95t-132.5 -35z" />
    <glyph glyph-name="Ccaron" unicode="&#x10c;" horiz-adv-x="732" 
d="M455 765h-113l-106 140h110l53 -73l52 73h110zM401 99q66 0 120 30.5t81 82.5l100 -57q-43 -76 -125 -123q-79 -45 -176 -45q-158 0 -262 104q-104 106 -104 259q0 154 104 258q103 105 262 105q95 0 175.5 -45t125.5 -122l-100 -58q-28 52 -81.5 82.5t-119.5 30.5
q-111 0 -182 -71q-69 -70 -69 -180t69 -180q71 -71 182 -71z" />
    <glyph glyph-name="ccaron" unicode="&#x10d;" horiz-adv-x="542" 
d="M349 560h-113l-106 140h110l53 -73l52 73h110zM431 170l93 -53q-32 -60 -92.5 -95t-132.5 -35q-113 0 -189 76q-75 77 -75 187q0 112 75 187q76 76 189 76q73 0 133 -35t90 -94l-93 -54q-17 36 -51.5 56.5t-79.5 20.5q-66 0 -111 -45q-44 -46 -44 -112t44 -112
q45 -45 111 -45q44 0 79.5 20.5t53.5 56.5z" />
    <glyph glyph-name="Dcaron" unicode="&#x10e;" horiz-adv-x="715" 
d="M394 760h-113l-106 140h110l53 -73l52 73h110zM70 700h275q144 0 239 -101q96 -101 96 -249q0 -147 -96 -249q-95 -101 -239 -101h-275v700zM185 110h160q99 0 161 68q63 68 63 172t-63 172q-62 68 -161 68h-160v-480z" />
    <glyph glyph-name="dcaron" unicode="&#x10f;" horiz-adv-x="724" 
d="M459 429v271h108v-700h-108v72q-61 -85 -175 -85q-103 0 -176 76t-73 187t73 187t176 76q114 0 175 -84zM621 510l10 190h103l-30 -190h-83zM188 135q45 -45 113 -45t113 45q45 46 45 115t-45 114q-45 46 -113 46t-113 -46q-45 -45 -45 -114q0 -68 45 -115z" />
    <glyph glyph-name="Dcroat" unicode="&#x110;" horiz-adv-x="745" 
d="M100 700h275q144 0 239 -101q96 -101 96 -249q0 -147 -96 -249q-95 -101 -239 -101h-275v293h-75v104h75v303zM215 110h160q99 0 161 68q63 68 63 172t-63 172q-62 68 -161 68h-160v-193h180v-104h-180v-183z" />
    <glyph glyph-name="dslash" unicode="&#x111;" horiz-adv-x="637" 
d="M567 635h65v-74h-65v-561h-108v72q-61 -85 -175 -85q-103 0 -176 76t-73 187t73 187t176 76q114 0 175 -84v132h-162v74h162v65h108v-65zM188 135q45 -45 113 -45t113 45q45 46 45 115t-45 114q-45 46 -113 46t-113 -46q-45 -45 -45 -114q0 -68 45 -115z" />
    <glyph glyph-name="Emacron" unicode="&#x112;" horiz-adv-x="530" 
d="M141 859h280v-89h-280v89zM185 299v-189h310v-110h-425v700h420v-110h-305v-182h280v-109h-280z" />
    <glyph glyph-name="emacron" unicode="&#x113;" horiz-adv-x="582" 
d="M153 662h280v-89h-280v89zM546 204h-398q12 -56 54.5 -87t105.5 -31q85 0 129 62l89 -52q-73 -109 -219 -109q-121 0 -197 74q-75 75 -75 189q0 111 74 187q73 76 190 76q109 0 180 -77t71 -187q0 -20 -4 -45zM147 292h294q-11 59 -49.5 91t-93.5 32q-60 0 -100 -33
t-51 -90z" />
    <glyph glyph-name="Edotaccent" unicode="&#x116;" horiz-adv-x="530" 
d="M211 828q0 28 20.5 49t49.5 21t49.5 -20.5t20.5 -49.5t-20.5 -49.5t-49.5 -20.5t-49.5 20.5t-20.5 49.5zM185 299v-189h310v-110h-425v700h420v-110h-305v-182h280v-109h-280z" />
    <glyph glyph-name="edotaccent" unicode="&#x117;" horiz-adv-x="582" 
d="M342 581q-20 -20 -49 -20t-50 20q-20 21 -20 50t20 49q21 21 50 21t49 -21q21 -20 21 -49t-21 -50zM546 204h-398q12 -56 54.5 -87t105.5 -31q85 0 129 62l89 -52q-73 -109 -219 -109q-121 0 -197 74q-75 75 -75 189q0 111 74 187q73 76 190 76q109 0 180 -77t71 -187
q0 -20 -4 -45zM147 292h294q-11 59 -49.5 91t-93.5 32q-60 0 -100 -33t-51 -90z" />
    <glyph glyph-name="Eogonek" unicode="&#x118;" horiz-adv-x="530" 
d="M495 110v-110q-61 -58 -61 -105q0 -28 28 -28q12 -1 33 6v-72q-36 -14 -74 -14q-42 0 -66.5 22t-24.5 61q0 59 68 130h-328v700h420v-110h-305v-182h280v-109h-280v-189h310z" />
    <glyph glyph-name="eogonek" unicode="&#x119;" horiz-adv-x="582" 
d="M546 204h-398q12 -56 54.5 -87t105.5 -31q85 0 129 62l89 -52q-16 -26 -36 -42q-97 -106 -97 -159q0 -28 28 -28q12 -1 33 6v-72q-36 -14 -74 -14q-42 0 -66.5 22t-24.5 61q0 61 65 120q-22 -3 -47 -3q-121 0 -197 74q-75 75 -75 189q0 111 74 187q73 76 190 76
q109 0 180 -77t71 -187q0 -20 -4 -45zM147 292h294q-11 59 -49.5 91t-93.5 32q-60 0 -100 -33t-51 -90z" />
    <glyph glyph-name="Ecaron" unicode="&#x11a;" horiz-adv-x="530" 
d="M335 760h-113l-106 140h110l53 -73l52 73h110zM185 299v-189h310v-110h-425v700h420v-110h-305v-182h280v-109h-280z" />
    <glyph glyph-name="ecaron" unicode="&#x11b;" horiz-adv-x="582" 
d="M347 563h-113l-106 140h110l53 -73l52 73h110zM546 204h-398q12 -56 54.5 -87t105.5 -31q85 0 129 62l89 -52q-73 -109 -219 -109q-121 0 -197 74q-75 75 -75 189q0 111 74 187q73 76 190 76q109 0 180 -77t71 -187q0 -20 -4 -45zM147 292h294q-11 59 -49.5 91t-93.5 32
q-60 0 -100 -33t-51 -90z" />
    <glyph glyph-name="Gbreve" unicode="&#x11e;" horiz-adv-x="786" 
d="M396 757q-75 0 -116.5 36.5t-41.5 103.5h98q0 -59 60 -59q59 0 59 59h98q0 -67 -41.5 -103.5t-115.5 -36.5zM401 362h350v-48q0 -144 -95 -236q-94 -91 -248 -91q-162 0 -268 105q-105 105 -105 258q0 152 105 257q106 106 262 106q97 0 178.5 -44.5t126.5 -121.5
l-99 -57q-28 51 -83 81t-123 30q-110 0 -181 -72q-71 -73 -71 -180q0 -108 71 -179q73 -71 188 -71q92 0 151 43t75 117h-234v103z" />
    <glyph glyph-name="gbreve" unicode="&#x11f;" 
d="M301 557q-75 0 -116.5 36.5t-41.5 103.5h98q0 -59 60 -59q59 0 59 59h98q0 -67 -41.5 -103.5t-115.5 -36.5zM461 426v74h106v-477q0 -114 -75 -175q-74 -61 -182 -61q-173 0 -237 121l93 54q39 -77 146 -77q70 0 109.5 36.5t39.5 101.5v61q-61 -87 -174 -87
q-105 0 -179 75q-73 76 -73 183q0 108 73 182q73 76 179 76q113 0 174 -87zM188 143q46 -45 114 -45t113 45q46 45 46 112t-46 112q-45 45 -113 45t-114 -45q-45 -45 -45 -112t45 -112z" />
    <glyph glyph-name="Gdotaccent" unicode="&#x120;" horiz-adv-x="786" 
d="M396 903q29 0 49.5 -20.5t20.5 -49.5t-20.5 -49.5t-49.5 -20.5t-49.5 20.5t-20.5 49.5t21 49.5t49 20.5zM401 362h350v-48q0 -144 -95 -236q-94 -91 -248 -91q-162 0 -268 105q-105 105 -105 258q0 152 105 257q106 106 262 106q97 0 178.5 -44.5t126.5 -121.5l-99 -57
q-28 51 -83 81t-123 30q-110 0 -181 -72q-71 -73 -71 -180q0 -108 71 -179q73 -71 188 -71q92 0 151 43t75 117h-234v103z" />
    <glyph glyph-name="gdotaccent" unicode="&#x121;" 
d="M350 583q-20 -20 -49 -20t-50 20q-20 21 -20 50t20 49q21 21 50 21t49 -21q21 -20 21 -49t-21 -50zM461 426v74h106v-477q0 -114 -75 -175q-74 -61 -182 -61q-173 0 -237 121l93 54q39 -77 146 -77q70 0 109.5 36.5t39.5 101.5v61q-61 -87 -174 -87q-105 0 -179 75
q-73 76 -73 183q0 108 73 182q73 76 179 76q113 0 174 -87zM188 143q46 -45 114 -45t113 45q46 45 46 112t-46 112q-45 45 -113 45t-114 -45q-45 -45 -45 -112t45 -112z" />
    <glyph glyph-name="Gcommaaccent" unicode="&#x122;" horiz-adv-x="786" 
d="M401 362h350v-48q0 -144 -95 -236q-94 -91 -248 -91q-162 0 -268 105q-105 105 -105 258q0 152 105 257q106 106 262 106q97 0 178.5 -44.5t126.5 -121.5l-99 -57q-28 51 -83 81t-123 30q-110 0 -181 -72q-71 -73 -71 -180q0 -108 71 -179q73 -71 188 -71q92 0 151 43
t75 117h-234v103zM439 -255h-83l10 190h103z" />
    <glyph glyph-name="gcommaaccent" unicode="&#x123;" 
d="M273 775h83l-10 -190h-103zM461 426v74h106v-477q0 -114 -75 -175q-74 -61 -182 -61q-173 0 -237 121l93 54q39 -77 146 -77q70 0 109.5 36.5t39.5 101.5v61q-61 -87 -174 -87q-105 0 -179 75q-73 76 -73 183q0 108 73 182q73 76 179 76q113 0 174 -87zM188 143
q46 -45 114 -45t113 45q46 45 46 112t-46 112q-45 45 -113 45t-114 -45q-45 -45 -45 -112t45 -112z" />
    <glyph glyph-name="Hbar" unicode="&#x126;" horiz-adv-x="715" 
d="M623 591h62v-86h-62v-505h-115v290h-300v-290h-115v505h-63v86h63v109h115v-109h300v109h115v-109zM208 400h300v105h-300v-105z" />
    <glyph glyph-name="hbar" unicode="&#x127;" horiz-adv-x="578" 
d="M334 513q86 0 138.5 -55.5t52.5 -150.5v-307h-108v296q0 56 -29.5 86t-81.5 30q-59 0 -93.5 -36.5t-34.5 -107.5v-268h-108v561h-65v74h65v65h108v-65h142v-74h-142v-125q50 77 156 77z" />
    <glyph glyph-name="Imacron" unicode="&#x12a;" horiz-adv-x="255" 
d="M268 770h-280v89h280v-89zM70 0v700h115v-700h-115z" />
    <glyph glyph-name="imacron" unicode="&#x12b;" horiz-adv-x="233" 
d="M227 570h-220v94h220v-94zM171 0h-108v500h108v-500z" />
    <glyph glyph-name="Iogonek" unicode="&#x12e;" horiz-adv-x="255" 
d="M176 -133q12 -2 32 6v-72q-36 -14 -73 -14q-42 0 -66.5 22t-24.5 61q0 60 43 130h-17v700h115v-700q-37 -62 -37 -105q-1 -28 28 -28z" />
    <glyph glyph-name="iogonek" unicode="&#x12f;" horiz-adv-x="233" 
d="M165 595q-20 -20 -48 -20t-49 20q-20 21 -20 49t20 48q20 21 49 21t49 -21q20 -20 20 -48t-21 -49zM162 -133q12 -1 33 6v-72q-36 -14 -74 -14q-41 0 -66 24t-25 64q0 54 41 125h-8v500h108v-500q-37 -59 -37 -100q0 -33 28 -33z" />
    <glyph glyph-name="Idot" unicode="&#x130;" horiz-adv-x="255" 
d="M58 828q0 28 21 49t49 21q45 2 64 -43.5t-15 -76.5q-22 -20 -49 -20t-49.5 20.5t-20.5 49.5zM70 0v700h115v-700h-115z" />
    <glyph glyph-name="dotlessi" unicode="&#x131;" horiz-adv-x="233" 
d="M171 0h-108v500h108v-500z" />
    <glyph glyph-name="Kcommaaccent" unicode="&#x136;" horiz-adv-x="603" 
d="M588 700l-283 -341l293 -359h-137l-276 333v-333h-115v700h115v-314l266 314h137zM333 -255h-83l10 190h103z" />
    <glyph glyph-name="kcommaaccent" unicode="&#x137;" horiz-adv-x="515" 
d="M497 500l-220 -245l228 -255h-129l-205 231v-231h-108v700h108v-421l194 221h132zM301 -255h-83l10 190h103z" />
    <glyph glyph-name="Lacute" unicode="&#x139;" horiz-adv-x="485" 
d="M152 900h130l-106 -135h-104zM185 700v-590h285v-110h-400v700h115z" />
    <glyph glyph-name="lacute" unicode="&#x13a;" horiz-adv-x="233" 
d="M61 765l80 135h130l-106 -135h-104zM63 0h108v730h-108v-730z" />
    <glyph glyph-name="Lcommaaccent" unicode="&#x13b;" horiz-adv-x="485" 
d="M185 700v-590h285v-110h-400v700h115zM304 -255h-83l10 190h103z" />
    <glyph glyph-name="lcommaaccent" unicode="&#x13c;" horiz-adv-x="233" 
d="M171 0h-108v730h108v-730zM140 -255h-83l10 190h103z" />
    <glyph glyph-name="Lcaron" unicode="&#x13d;" horiz-adv-x="485" 
d="M185 700v-590h285v-110h-400v700h115zM274 700h108l-30 -180h-88z" />
    <glyph glyph-name="lcaron" unicode="&#x13e;" horiz-adv-x="327" 
d="M171 0h-108v730h108v-730zM307 540h-83l10 190h103z" />
    <glyph glyph-name="Lslash" unicode="&#x141;" horiz-adv-x="505" 
d="M205 290v-180h285v-110h-400v222l-60 -36v113l60 36v365h115v-297l145 86v-113z" />
    <glyph glyph-name="lslash" unicode="&#x142;" horiz-adv-x="255" 
d="M182 440l58 40v-103l-58 -40v-337h-108v263l-59 -40v103l59 40v364h108v-290z" />
    <glyph glyph-name="Nacute" unicode="&#x143;" horiz-adv-x="675" 
d="M263 765l80 135h130l-106 -135h-104zM490 700v-475l-330 475h-90v-700h115v475l330 -475h90v700h-115z" />
    <glyph glyph-name="nacute" unicode="&#x144;" horiz-adv-x="571" 
d="M306 705h130l-106 -135h-104zM326 513q87 0 139.5 -55.5t52.5 -150.5v-307h-108v296q0 56 -30 86t-82 30q-59 0 -93 -36.5t-34 -107.5v-268h-108v500h108v-64q50 77 155 77z" />
    <glyph glyph-name="Ncommaaccent" unicode="&#x145;" horiz-adv-x="675" 
d="M490 225v475h115v-700h-90l-330 475v-475h-115v700h90zM364 -255h-83l10 190h103z" />
    <glyph glyph-name="ncommaaccent" unicode="&#x146;" horiz-adv-x="571" 
d="M326 513q87 0 139.5 -55.5t52.5 -150.5v-307h-108v296q0 56 -30 86t-82 30q-59 0 -93 -36.5t-34 -107.5v-268h-108v500h108v-64q50 77 155 77zM319 -255h-83l10 190h103z" />
    <glyph glyph-name="Ncaron" unicode="&#x147;" horiz-adv-x="675" 
d="M387 760h-113l-106 140h110l53 -73l52 73h110zM490 225v475h115v-700h-90l-330 475v-475h-115v700h90z" />
    <glyph glyph-name="ncaron" unicode="&#x148;" horiz-adv-x="571" 
d="M350 565h-113l-106 140h110l53 -73l52 73h110zM326 513q87 0 139.5 -55.5t52.5 -150.5v-307h-108v296q0 56 -30 86t-82 30q-59 0 -93 -36.5t-34 -107.5v-268h-108v500h108v-64q50 77 155 77z" />
    <glyph glyph-name="Eng" unicode="&#x14a;" horiz-adv-x="675" 
d="M490 225v475h115v-700q0 -103 -58.5 -153.5t-166.5 -46.5v106q57 0 83.5 22t26.5 77v31l-305 439v-475h-115v700h90z" />
    <glyph glyph-name="eng" unicode="&#x14b;" horiz-adv-x="571" 
d="M326 513q87 0 139.5 -55.5t52.5 -150.5v-327q0 -100 -51 -150t-149 -43v104q47 -5 69.5 16t22.5 73v316q0 56 -30 86t-82 30q-59 0 -93 -36.5t-34 -107.5v-268h-108v500h108v-64q50 77 155 77z" />
    <glyph glyph-name="Omacron" unicode="&#x14c;" horiz-adv-x="796" 
d="M538 775h-280v89h280v-89zM655 92q-105 -105 -257 -105t-258 105q-105 106 -105 258t105 257q106 106 258 106t257 -106q106 -105 106 -257t-106 -258zM221 170q73 -71 177 -71q105 0 176 71q72 72 72 180t-72 179q-71 72 -176 72t-177 -72q-71 -71 -71 -179
q0 -107 71 -180z" />
    <glyph glyph-name="omacron" unicode="&#x14d;" horiz-adv-x="598" 
d="M439 575h-280v89h280v-89zM299 -13q-111 0 -187 76q-77 77 -77 187t77 187q76 76 187 76t187 -76q77 -77 77 -187t-77 -187q-76 -76 -187 -76zM188 137q45 -45 111 -45t111 45t45 113t-45 113t-111 45t-111 -45t-45 -113t45 -113z" />
    <glyph glyph-name="Ohungarumlaut" unicode="&#x150;" horiz-adv-x="796" 
d="M238 765l75 135h114l-81 -135h-108zM401 765l85 135h114l-91 -135h-108zM655 92q106 106 106 258t-106 257q-105 106 -257 106t-258 -106q-105 -105 -105 -257t105 -258q106 -105 258 -105t257 105zM221 170q-71 73 -71 180q0 108 71 179q72 72 177 72q106 0 176 -72
q72 -71 72 -179t-72 -180q-71 -71 -176 -71q-104 0 -177 71z" />
    <glyph glyph-name="ohungarumlaut" unicode="&#x151;" horiz-adv-x="598" 
d="M139 565l75 135h114l-81 -135h-108zM302 565l85 135h114l-91 -135h-108zM299 -13q111 0 187 76q77 77 77 187t-77 187q-76 76 -187 76t-187 -76q-77 -77 -77 -187t77 -187q76 -76 187 -76zM188 137q-45 45 -45 113t45 113t111 45t111 -45t45 -113t-45 -113t-111 -45
t-111 45z" />
    <glyph glyph-name="OE" unicode="&#x152;" horiz-adv-x="916" 
d="M601 299v-189h280v-110h-395q-43 -13 -98 -13q-152 0 -252 105q-101 106 -101 258t101 258q100 105 252 105q55 0 98 -13h390v-110h-275v-182h255v-109h-255zM486 114v472q-40 15 -98 15q-103 0 -171 -71q-67 -70 -67 -180t67 -180q68 -71 171 -71q53 0 98 15z" />
    <glyph glyph-name="oe" unicode="&#x153;" horiz-adv-x="1002" 
d="M966 204h-398q12 -56 55.5 -87t102.5 -31q87 0 131 62l89 -52q-73 -109 -218 -109q-151 0 -220 123q-31 -58 -86.5 -90.5t-124.5 -32.5q-112 0 -187 76q-75 77 -75 187q0 112 75 187q75 76 187 76q69 0 124.5 -32.5t86.5 -89.5q31 58 87 90t128 32q109 0 178 -77
q69 -76 69 -187q0 -20 -4 -45zM567 293h294q-11 58 -50 90t-92 32q-60 0 -100.5 -32.5t-51.5 -89.5zM299 92q66 0 111 45t45 113t-45 113t-111 45q-69 0 -112 -45q-44 -46 -44 -113t44 -113q43 -45 112 -45z" />
    <glyph glyph-name="Racute" unicode="&#x154;" horiz-adv-x="613" 
d="M310 900h130l-106 -135h-104zM595 0h-126l-148 255h-136v-255h-115v700h280q94 0 159 -66q66 -64 66 -159q0 -67 -38.5 -122.5t-100.5 -80.5zM350 592h-165v-234h165q46 0 78 34t32 83t-32 83t-78 34z" />
    <glyph glyph-name="racute" unicode="&#x155;" horiz-adv-x="342" 
d="M200 700h130l-106 -135h-104zM171 500v-84q41 93 154 93v-117q-61 4 -108 -30q-46 -33 -46 -110v-252h-108v500h108z" />
    <glyph glyph-name="Rcommaaccent" unicode="&#x156;" horiz-adv-x="613" 
d="M436 272l159 -272h-126l-148 255h-136v-255h-115v700h280q94 0 159 -66q66 -64 66 -159q0 -67 -38.5 -122.5t-100.5 -80.5zM350 592h-165v-234h165q46 0 78 34t32 83t-32 83t-78 34zM351 -255h-83l10 190h103z" />
    <glyph glyph-name="rcommaaccent" unicode="&#x157;" horiz-adv-x="342" 
d="M171 500v-84q41 93 154 93v-117q-61 4 -108 -30q-46 -33 -46 -110v-252h-108v500h108zM141 -255h-83l10 190h103z" />
    <glyph glyph-name="Rcaron" unicode="&#x158;" horiz-adv-x="613" 
d="M354 760h-113l-106 140h110l53 -73l52 73h110zM595 0h-126l-148 255h-136v-255h-115v700h280q94 0 159 -66q66 -64 66 -159q0 -67 -38.5 -122.5t-100.5 -80.5zM350 592h-165v-234h165q46 0 78 34t32 83t-32 83t-78 34z" />
    <glyph glyph-name="rcaron" unicode="&#x159;" horiz-adv-x="342" 
d="M244 560h-113l-106 140h110l53 -73l52 73h110zM171 500v-84q41 93 154 93v-117q-61 4 -108 -30q-46 -33 -46 -110v-252h-108v500h108z" />
    <glyph glyph-name="Sacute" unicode="&#x15a;" horiz-adv-x="581" 
d="M219 770l80 135h130l-106 -135h-104zM303 -13q112 0 179 55q69 55 69 151q6 83 -72 144q-19 15 -51 28q-39 16 -52 20q-8 3 -58 20q-81 25 -111 47.5t-30 61.5q0 40 30 63.5t80 23.5q103 0 147 -98l97 56q-34 73 -97.5 113.5t-146.5 40.5q-94 0 -159 -55
q-66 -54 -66 -147t68 -141q56 -37 147 -64q89 -27 124 -50t35 -65t-33 -67t-97 -25q-132 0 -174 118l-99 -58q28 -81 98.5 -126.5t171.5 -45.5z" />
    <glyph glyph-name="sacute" unicode="&#x15b;" horiz-adv-x="461" 
d="M241 705h130l-106 -135h-104zM160 362q0 -23 24 -37.5t70 -27.5q35 -8 61 -17t55 -26.5t44.5 -46t14.5 -66.5q0 -72 -56 -113t-139 -41q-74 0 -127 31t-77 86l93 54q25 -72 111 -72q85 0 85 56q0 41 -95 64q-36 9 -60.5 18t-54 26t-45 45t-14.5 65q0 69 52 111
q53 42 131 42q62 0 110.5 -27.5t74.5 -76.5l-91 -51q-25 57 -94 57q-32 0 -52.5 -14t-20.5 -39z" />
    <glyph glyph-name="Scedilla" unicode="&#x15e;" horiz-adv-x="581" 
d="M551 193q0 -85 -55.5 -139t-151.5 -65v-35q35 -6 56.5 -27t21.5 -52q0 -105 -215 -91v79q121 -10 121 25q0 27 -73 30v72q-81 10 -139 54.5t-83 114.5l99 58q42 -118 174 -118q64 0 97 25t33 67t-35 65t-124 50q-91 27 -147 64q-68 48 -68 141t66 147q65 55 159 55
q83 0 146.5 -40.5t97.5 -113.5l-97 -56q-44 98 -147 98q-50 0 -80 -23.5t-30 -63.5q0 -39 30 -61.5t111 -47.5q50 -17 58 -20q13 -4 52 -20q32 -13 51 -28q78 -61 72 -144z" />
    <glyph glyph-name="scedilla" unicode="&#x15f;" horiz-adv-x="461" 
d="M429 141q0 -60 -39.5 -99.5t-106.5 -50.5v-37q35 -6 56.5 -27t21.5 -52q0 -105 -215 -91v79q121 -10 121 25q0 27 -73 30v72q-119 15 -164 114l93 54q25 -72 111 -72q85 0 85 56q0 41 -95 64q-36 9 -60.5 18t-54 26t-45 45t-14.5 65q0 69 52 111q53 42 131 42
q62 0 110.5 -27.5t74.5 -76.5l-91 -51q-25 57 -94 57q-32 0 -52.5 -14t-20.5 -39q0 -23 24 -37.5t70 -27.5q35 -8 61 -17t55 -26.5t44.5 -46t14.5 -66.5z" />
    <glyph glyph-name="Scaron" unicode="&#x160;" horiz-adv-x="581" 
d="M343 765h-113l-106 140h110l53 -73l52 73h110zM318 405q50 -17 58 -20q13 -4 52 -20q32 -13 51 -28q78 -61 72 -144q0 -95 -69 -151q-67 -55 -179 -55q-101 0 -171.5 45.5t-98.5 126.5l99 58q42 -118 174 -118q64 0 97 25t33 67t-35 65t-124 50q-91 27 -147 64
q-68 48 -68 141t66 147q65 55 159 55q83 0 146.5 -40.5t97.5 -113.5l-97 -56q-44 98 -147 98q-50 0 -80 -23.5t-30 -63.5q0 -39 30 -61.5t111 -47.5z" />
    <glyph glyph-name="scaron" unicode="&#x161;" horiz-adv-x="461" 
d="M285 565h-113l-106 140h110l53 -73l52 73h110zM160 362q0 -23 24 -37.5t70 -27.5q35 -8 61 -17t55 -26.5t44.5 -46t14.5 -66.5q0 -72 -56 -113t-139 -41q-74 0 -127 31t-77 86l93 54q25 -72 111 -72q85 0 85 56q0 41 -95 64q-36 9 -60.5 18t-54 26t-45 45t-14.5 65
q0 69 52 111q53 42 131 42q62 0 110.5 -27.5t74.5 -76.5l-91 -51q-25 57 -94 57q-32 0 -52.5 -14t-20.5 -39z" />
    <glyph glyph-name="uni0162" unicode="&#x162;" horiz-adv-x="540" 
d="M15 700h510v-110h-197v-590h-115v590h-198v110zM296 -255h-83l10 190h103z" />
    <glyph glyph-name="uni0163" unicode="&#x163;" horiz-adv-x="382" 
d="M342 500v-104h-124v-240q0 -31 14 -44.5t41.5 -15t68.5 0.5v-97q-124 -15 -178 21.5t-54 134.5v240h-92v104h92v108l108 32v-140h124zM256 -255h-83l10 190h103z" />
    <glyph glyph-name="Tcaron" unicode="&#x164;" horiz-adv-x="540" 
d="M324 760h-113l-106 140h110l53 -73l52 73h110zM15 700h510v-110h-197v-590h-115v590h-198v110z" />
    <glyph glyph-name="tcaron" unicode="&#x165;" horiz-adv-x="396" 
d="M266 548l10 175h103l-30 -175h-83zM110 608l108 32v-140h124v-104h-124v-240q0 -31 14 -44.5t41.5 -15t68.5 0.5v-97q-124 -15 -178 21.5t-54 134.5v240h-92v104h92v108z" />
    <glyph glyph-name="Tbar" unicode="&#x166;" horiz-adv-x="540" 
d="M525 700v-110h-197v-193h127v-104h-127v-293h-115v293h-128v104h128v193h-198v110h510z" />
    <glyph glyph-name="tbar" unicode="&#x167;" horiz-adv-x="382" 
d="M342 500v-104h-124v-98h86v-87h-86v-55q0 -31 14 -44.5t41.5 -15t68.5 0.5v-97q-124 -15 -178 21.5t-54 134.5v55h-61v87h61v98h-92v104h92v108l108 32v-140h124z" />
    <glyph glyph-name="Umacron" unicode="&#x16a;" horiz-adv-x="655" 
d="M468 770h-280v89h280v-89zM63 232v468h115v-461q0 -65 38.5 -102.5t111.5 -37.5t111.5 37.5t38.5 102.5v461h115v-468q0 -111 -74 -179q-73 -66 -191 -66t-191 66q-74 68 -74 179z" />
    <glyph glyph-name="umacron" unicode="&#x16b;" horiz-adv-x="571" 
d="M140 659h280v-89h-280v89zM400 232v268h108v-500h-108v64q-50 -77 -155 -77q-87 0 -139.5 55.5t-52.5 150.5v307h108v-296q0 -56 30 -86t82 -30q59 0 93 36.5t34 107.5z" />
    <glyph glyph-name="Uring" unicode="&#x16e;" horiz-adv-x="655" 
d="M327 713q-52 0 -85.5 32t-33.5 80t34 80.5t85 32.5q53 0 86.5 -32t33.5 -81t-33.5 -80.5t-86.5 -31.5zM327 784q21 0 32.5 11.5t11.5 29.5q0 19 -11.5 30.5t-32.5 11.5q-20 0 -31.5 -11.5t-11.5 -30.5q0 -18 11.5 -29.5t31.5 -11.5zM63 232v468h115v-461
q0 -65 38.5 -102.5t111.5 -37.5t111.5 37.5t38.5 102.5v461h115v-468q0 -111 -74 -179q-73 -66 -191 -66t-191 66q-74 68 -74 179z" />
    <glyph glyph-name="uring" unicode="&#x16f;" horiz-adv-x="571" 
d="M280 543q-52 0 -85.5 32t-33.5 80t34 80.5t85 32.5q53 0 86.5 -32t33.5 -81t-33.5 -80.5t-86.5 -31.5zM280 697q-20 0 -31.5 -11.5t-11.5 -30.5q0 -18 11.5 -29.5t31.5 -11.5q21 0 32.5 11.5t11.5 29.5q0 19 -11.5 30.5t-32.5 11.5zM400 232v268h108v-500h-108v64
q-50 -77 -155 -77q-87 0 -139.5 55.5t-52.5 150.5v307h108v-296q0 -56 30 -86t82 -30q59 0 93 36.5t34 107.5z" />
    <glyph glyph-name="Uhungarumlaut" unicode="&#x170;" horiz-adv-x="655" 
d="M168 760l75 135h114l-81 -135h-108zM331 760l85 135h114l-91 -135h-108zM63 232q0 -111 74 -179q73 -66 191 -66t191 66q74 68 74 179v468h-115v-461q0 -65 -38.5 -102.5t-111.5 -37.5t-111.5 37.5t-38.5 102.5v461h-115v-468z" />
    <glyph glyph-name="uhungarumlaut" unicode="&#x171;" horiz-adv-x="571" 
d="M195 695h114l-81 -135h-108zM482 695l-91 -135h-108l85 135h114zM400 232v268h108v-500h-108v64q-50 -77 -155 -77q-87 0 -139.5 55.5t-52.5 150.5v307h108v-296q0 -56 30 -86t82 -30q59 0 93 36.5t34 107.5z" />
    <glyph glyph-name="Uogonek" unicode="&#x172;" horiz-adv-x="655" 
d="M478 239v461h115v-468q0 -120 -89 -191q-58 -54 -80 -85t-23 -61q0 -27 28 -28q12 -1 33 6v-72q-36 -14 -74 -14q-42 0 -66.5 22t-24.5 61q0 55 57 118q-6 -1 -26 -1q-118 0 -191 66q-74 68 -74 179v468h115v-461q0 -65 38.5 -102.5t111.5 -37.5t111.5 37.5t38.5 102.5z
" />
    <glyph glyph-name="uogonek" unicode="&#x173;" horiz-adv-x="571" 
d="M508 500v-500q-60 -60 -60 -105q-1 -28 28 -28q12 -2 32 6v-72q-36 -14 -73 -14q-42 0 -66.5 22t-24.5 61q0 56 64 130h-8v64q-50 -77 -155 -77q-87 0 -139.5 55.5t-52.5 150.5v307h108v-296q0 -56 30 -86t82 -30q59 0 93 36.5t34 107.5v268h108z" />
    <glyph glyph-name="Wcircumflex" unicode="&#x174;" horiz-adv-x="999" 
d="M569 760l-52 74l-53 -74h-110l106 140h113l106 -140h-110zM711 153l147 547h121l-198 -700h-133l-148 511l-149 -511h-133l-198 700h121l147 -547l159 547h106z" />
    <glyph glyph-name="wcircumflex" unicode="&#x175;" horiz-adv-x="770" 
d="M435 560l-52 74l-53 -74h-110l106 140h113l106 -140h-110zM541 155l98 345h114l-157 -500h-106l-104 337l-105 -337h-106l-157 500h114l97 -345l105 345h103z" />
    <glyph glyph-name="Ycircumflex" unicode="&#x176;" horiz-adv-x="613" 
d="M355 760l-52 74l-53 -74h-110l106 140h113l106 -140h-110zM477 700h131l-244 -422v-278h-115v278l-244 422h131l171 -310z" />
    <glyph glyph-name="ycircumflex" unicode="&#x177;" horiz-adv-x="520" 
d="M310 560l-52 74l-53 -74h-110l106 140h113l106 -140h-110zM272 137l128 363h115l-192 -516q-72 -194 -244 -184v101q50 -3 81 21t52 77l5 10l-212 491h118z" />
    <glyph glyph-name="Ydieresis" unicode="&#x178;" horiz-adv-x="613" 
d="M252 775q-17 -17 -42 -17t-43 17q-17 18 -17 43t17 42q18 18 43 18t42 -18q18 -17 18 -42t-18 -43zM442 775q-17 -17 -42 -17t-43 17q-17 18 -17 43t17 42q18 18 43 18t42 -18q18 -17 18 -42t-18 -43zM477 700h131l-244 -422v-278h-115v278l-244 422h131l171 -310z" />
    <glyph glyph-name="Zacute" unicode="&#x179;" horiz-adv-x="530" 
d="M280 900h130l-106 -135h-104zM495 605l-314 -495h322v-110h-465v95l314 495h-307v110h450v-95z" />
    <glyph glyph-name="zacute" unicode="&#x17a;" horiz-adv-x="473" 
d="M251 700h130l-106 -135h-104zM425 428l-233 -326h243v-102h-390v72l234 326h-224v102h370v-72z" />
    <glyph glyph-name="Zdotaccent" unicode="&#x17b;" horiz-adv-x="530" 
d="M200 828q0 28 21 49t49 21q45 2 64 -43.5t-15 -76.5q-22 -20 -49 -20t-49.5 20.5t-20.5 49.5zM495 605l-314 -495h322v-110h-465v95l314 495h-307v110h450v-95z" />
    <glyph glyph-name="zdotaccent" unicode="&#x17c;" horiz-adv-x="473" 
d="M171 628q0 28 20.5 49t49.5 21t49.5 -20.5t20.5 -49.5t-20.5 -49.5t-49.5 -20.5t-49.5 20.5t-20.5 49.5zM425 428l-233 -326h243v-102h-390v72l234 326h-224v102h370v-72z" />
    <glyph glyph-name="Zcaron" unicode="&#x17d;" horiz-adv-x="530" 
d="M324 760h-113l-106 140h110l53 -73l52 73h110zM495 605l-314 -495h322v-110h-465v95l314 495h-307v110h450v-95z" />
    <glyph glyph-name="zcaron" unicode="&#x17e;" horiz-adv-x="473" 
d="M295 560h-113l-106 140h110l53 -73l52 73h110zM425 428l-233 -326h243v-102h-390v72l234 326h-224v102h370v-72z" />
    <glyph glyph-name="florin" unicode="&#x192;" horiz-adv-x="441" 
d="M441 704v-107q-40 19 -74.5 2t-41.5 -62l-23 -133h99v-104h-116l-60 -351q-17 -98 -77 -136t-148 -14v107q40 -19 74.5 -2t41.5 62l57 334h-93v104h110l26 150q17 98 77 136t148 14z" />
    <glyph glyph-name="Scommaaccent" unicode="&#x218;" horiz-adv-x="581" 
d="M303 -13q-101 0 -171.5 45.5t-98.5 126.5l99 58q42 -118 174 -118q64 0 97 25t33 67t-35 65t-124 50q-91 27 -147 64q-68 48 -68 141t66 147q65 55 159 55q83 0 146.5 -40.5t97.5 -113.5l-97 -56q-44 98 -147 98q-50 0 -80 -23.5t-30 -63.5q0 -39 30 -61.5t111 -47.5
q50 -17 58 -20q13 -4 52 -20q32 -13 51 -28q78 -61 72 -144q0 -95 -69 -151q-67 -55 -179 -55zM331 -255h-83l10 190h103z" />
    <glyph glyph-name="scommaaccent" unicode="&#x219;" horiz-adv-x="461" 
d="M160 362q0 -23 24 -37.5t70 -27.5q35 -8 61 -17t55 -26.5t44.5 -46t14.5 -66.5q0 -72 -56 -113t-139 -41q-74 0 -127 31t-77 86l93 54q25 -72 111 -72q85 0 85 56q0 41 -95 64q-36 9 -60.5 18t-54 26t-45 45t-14.5 65q0 69 52 111q53 42 131 42q62 0 110.5 -27.5
t74.5 -76.5l-91 -51q-25 57 -94 57q-32 0 -52.5 -14t-20.5 -39zM270 -255h-83l10 190h103z" />
    <glyph glyph-name="uni021A" unicode="&#x21a;" horiz-adv-x="540" 
d="M15 700h510v-110h-197v-590h-115v590h-198v110zM296 -255h-83l10 190h103z" />
    <glyph glyph-name="uni021B" unicode="&#x21b;" horiz-adv-x="382" 
d="M342 500v-104h-124v-240q0 -31 14 -44.5t41.5 -15t68.5 0.5v-97q-124 -15 -178 21.5t-54 134.5v240h-92v104h92v108l108 32v-140h124zM256 -255h-83l10 190h103z" />
    <glyph glyph-name="circumflex" unicode="&#x2c6;" horiz-adv-x="365" 
d="M239 700l106 -140h-110l-52 74l-53 -74h-110l106 140h113z" />
    <glyph glyph-name="caron" unicode="&#x2c7;" horiz-adv-x="365" 
d="M183 627l52 73h110l-106 -140h-113l-106 140h110z" />
    <glyph glyph-name="breve" unicode="&#x2d8;" horiz-adv-x="355" 
d="M178 552q-75 0 -116.5 36.5t-41.5 103.5h98q0 -59 60 -59q59 0 59 59h98q0 -67 -41.5 -103.5t-115.5 -36.5z" />
    <glyph glyph-name="dotaccent" unicode="&#x2d9;" horiz-adv-x="185" 
d="M20 628q0 28 21 49t49 21q45 2 64 -43.5t-15 -76.5q-22 -20 -49 -20t-49.5 20.5t-20.5 49.5z" />
    <glyph glyph-name="ring" unicode="&#x2da;" horiz-adv-x="279" 
d="M139 543q-52 0 -85.5 32t-33.5 80t34 80.5t85 32.5q53 0 86.5 -32t33.5 -81t-33.5 -80.5t-86.5 -31.5zM139 614q21 0 32.5 11.5t11.5 29.5q0 19 -11.5 30.5t-32.5 11.5q-20 0 -31.5 -11.5t-11.5 -30.5q0 -18 11.5 -29.5t31.5 -11.5z" />
    <glyph glyph-name="ogonek" unicode="&#x2db;" horiz-adv-x="205" 
d="M111 -213q-42 0 -66.5 22t-24.5 61q0 59 68 130h97q-61 -58 -61 -105q0 -28 28 -28q12 -1 33 6v-72q-36 -14 -74 -14z" />
    <glyph glyph-name="tilde" unicode="&#x2dc;" horiz-adv-x="360" 
d="M109 567h-89q0 70 26 105.5t63.5 32.5t79.5 -28q32 -27 47 -22.5t15 45.5h89q0 -42 -9.5 -72.5t-26 -45.5t-38 -19t-45.5 3t-49 24q-33 27 -48 22.5t-15 -45.5z" />
    <glyph glyph-name="hungarumlaut" unicode="&#x2dd;" horiz-adv-x="402" 
d="M20 560l75 135h114l-81 -135h-108zM183 560l85 135h114l-91 -135h-108z" />
    <glyph glyph-name="gravecomb" unicode="&#x300;" horiz-adv-x="0" 
d="M-20 565h-104l-106 135h130z" />
    <glyph glyph-name="acutecomb" unicode="&#x301;" horiz-adv-x="0" 
d="M-230 565l80 135h130l-106 -135h-104z" />
    <glyph glyph-name="uni0302" unicode="&#x302;" horiz-adv-x="0" 
d="M-126 700l106 -140h-110l-52 74l-53 -74h-110l106 140h113z" />
    <glyph glyph-name="tildecomb" unicode="&#x303;" horiz-adv-x="0" 
d="M-246 567h-89q0 70 26 105.5t63.5 32.5t79.5 -28q32 -27 47 -22.5t15 45.5h89q0 -42 -9.5 -72.5t-26 -45.5t-38 -19t-45.5 3t-49 24q-33 27 -48 22.5t-15 -45.5z" />
    <glyph glyph-name="uni0304" unicode="&#x304;" horiz-adv-x="0" 
d="M-20 570h-280v89h280v-89z" />
    <glyph glyph-name="uni0306" unicode="&#x306;" horiz-adv-x="0" 
d="M-177 552q-75 0 -116.5 36.5t-41.5 103.5h98q0 -59 60 -59q59 0 59 59h98q0 -67 -41.5 -103.5t-115.5 -36.5z" />
    <glyph glyph-name="uni0307" unicode="&#x307;" horiz-adv-x="0" 
d="M-160 628q0 28 21 49t49 21q45 2 64 -43.5t-14 -76.5q-31 -33 -76.5 -14t-43.5 64z" />
    <glyph glyph-name="uni0308" unicode="&#x308;" horiz-adv-x="0" 
d="M-227 575q-18 -17 -43 -17t-42 17q-18 18 -18 43t18 42q17 18 42 18t43 -18q17 -17 17 -42t-17 -43zM-37 575q-18 -17 -43 -17t-42 17q-18 18 -18 43t18 42q17 18 42 18t43 -18q17 -17 17 -42t-17 -43z" />
    <glyph glyph-name="uni030A" unicode="&#x30a;" horiz-adv-x="0" 
d="M-142 543q-52 0 -85.5 32t-33.5 80t34 80.5t85 32.5q53 0 86.5 -32t33.5 -81t-33.5 -80.5t-86.5 -31.5zM-142 614q21 0 32.5 11.5t11.5 29.5q0 19 -11.5 30.5t-32.5 11.5q-20 0 -31.5 -11.5t-11.5 -30.5q0 -18 11.5 -29.5t31.5 -11.5z" />
    <glyph glyph-name="uni030B" unicode="&#x30b;" horiz-adv-x="0" 
d="M-382 560l75 135h114l-81 -135h-108zM-219 560l85 135h114l-91 -135h-108z" />
    <glyph glyph-name="uni030C" unicode="&#x30c;" horiz-adv-x="0" 
d="M-182 627l52 73h110l-106 -140h-113l-106 140h110z" />
    <glyph glyph-name="uni0312" unicode="&#x312;" horiz-adv-x="0" 
d="M-103 970h83l-10 -190h-103z" />
    <glyph glyph-name="uni0326" unicode="&#x326;" horiz-adv-x="0" 
d="M-50 -255h-83l10 190h103z" />
    <glyph glyph-name="uni0327" unicode="&#x327;" horiz-adv-x="0" 
d="M-98 0v-46q35 -6 56.5 -27t21.5 -52q0 -105 -215 -91v79q121 -10 121 25q0 27 -73 30v82h89z" />
    <glyph glyph-name="uni0328" unicode="&#x328;" horiz-adv-x="0" 
d="M-99 -213q-42 0 -66.5 22t-24.5 61q0 59 68 130h97q-61 -58 -61 -105q0 -28 28 -28q12 -1 33 6v-72q-36 -14 -74 -14z" />
    <glyph glyph-name="uni0394" unicode="&#x394;" horiz-adv-x="645" 
d="M254 700h138l248 -700h-635zM323 569l-156 -461h312z" />
    <glyph glyph-name="uni03A9" unicode="&#x3a9;" horiz-adv-x="786" 
d="M756 360q0 -75 -32 -140t-89 -110h108v-110h-275v110q76 22 125 88q48 65 48 152q0 108 -72 179q-71 72 -176 72t-177 -72q-71 -71 -71 -179q0 -88 48 -152q49 -66 126 -88v-110h-276v110h108q-121 94 -121 250q0 148 105 250q106 103 258 103q153 0 257 -103
q106 -102 106 -250z" />
    <glyph glyph-name="pi" unicode="&#x3c0;" horiz-adv-x="660" 
d="M25 500h610v-102h-80v-398h-108v398h-229v-398h-108v398h-85v102z" />
    <glyph glyph-name="uni0401" unicode="&#x401;" horiz-adv-x="530" 
d="M228 775q-17 -17 -42 -17t-43 17q-17 18 -17 43t17 42q18 18 43 18t42 -18q18 -17 18 -42t-18 -43zM418 775q-17 -17 -42 -17t-43 17q-17 18 -17 43t17 42q18 18 43 18t42 -18q18 -17 18 -42t-18 -43zM185 299v-189h310v-110h-425v700h420v-110h-305v-182h280v-109h-280z
" />
    <glyph glyph-name="uni0402" unicode="&#x402;" horiz-adv-x="702" 
d="M458 468q88 0 138.5 -50.5t50.5 -142.5v-91q0 -208 -205 -193v107q49 -4 69.5 15.5t20.5 70.5v82q0 98 -93 98q-66 0 -126 -24v-340h-115v590h-183v110h505v-110h-207v-148q75 26 145 26z" />
    <glyph glyph-name="uni0403" unicode="&#x403;" horiz-adv-x="480" 
d="M281 899h130l-106 -135h-104zM70 700h395v-110h-280v-590h-115v700z" />
    <glyph glyph-name="uni0404" unicode="&#x404;" horiz-adv-x="730" 
d="M398 99q66 0 120 30.5t82 82.5l100 -57q-45 -78 -126 -123t-176 -45q-157 0 -261 104q-102 105 -102 259t102 258q103 105 261 105q96 0 176.5 -44.5t125.5 -122.5l-100 -58q-28 52 -82 82.5t-120 30.5q-96 0 -161.5 -53.5t-81.5 -143.5h336v-108h-336
q16 -90 81.5 -143.5t161.5 -53.5z" />
    <glyph glyph-name="uni0405" unicode="&#x405;" horiz-adv-x="581" 
d="M303 -13q-101 0 -171.5 45.5t-98.5 126.5l99 58q42 -118 174 -118q64 0 97 25t33 67t-35 65t-124 50q-91 27 -147 64q-68 48 -68 141t66 147q65 55 159 55q83 0 146.5 -40.5t97.5 -113.5l-97 -56q-44 98 -147 98q-50 0 -80 -23.5t-30 -63.5q0 -39 30 -61.5t111 -47.5
q50 -17 58 -20q13 -4 52 -20q32 -13 51 -28q78 -61 72 -144q0 -95 -69 -151q-67 -55 -179 -55z" />
    <glyph glyph-name="uni0406" unicode="&#x406;" horiz-adv-x="255" 
d="M70 0v700h115v-700h-115z" />
    <glyph glyph-name="uni0407" unicode="&#x407;" horiz-adv-x="255" 
d="M75 775q-17 -17 -42 -17t-42 17q-18 18 -18 43t18 42q17 18 42 18t42 -18q18 -17 18 -42t-18 -43zM265 775q-17 -17 -42 -17t-43 17q-17 18 -17 43t17 42q18 18 43 18t42 -18q18 -17 18 -42t-18 -43zM70 0v700h115v-700h-115z" />
    <glyph glyph-name="uni0408" unicode="&#x408;" horiz-adv-x="564" 
d="M260 -13q-163 0 -225 128l99 58q35 -74 127 -74q60 0 92.5 29.5t32.5 83.5v488h115v-488q0 -108 -68 -167q-67 -58 -173 -58z" />
    <glyph glyph-name="uni0409" unicode="&#x409;" horiz-adv-x="973" 
d="M593 425h122q96 0 162 -60t66 -152q0 -93 -66 -153t-162 -60h-237v590h-219v-293q0 -186 -75 -250q-66 -57 -171 -49v107q68 -9 99.5 34t31.5 156v405h449v-275zM593 108h122q49 0 81 29t32 76t-31.5 75.5t-81.5 28.5h-122v-209z" />
    <glyph glyph-name="uni040A" unicode="&#x40a;" horiz-adv-x="965" 
d="M585 425h123q96 0 161 -60q66 -60 66 -152q0 -93 -66 -153q-65 -60 -161 -60h-238v317h-285v-317h-115v700h115v-275h285v275h115v-275zM585 108h123q49 0 80.5 29t31.5 76t-31.5 75.5t-80.5 28.5h-123v-209z" />
    <glyph glyph-name="uni040B" unicode="&#x40b;" horiz-adv-x="707" 
d="M458 468q88 0 138.5 -50.5t50.5 -142.5v-275h-115v266q0 98 -93 98q-66 0 -126 -24v-340h-115v590h-183v110h505v-110h-207v-148q75 26 145 26z" />
    <glyph glyph-name="uni040C" unicode="&#x40c;" horiz-adv-x="603" 
d="M311 899h130l-106 -135h-104zM305 359l293 -359h-137l-276 333v-333h-115v700h115v-314l266 314h137z" />
    <glyph glyph-name="uni040E" unicode="&#x40e;" horiz-adv-x="590" 
d="M159 863h280v-94h-280v94zM311 331l153 369h116l-217 -520q-80 -191 -259 -180v107q59 -6 95.5 17.5t58.5 80.5l-233 495h116z" />
    <glyph glyph-name="uni040F" unicode="&#x40f;" horiz-adv-x="655" 
d="M470 110v590h115v-700h-200v-134h-115v134h-200v700h115v-590h285z" />
    <glyph glyph-name="uni0410" unicode="&#x410;" horiz-adv-x="655" 
d="M650 0h-124l-49 141h-298l-49 -141h-125l254 700h138zM328 565l-111 -316h222z" />
    <glyph glyph-name="uni0411" unicode="&#x411;" horiz-adv-x="585" 
d="M185 430h150q97 0 161 -61t64 -154t-64 -154t-161 -61h-265v700h430v-110h-315v-160zM185 108h150q48 0 79 29.5t31 77.5t-31 77.5t-79 29.5h-150v-214z" />
    <glyph glyph-name="uni0412" unicode="&#x412;" horiz-adv-x="610" 
d="M482 363q46 -24 72 -66.5t26 -96.5q0 -86 -61 -143t-149 -57h-300v700h278q86 0 145 -56q60 -56 60 -138q0 -90 -71 -143zM348 592h-163v-184h163q38 0 64 26.5t26 65.5t-26 65.5t-64 26.5zM185 108h185q40 0 67.5 28.5t27.5 69.5t-27.5 69.5t-67.5 28.5h-185v-196z" />
    <glyph glyph-name="uni0413" unicode="&#x413;" horiz-adv-x="480" 
d="M70 700h395v-110h-280v-590h-115v700z" />
    <glyph glyph-name="uni0414" unicode="&#x414;" horiz-adv-x="700" 
d="M595 700v-590h75v-244h-115v134h-425v-134h-115v244h65q61 79 61 241v349h454zM206 110h274v482h-224v-243q0 -156 -50 -239z" />
    <glyph glyph-name="uni0415" unicode="&#x415;" horiz-adv-x="530" 
d="M185 299v-189h310v-110h-425v700h420v-110h-305v-182h280v-109h-280z" />
    <glyph glyph-name="uni0416" unicode="&#x416;" horiz-adv-x="886" 
d="M610 358l261 -358h-129l-241 328v-328h-115v328l-241 -328h-130l262 358l-252 342h130l231 -318v318h115v-318l231 318h129z" />
    <glyph glyph-name="uni0417" unicode="&#x417;" horiz-adv-x="563" 
d="M426 363q107 -51 107 -169q0 -92 -70 -150q-69 -57 -181 -57q-192 0 -254 162l99 57q31 -111 155 -111q65 0 100.5 28t35.5 77q0 48 -34 76t-94 28h-85v104h62q59 0 92 27t33 72q0 46 -30 72t-86 26q-104 0 -140 -95l-98 57q68 146 238 146q102 0 167 -56q64 -55 64 -144
q0 -99 -81 -150z" />
    <glyph glyph-name="uni0418" unicode="&#x418;" horiz-adv-x="675" 
d="M605 0h-115v475l-330 -475h-90v700h115v-475l330 475h90v-700z" />
    <glyph glyph-name="uni0419" unicode="&#x419;" horiz-adv-x="675" 
d="M478 770h-280v94h280v-94zM605 0h-115v475l-330 -475h-90v700h115v-475l330 475h90v-700z" />
    <glyph glyph-name="uni041A" unicode="&#x41a;" horiz-adv-x="603" 
d="M305 359l293 -359h-137l-276 333v-333h-115v700h115v-314l266 314h137z" />
    <glyph glyph-name="uni041B" unicode="&#x41b;" horiz-adv-x="683" 
d="M13 0v106q68 -9 99.5 33.5t31.5 155.5v405h469v-700h-115v590h-239v-293q0 -183 -75 -250q-67 -58 -171 -47z" />
    <glyph glyph-name="uni041C" unicode="&#x41c;" horiz-adv-x="810" 
d="M617 700h123v-700h-115v499l-213 -352h-14l-213 353v-500h-115v700h124l211 -350z" />
    <glyph glyph-name="uni041D" unicode="&#x41d;" horiz-adv-x="670" 
d="M485 413v287h115v-700h-115v303h-300v-303h-115v700h115v-287h300z" />
    <glyph glyph-name="uni041E" unicode="&#x41e;" horiz-adv-x="796" 
d="M655 92q-105 -105 -257 -105t-258 105q-105 106 -105 258t105 257q106 106 258 106t257 -106q106 -105 106 -257t-106 -258zM221 170q73 -71 177 -71q105 0 176 71q72 72 72 180t-72 179q-71 72 -176 72t-177 -72q-71 -71 -71 -179q0 -107 71 -180z" />
    <glyph glyph-name="uni041F" unicode="&#x41f;" horiz-adv-x="655" 
d="M70 700h515v-700h-115v590h-285v-590h-115v700z" />
    <glyph glyph-name="uni0420" unicode="&#x420;" horiz-adv-x="590" 
d="M70 700h258q99 0 165 -66q67 -66 67 -164q0 -97 -67 -164q-66 -66 -165 -66h-143v-240h-115v700zM185 348h143q51 0 84 34.5t33 87.5t-33 87.5t-84 34.5h-143v-244z" />
    <glyph glyph-name="uni0421" unicode="&#x421;" horiz-adv-x="732" 
d="M401 -13q-158 0 -262 104q-104 106 -104 259q0 154 104 258q103 105 262 105q95 0 175.5 -45t125.5 -122l-100 -58q-28 52 -81.5 82.5t-119.5 30.5q-111 0 -182 -71q-69 -70 -69 -180t69 -180q71 -71 182 -71q66 0 120 30.5t81 82.5l100 -57q-43 -76 -125 -123
q-79 -45 -176 -45z" />
    <glyph glyph-name="uni0422" unicode="&#x422;" horiz-adv-x="540" 
d="M15 700h510v-110h-197v-590h-115v590h-198v110z" />
    <glyph glyph-name="uni0423" unicode="&#x423;" horiz-adv-x="590" 
d="M311 331l153 369h116l-217 -520q-80 -191 -259 -180v107q59 -6 95.5 17.5t58.5 80.5l-233 495h116z" />
    <glyph glyph-name="uni0424" unicode="&#x424;" horiz-adv-x="814" 
d="M464 70v-80h-113v80q-150 12 -238 85t-88 195q0 121 88 194q89 74 238 86v80h113v-80q147 -12 236 -86t89 -194q0 -121 -89 -195q-88 -73 -236 -85zM140 350q0 -156 211 -175v350q-211 -19 -211 -175zM464 525v-350q210 21 210 175q0 156 -210 175z" />
    <glyph glyph-name="uni0425" unicode="&#x425;" horiz-adv-x="600" 
d="M366 360l219 -360h-131l-154 253l-154 -253h-131l220 360l-207 340h130l142 -233l142 233h131z" />
    <glyph glyph-name="uni0426" unicode="&#x426;" horiz-adv-x="690" 
d="M585 700v-590h75v-244h-115v134h-475v700h115v-590h285v590h115z" />
    <glyph glyph-name="uni0427" unicode="&#x427;" 
d="M445 380v320h115v-700h-115v269q-73 -33 -154 -33q-106 0 -171 58q-65 59 -65 156v250h115v-238q0 -54 33 -85t90 -31q84 0 152 34z" />
    <glyph glyph-name="uni0428" unicode="&#x428;" horiz-adv-x="945" 
d="M760 110v590h115v-700h-805v700h115v-590h230v590h115v-590h230z" />
    <glyph glyph-name="uni0429" unicode="&#x429;" horiz-adv-x="980" 
d="M875 700v-590h75v-244h-115v134h-765v700h115v-590h230v590h115v-590h230v590h115z" />
    <glyph glyph-name="uni042A" unicode="&#x42a;" horiz-adv-x="695" 
d="M433 0h-258v590h-175v110h290v-240h143q99 0 165 -67q67 -66 67 -163t-67 -164q-66 -66 -165 -66zM290 352v-244h143q51 0 84 34.5t33 87.5t-33 87.5t-84 34.5h-143z" />
    <glyph glyph-name="uni042B" unicode="&#x42b;" horiz-adv-x="813" 
d="M328 0h-258v700h115v-240h143q99 0 165 -67q67 -66 67 -163t-67 -164q-66 -66 -165 -66zM743 0h-115v700h115v-700zM185 352v-244h143q51 0 84 34.5t33 87.5t-33 87.5t-84 34.5h-143z" />
    <glyph glyph-name="uni042C" unicode="&#x42c;" horiz-adv-x="590" 
d="M185 460h143q99 0 165 -67q67 -66 67 -163q0 -98 -67 -164q-66 -66 -165 -66h-258v700h115v-240zM185 108h143q51 0 84 34.5t33 87.5t-33 87.5t-84 34.5h-143v-244z" />
    <glyph glyph-name="uni042D" unicode="&#x42d;" horiz-adv-x="730" 
d="M332 713q158 0 260 -105q103 -103 103 -258t-103 -259q-102 -104 -260 -104q-95 0 -176 45t-126 123l100 57q28 -52 82 -82.5t120 -30.5q96 0 161.5 53.5t81.5 143.5h-336v108h336q-16 90 -81.5 143.5t-161.5 53.5q-66 0 -120 -30.5t-82 -82.5l-100 58q45 78 125.5 122.5
t176.5 44.5z" />
    <glyph glyph-name="uni042E" unicode="&#x42e;" horiz-adv-x="1050" 
d="M652 713q152 0 257 -106q106 -105 106 -257t-106 -258q-105 -105 -257 -105q-140 0 -240 90q-99 90 -116 228h-111v-305h-115v700h115v-285h114q23 129 120 213q98 85 233 85zM652 601q-106 0 -177 -71t-71 -180q0 -107 71 -180q73 -71 177 -71q105 0 176 71
q72 72 72 180t-72 179q-71 72 -176 72z" />
    <glyph glyph-name="uni042F" unicode="&#x42f;" horiz-adv-x="623" 
d="M273 700h280v-700h-115v255h-111l-169 -255h-130l178 265q-70 21 -114 79q-44 59 -44 131q0 94 65 159q66 66 160 66zM273 358h165v234h-165q-46 0 -78 -34t-32 -83t32 -83t78 -34z" />
    <glyph glyph-name="uni0430" unicode="&#x430;" 
d="M459 429v71h108v-500h-108v72q-61 -85 -175 -85q-103 0 -176 76t-73 187t73 187t176 76q114 0 175 -84zM188 135q45 -45 113 -45t113 45q45 46 45 115t-45 114q-45 46 -113 46t-113 -46q-45 -45 -45 -114q0 -68 45 -115z" />
    <glyph glyph-name="uni0431" unicode="&#x431;" horiz-adv-x="567" 
d="M295 -13q-114 0 -188 74q-72 75 -72 191q0 126 38 196q37 69 154 127q4 2 13.5 6.5t20.5 9.5l22 10q42 19 52 24q6 3 35 22q35 25 47 71l88 -51q-5 -55 -69 -101q-11 -10 -41 -24l-43 -20l-50 -21q-65 -26 -96 -53t-43 -69q60 68 163 68q88 0 153 -63q66 -63 66 -163
q0 -102 -70 -168q-69 -66 -180 -66zM294 88q63 0 103 37.5t40 95.5q0 59 -39.5 97t-102.5 38q-56 0 -101 -36q-45 -34 -45 -94t42 -99t103 -39z" />
    <glyph glyph-name="uni0432" unicode="&#x432;" horiz-adv-x="508" 
d="M409 257q74 -35 74 -115q0 -64 -43.5 -103t-120.5 -39h-256v500h236q76 0 119 -38t43 -100q0 -71 -52 -105zM291 408h-125v-111h125q66 0 66 56q0 55 -66 55zM166 94h143q68 0 68 59q0 26 -18 40.5t-50 14.5h-143v-114z" />
    <glyph glyph-name="uni0433" unicode="&#x433;" horiz-adv-x="408" 
d="M63 500h335v-104h-227v-396h-108v500z" />
    <glyph glyph-name="uni0434" unicode="&#x434;" horiz-adv-x="595" 
d="M503 500v-398h67v-236h-106v134h-343v-134h-106v236h61q46 64 46 181v217h381zM195 102h202v299h-169v-118q0 -108 -33 -181z" />
    <glyph glyph-name="uni0435" unicode="&#x435;" horiz-adv-x="582" 
d="M546 204h-398q12 -56 54.5 -87t105.5 -31q85 0 129 62l89 -52q-73 -109 -219 -109q-121 0 -197 74q-75 75 -75 189q0 111 74 187q73 76 190 76q109 0 180 -77t71 -187q0 -20 -4 -45zM147 292h294q-11 59 -49.5 91t-93.5 32q-60 0 -100 -33t-51 -90z" />
    <glyph glyph-name="uni0436" unicode="&#x436;" horiz-adv-x="722" 
d="M512 255l195 -255h-123l-170 231v-231h-106v229l-170 -229h-123l195 255l-185 245h123l160 -219v219h106v-220l160 220h123z" />
    <glyph glyph-name="uni0437" unicode="&#x437;" horiz-adv-x="449" 
d="M344 256q80 -36 80 -119q0 -65 -53 -107.5t-144 -42.5q-151 0 -204 120l88 52q27 -75 117 -75q42 0 66 17.5t24 46.5q0 26 -19 41.5t-53 15.5h-71v95h53q33 0 51.5 15.5t18.5 42.5q0 26 -21 42.5t-56 16.5q-75 0 -104 -66l-88 50q55 112 190 112q84 0 133 -43
q50 -42 50 -103q0 -75 -58 -111z" />
    <glyph glyph-name="uni0438" unicode="&#x438;" horiz-adv-x="570" 
d="M169 183l256 317h83v-500h-106v318l-256 -318h-83v500h106v-317z" />
    <glyph glyph-name="uni0439" unicode="&#x439;" horiz-adv-x="570" 
d="M425 570h-280v94h280v-94zM169 183l256 317h83v-500h-106v318l-256 -318h-83v500h106v-317z" />
    <glyph glyph-name="uni043A" unicode="&#x43a;" horiz-adv-x="515" 
d="M277 255l228 -255h-129l-205 231v-231h-108v500h108v-221l194 221h132z" />
    <glyph glyph-name="uni043B" unicode="&#x43b;" horiz-adv-x="548" 
d="M102 500h383v-500h-108v396h-167v-186q0 -117 -51 -168t-149 -42v101q46 -8 69 19.5t23 94.5v285z" />
    <glyph glyph-name="uni043C" unicode="&#x43c;" horiz-adv-x="635" 
d="M463 500h110v-500h-105v329l-144 -229h-13l-143 228v-328h-105v500h110l145 -231z" />
    <glyph glyph-name="uni043D" unicode="&#x43d;" horiz-adv-x="570" 
d="M400 301v199h108v-500h-108v199h-229v-199h-108v500h108v-199h229z" />
    <glyph glyph-name="uni043E" unicode="&#x43e;" horiz-adv-x="598" 
d="M299 -13q-111 0 -187 76q-77 77 -77 187t77 187q76 76 187 76t187 -76q77 -77 77 -187t-77 -187q-76 -76 -187 -76zM188 137q45 -45 111 -45t111 45t45 113t-45 113t-111 45t-111 -45t-45 -113t45 -113z" />
    <glyph glyph-name="uni043F" unicode="&#x43f;" horiz-adv-x="570" 
d="M63 500h445v-500h-108v398h-229v-398h-108v500z" />
    <glyph glyph-name="uni0440" unicode="&#x440;" 
d="M346 513q102 0 176 -77q73 -76 73 -186q0 -111 -73 -187t-176 -76q-113 0 -175 84v-271h-108v700h108v-72q61 85 175 85zM216 135q45 -45 113 -45t113 45q45 46 45 115t-45 114q-45 46 -113 46t-113 -46q-45 -45 -45 -114q0 -68 45 -115z" />
    <glyph glyph-name="uni0441" unicode="&#x441;" horiz-adv-x="542" 
d="M299 -13q-113 0 -189 76q-75 77 -75 187q0 112 75 187q76 76 189 76q73 0 133 -35t90 -94l-93 -54q-17 36 -51.5 56.5t-79.5 20.5q-66 0 -111 -45q-44 -46 -44 -112t44 -112q45 -45 111 -45q44 0 79.5 20.5t53.5 56.5l93 -53q-32 -60 -92.5 -95t-132.5 -35z" />
    <glyph glyph-name="uni0442" unicode="&#x442;" horiz-adv-x="455" 
d="M10 500h435v-104h-163v-396h-108v396h-164v104z" />
    <glyph glyph-name="uni0443" unicode="&#x443;" horiz-adv-x="520" 
d="M272 136l128 364h115l-192 -516q-35 -95 -98 -142t-146 -42v101q96 -6 133 96l3 7l-210 496h115z" />
    <glyph glyph-name="uni0444" unicode="&#x444;" horiz-adv-x="680" 
d="M393 -9v-191h-106v191q-116 15 -184 86t-68 173t68 173t184 86v191h106v-191q116 -15 184 -86t68 -173t-68 -173t-184 -86zM393 406v-312q69 13 107 54.5t38 101.5t-38 101.5t-107 54.5zM287 94v312q-68 -13 -106.5 -54.5t-38.5 -101.5t38.5 -101.5t106.5 -54.5z" />
    <glyph glyph-name="uni0445" unicode="&#x445;" horiz-adv-x="520" 
d="M323 256l187 -256h-125l-124 171l-125 -171h-126l188 257l-178 243h125l115 -158l115 158h126z" />
    <glyph glyph-name="uni0446" unicode="&#x446;" horiz-adv-x="600" 
d="M493 500v-398h82v-236h-106v134h-406v500h108v-398h214v398h108z" />
    <glyph glyph-name="uni0447" unicode="&#x447;" horiz-adv-x="538" 
d="M367 271v229h108v-500h-108v169q-59 -22 -126 -22q-95 0 -148 46.5t-53 134.5v172h108v-162q0 -90 107 -90q61 0 112 23z" />
    <glyph glyph-name="uni0448" unicode="&#x448;" horiz-adv-x="825" 
d="M655 102v398h108v-500h-700v500h108v-398h188v398h108v-398h188z" />
    <glyph glyph-name="uni0449" unicode="&#x449;" horiz-adv-x="845" 
d="M753 500v-398h67v-236h-106v134h-651v500h108v-398h183v398h108v-398h183v398h108z" />
    <glyph glyph-name="uni044A" unicode="&#x44a;" horiz-adv-x="563" 
d="M246 330h110q81 0 131 -46q51 -45 51 -119q0 -73 -51 -119q-50 -46 -131 -46h-218v396h-138v104h246v-170zM246 97h111q32 0 53.5 19t21.5 49t-21 49t-54 19h-111v-136z" />
    <glyph glyph-name="uni044B" unicode="&#x44b;" horiz-adv-x="693" 
d="M171 330h110q81 0 131 -46q51 -45 51 -119q0 -73 -51 -119q-50 -46 -131 -46h-218v500h108v-170zM523 0v500h108v-500h-108zM171 97h111q32 0 53.5 19t21.5 49t-21 49t-54 19h-111v-136z" />
    <glyph glyph-name="uni044C" unicode="&#x44c;" horiz-adv-x="488" 
d="M171 330h110q81 0 131 -46q51 -45 51 -119q0 -73 -51 -119q-50 -46 -131 -46h-218v500h108v-170zM171 97h111q32 0 53.5 19t21.5 49t-21 49t-54 19h-111v-136z" />
    <glyph glyph-name="uni044D" unicode="&#x44d;" horiz-adv-x="538" 
d="M245 513q114 0 186 -74q72 -73 72 -189t-73 -189q-72 -74 -186 -74q-78 0 -138.5 35t-90.5 96l92 52q33 -79 138 -79q52 0 90.5 30t53.5 80h-198v99h198q-14 51 -52 80.5t-91 29.5q-47 0 -82.5 -21t-53.5 -58l-93 53q32 60 92.5 94.5t135.5 34.5z" />
    <glyph glyph-name="uni044E" unicode="&#x44e;" horiz-adv-x="808" 
d="M509 513q111 0 187 -76q77 -77 77 -187t-77 -187q-76 -76 -187 -76q-97 0 -168 59q-71 60 -87 153h-83v-199h-108v500h108v-199h83q17 94 87 152q71 60 168 60zM398 137q45 -45 111 -45t111 45t45 113t-45 113t-111 45t-111 -45t-45 -113t45 -113z" />
    <glyph glyph-name="uni044F" unicode="&#x44f;" horiz-adv-x="513" 
d="M227 500h223v-500h-106v168h-60l-127 -168h-127l135 178q-52 17 -83.5 60t-31.5 96q0 69 49 117q49 49 128 49zM233 261h111v141h-111q-34 0 -55.5 -19.5t-21.5 -51.5t21.5 -51t55.5 -19z" />
    <glyph glyph-name="uni0451" unicode="&#x451;" horiz-adv-x="582" 
d="M240 578q-17 -17 -42 -17t-43 17q-17 18 -17 43t17 42q18 18 43 18t42 -18q18 -17 18 -42t-18 -43zM430 578q-17 -17 -42 -17t-43 17q-17 18 -17 43t17 42q18 18 43 18t42 -18q18 -17 18 -42t-18 -43zM546 204h-398q12 -56 54.5 -87t105.5 -31q85 0 129 62l89 -52
q-73 -109 -219 -109q-121 0 -197 74q-75 75 -75 189q0 111 74 187q73 76 190 76q109 0 180 -77t71 -187q0 -20 -4 -45zM147 292h294q-11 59 -49.5 91t-93.5 32q-60 0 -100 -33t-51 -90z" />
    <glyph glyph-name="uni0452" unicode="&#x452;" horiz-adv-x="578" 
d="M334 513q86 0 138.5 -55.5t52.5 -150.5v-327q0 -208 -205 -193v104q50 -5 73.5 16t23.5 73v316q0 56 -29.5 86t-81.5 30q-59 0 -93.5 -36.5t-34.5 -107.5v-268h-108v561h-65v74h65v65h108v-65h142v-74h-142v-125q50 77 156 77z" />
    <glyph glyph-name="uni0453" unicode="&#x453;" horiz-adv-x="408" 
d="M221 700h130l-106 -135h-104zM63 500h335v-104h-227v-396h-108v500z" />
    <glyph glyph-name="uni0454" unicode="&#x454;" horiz-adv-x="538" 
d="M431 170l92 -52q-30 -61 -90.5 -96t-138.5 -35q-113 0 -187 74q-72 73 -72 189t72 189q72 74 186 74q75 0 135.5 -34.5t92.5 -94.5l-93 -53q-18 37 -53.5 58t-82.5 21q-53 0 -91 -29.5t-52 -80.5h198v-99h-198q15 -50 53.5 -80t90.5 -30q105 0 138 79z" />
    <glyph glyph-name="uni0455" unicode="&#x455;" horiz-adv-x="461" 
d="M160 362q0 -23 24 -37.5t70 -27.5q35 -8 61 -17t55 -26.5t44.5 -46t14.5 -66.5q0 -72 -56 -113t-139 -41q-74 0 -127 31t-77 86l93 54q25 -72 111 -72q85 0 85 56q0 41 -95 64q-36 9 -60.5 18t-54 26t-45 45t-14.5 65q0 69 52 111q53 42 131 42q62 0 110.5 -27.5
t74.5 -76.5l-91 -51q-25 57 -94 57q-32 0 -52.5 -14t-20.5 -39z" />
    <glyph glyph-name="uni0456" unicode="&#x456;" horiz-adv-x="233" 
d="M165 595q-20 -20 -48 -20t-49 20q-20 21 -20 49t20 48q20 21 49 21t49 -21q20 -20 20 -48t-21 -49zM171 0h-108v500h108v-500z" />
    <glyph glyph-name="uni0457" unicode="&#x457;" horiz-adv-x="233" 
d="M64 575q-17 -17 -42 -17t-42 17q-18 18 -18 43t18 42q17 18 42 18t42 -18q18 -17 18 -42t-18 -43zM254 575q-17 -17 -42 -17t-43 17q-17 18 -17 43t17 42q18 18 43 18t42 -18q18 -17 18 -42t-18 -43zM171 0h-108v500h108v-500z" />
    <glyph glyph-name="uni0458" unicode="&#x458;" horiz-adv-x="253" 
d="M184 595q-20 -20 -48 -20t-49 20q-20 21 -20 49t20 48q21 21 49 21t48 -21q21 -20 21 -48t-21 -49zM82 -20v520h108v-520q0 -208 -205 -193v104q50 -5 73.5 16t23.5 73z" />
    <glyph glyph-name="uni0459" unicode="&#x459;" horiz-adv-x="772" 
d="M475 315h106q75 0 120.5 -42.5t45.5 -114.5t-45.5 -115t-120.5 -43h-214v396h-157v-186q0 -117 -51 -168.5t-149 -45.5v101q47 -5 69.5 23t22.5 95v285h373v-185zM475 97h106q29 0 47 16t18 45q0 28 -18 44t-47 16h-106v-121z" />
    <glyph glyph-name="uni045A" unicode="&#x45a;" horiz-adv-x="790" 
d="M488 315h105q77 0 124.5 -43t47.5 -114q0 -72 -48 -115t-124 -43h-213v213h-214v-213h-108v500h108v-185h214v185h108v-185zM488 97h106q29 0 47 16t18 45q0 28 -18.5 44t-46.5 16h-106v-121z" />
    <glyph glyph-name="uni045B" unicode="&#x45b;" horiz-adv-x="578" 
d="M334 513q86 0 138.5 -55.5t52.5 -150.5v-307h-108v296q0 56 -29.5 86t-81.5 30q-59 0 -93.5 -36.5t-34.5 -107.5v-268h-108v561h-65v74h65v65h108v-65h142v-74h-142v-125q50 77 156 77z" />
    <glyph glyph-name="uni045C" unicode="&#x45c;" horiz-adv-x="515" 
d="M271 700h130l-106 -135h-104zM277 255l228 -255h-129l-205 231v-231h-108v500h108v-221l194 221h132z" />
    <glyph glyph-name="uni045E" unicode="&#x45e;" horiz-adv-x="520" 
d="M120 664h280v-94h-280v94zM272 136l128 364h115l-192 -516q-35 -95 -98 -142t-146 -42v101q96 -6 133 96l3 7l-210 496h115z" />
    <glyph glyph-name="uni045F" unicode="&#x45f;" horiz-adv-x="570" 
d="M400 102v398h108v-500h-170v-134h-106v134h-169v500h108v-398h229z" />
    <glyph glyph-name="uni0490" unicode="&#x490;" horiz-adv-x="480" 
d="M350 700v120h115v-230h-280v-590h-115v700h280z" />
    <glyph glyph-name="uni0491" unicode="&#x491;" horiz-adv-x="408" 
d="M292 500v102h106v-206h-227v-396h-108v500h229z" />
    <glyph glyph-name="Wgrave" unicode="&#x1e80;" horiz-adv-x="999" 
d="M594 765h-104l-106 135h130zM218 0h133l149 511l148 -511h133l198 700h-121l-147 -547l-158 547h-106l-159 -547l-147 547h-121z" />
    <glyph glyph-name="wgrave" unicode="&#x1e81;" horiz-adv-x="770" 
d="M380 700l80 -135h-104l-106 135h130zM541 155l98 345h114l-157 -500h-106l-104 337l-105 -337h-106l-157 500h114l97 -345l105 345h103z" />
    <glyph glyph-name="Wacute" unicode="&#x1e82;" horiz-adv-x="999" 
d="M449 765l80 135h130l-106 -135h-104zM218 0h133l149 511l148 -511h133l198 700h-121l-147 -547l-158 547h-106l-159 -547l-147 547h-121z" />
    <glyph glyph-name="wacute" unicode="&#x1e83;" horiz-adv-x="770" 
d="M395 700h130l-106 -135h-104zM541 155l98 345h114l-157 -500h-106l-104 337l-105 -337h-106l-157 500h114l97 -345l105 345h103z" />
    <glyph glyph-name="Wdieresis" unicode="&#x1e84;" horiz-adv-x="999" 
d="M466 775q-17 -17 -42 -17t-43 17q-17 18 -17 43t17 42q18 18 43 18t42 -18q18 -17 18 -42t-18 -43zM656 775q-17 -17 -42 -17t-43 17q-17 18 -17 43t17 42q18 18 43 18t42 -18q18 -17 18 -42t-18 -43zM351 0h-133l-198 700h121l147 -547l159 547h106l158 -547l147 547
h121l-198 -700h-133l-148 511z" />
    <glyph glyph-name="wdieresis" unicode="&#x1e85;" horiz-adv-x="770" 
d="M332 575q-17 -17 -42 -17t-43 17q-17 18 -17 43t17 42q18 18 43 18t42 -18q18 -17 18 -42t-18 -43zM522 575q-17 -17 -42 -17t-43 17q-17 18 -17 43t17 42q18 18 43 18t42 -18q18 -17 18 -42t-18 -43zM541 155l98 345h114l-157 -500h-106l-104 337l-105 -337h-106
l-157 500h114l97 -345l105 345h103z" />
    <glyph glyph-name="Ygrave" unicode="&#x1ef2;" horiz-adv-x="613" 
d="M300 900l80 -135h-104l-106 135h130zM477 700h131l-244 -422v-278h-115v278l-244 422h131l171 -310z" />
    <glyph glyph-name="ygrave" unicode="&#x1ef3;" horiz-adv-x="520" 
d="M255 700l80 -135h-104l-106 135h130zM272 137l128 363h115l-192 -516q-72 -194 -244 -184v101q50 -3 81 21t52 77l5 10l-212 491h118z" />
    <glyph glyph-name="endash" unicode="&#x2013;" horiz-adv-x="650" 
d="M580 252h-510v104h510v-104z" />
    <glyph glyph-name="emdash" unicode="&#x2014;" horiz-adv-x="750" 
d="M680 252h-610v104h610v-104z" />
    <glyph glyph-name="quoteleft" unicode="&#x2018;" horiz-adv-x="265" 
d="M172 440h-120l70 260h90z" />
    <glyph glyph-name="quoteright" unicode="&#x2019;" horiz-adv-x="265" 
d="M93 700h120l-70 -260h-90z" />
    <glyph glyph-name="quotesinglbase" unicode="&#x201a;" horiz-adv-x="265" 
d="M93 120h120l-70 -260h-90z" />
    <glyph glyph-name="quotedblleft" unicode="&#x201c;" horiz-adv-x="435" 
d="M172 440h-120l70 260h90zM342 440h-120l70 260h90z" />
    <glyph glyph-name="quotedblright" unicode="&#x201d;" horiz-adv-x="435" 
d="M93 700h120l-70 -260h-90zM263 700h120l-70 -260h-90z" />
    <glyph glyph-name="quotedblbase" unicode="&#x201e;" horiz-adv-x="435" 
d="M93 120h120l-70 -260h-90zM263 120h120l-70 -260h-90z" />
    <glyph glyph-name="dagger" unicode="&#x2020;" horiz-adv-x="480" 
d="M294 555h136v-104h-136v-451h-108v451h-136v104h136v145h108v-145z" />
    <glyph glyph-name="daggerdbl" unicode="&#x2021;" horiz-adv-x="480" 
d="M430 555v-104h-136v-202h136v-104h-136v-145h-108v145h-136v104h136v202h-136v104h136v145h108v-145h136z" />
    <glyph glyph-name="bullet" unicode="&#x2022;" horiz-adv-x="340" 
d="M172 225q-53 0 -90 37t-37 90q0 51 37 87q38 36 90 36q51 0 87 -36t36 -87q0 -52 -36 -90q-36 -37 -87 -37z" />
    <glyph glyph-name="ellipsis" unicode="&#x2026;" horiz-adv-x="685" 
d="M128 138q31 0 53 -22t22 -53t-22 -53t-53 -22t-53 22t-22 53t21.5 53t53.5 22zM396 10q-22 -22 -53 -22t-53 22t-22 53t22 53t53 22t53 -22t22 -53t-22 -53zM558 138q31 0 53 -22t22 -53t-22 -53t-53 -22t-53 22t-22 53t21.5 53t53.5 22z" />
    <glyph glyph-name="perthousand" unicode="&#x2030;" horiz-adv-x="1114" 
d="M377 553q0 -67 -47 -114q-46 -46 -116 -46q-71 0 -117 46q-47 47 -47 114q0 66 47 113t117 47t116 -46q47 -47 47 -114zM213 481q32 0 52 20.5t20 51.5t-20 52t-52 21q-31 0 -51 -21t-20 -52q0 -30 20.5 -51t50.5 -21zM163 71l-54 32l461 513l54 -31zM534 -12
q-71 0 -117 46q-47 47 -47 114q0 66 47 113t117 47q69 0 116 -47t47 -113q0 -67 -47 -114q-46 -46 -116 -46zM1017 34q-46 -46 -116 -46q-71 0 -117 46t-46 114q0 67 46 113q47 47 117 47q69 0 116 -47t47 -113q0 -67 -47 -114zM533 76q32 0 52 20.5t20 51.5t-20 52t-52 21
q-31 0 -51 -21t-20 -52q0 -30 20.5 -51t50.5 -21zM972 148q0 31 -20 52t-51 21t-51 -21t-20 -52q0 -30 20.5 -51t50.5 -21t50.5 21t20.5 51z" />
    <glyph glyph-name="guilsinglleft" unicode="&#x2039;" horiz-adv-x="347" 
d="M175 494h107l-110 -185l110 -185h-107l-110 185z" />
    <glyph glyph-name="guilsinglright" unicode="&#x203a;" horiz-adv-x="347" 
d="M65 494h107l110 -185l-110 -185h-107l110 185z" />
    <glyph glyph-name="fraction" unicode="&#x2044;" horiz-adv-x="200" 
d="M340 700l-400 -700h-80l400 700h80z" />
    <glyph glyph-name="Euro" unicode="&#x20ac;" horiz-adv-x="605" 
d="M487 189l96 -55q-66 -147 -223 -147q-110 0 -181 72.5t-90 200.5h-71v71h65v19q0 21 1 27h-66v71h73q20 124 90.5 194.5t178.5 70.5q154 0 220 -142l-95 -55q-39 85 -125 85q-60 0 -99 -39.5t-54 -113.5h221v-71h-229q-1 -6 -1 -27v-19h230v-71h-223q14 -78 54 -119.5
t101 -41.5q88 0 127 90z" />
    <glyph glyph-name="uni20BD" unicode="&#x20bd;" horiz-adv-x="598" 
d="M353 255h-143v-67h235v-78h-235v-110h-115v110h-80v78h80v67h-80v103h80v342h258q95 0 161 -66q66 -64 66 -159q0 -93 -66 -157q-66 -63 -161 -63zM353 592h-143v-234h143q48 0 79 34q33 34 33 83t-33 83q-31 34 -79 34z" />
    <glyph glyph-name="uni2116" unicode="&#x2116;" horiz-adv-x="1031" 
d="M833 393q-71 0 -117 46t-46 114q0 67 46 113q47 47 117 47q69 0 116 -47t47 -113q0 -68 -46 -114t-117 -46zM490 225v475h115v-700h-90l-330 475v-475h-115v700h90zM833 483q30 0 49.5 20t19.5 50t-19.5 50t-49.5 20t-49.5 -20t-19.5 -50t19.5 -50t49.5 -20zM985 231
h-302v102h302v-102z" />
    <glyph glyph-name="trademark" unicode="&#x2122;" horiz-adv-x="471" 
d="M35 700h166v-49h-56v-151h-53v151h-57v49zM329 616l55 84h52v-200h-52v116l-52 -80h-5l-52 79v-115h-52v200h52z" />
    <glyph glyph-name="estimated" unicode="&#x212e;" horiz-adv-x="800" 
d="M770 350q0 -15 -15 -15h-560q-15 0 -15 -15v-192q0 -12 7 -19q84 -89 233 -89q146 0 231 97q7 9 18 9h37q10 0 13 -6t-4 -13q-109 -117 -295 -117q-177 0 -283 103q-107 104 -107 257t103 256q104 104 267 104q162 0 266 -104t104 -256zM620 380v192q0 12 -7 19
q-84 89 -213 89t-213 -89q-7 -7 -7 -19v-192q0 -15 15 -15h410q15 0 15 15z" />
    <glyph glyph-name="oneeighth" unicode="&#x215b;" horiz-adv-x="806" 
d="M204 700v-400h-92v306l-85 -25l-22 76l119 43h80zM121 0l400 700h80l-400 -700h-80zM723 210q61 -34 61 -102q0 -56 -40.5 -88.5t-109.5 -32.5q-70 0 -110.5 32.5t-40.5 88.5q0 68 61 102q-47 32 -47 85q0 54 38 86t99 32q60 0 98 -32t38 -86q0 -53 -47 -85zM634 334
q-55 0 -55 -45t55 -45q33 -3 47 21t0 48t-47 21zM634 68q29 0 45.5 14t16.5 38t-17 38t-45 14q-39 4 -55.5 -24t0 -56t55.5 -24z" />
    <glyph glyph-name="threeeighths" unicode="&#x215c;" horiz-adv-x="894" 
d="M319 419q0 -62 -41 -97t-111 -35q-111 0 -152 87l78 45q20 -50 74 -50q43 -4 55 31q12 31 -11 54q-17 18 -47 15h-14l-36 55l75 91h-158v85h270v-72l-78 -93q46 -11 71 -41.5t25 -74.5zM209 0l400 700h80l-400 -700h-80zM811 210q61 -34 61 -102q0 -56 -40.5 -88.5
t-109.5 -32.5q-70 0 -110.5 32.5t-40.5 88.5q0 68 61 102q-47 32 -47 85q0 54 38 86t99 32q60 0 98 -32t38 -86q0 -53 -47 -85zM722 334q-55 0 -55 -45t55 -45q33 -3 47 21t0 48t-47 21zM722 68q29 0 45.5 14t16.5 38t-17 38t-45 14q-39 4 -55.5 -24t0 -56t55.5 -24z" />
    <glyph glyph-name="fiveeighths" unicode="&#x215d;" horiz-adv-x="882" 
d="M311 417q0 -61 -39.5 -95.5t-106.5 -34.5q-111 0 -150 87l76 43q21 -49 72 -49q61 0 61 50q0 53 -61 53h-126l16 229h239v-84h-161l-4 -66h42q65 0 103.5 -35t38.5 -98zM197 0l400 700h80l-400 -700h-80zM799 210q61 -34 61 -102q0 -56 -40.5 -88.5t-109.5 -32.5
q-70 0 -110.5 32.5t-40.5 88.5q0 68 61 102q-47 32 -47 85q0 54 38 86t99 32q60 0 98 -32t38 -86q0 -53 -47 -85zM710 334q-55 0 -55 -45t55 -45q33 -3 47 21t0 48t-47 21zM710 68q29 0 45.5 14t16.5 38t-17 38t-45 14q-39 4 -55.5 -24t0 -56t55.5 -24z" />
    <glyph glyph-name="seveneighths" unicode="&#x215e;" horiz-adv-x="841" 
d="M5 700h273v-71l-133 -329h-96l130 315h-174v85zM156 0l400 700h80l-400 -700h-80zM758 210q61 -34 61 -102q0 -56 -40.5 -88.5t-109.5 -32.5q-70 0 -110.5 32.5t-40.5 88.5q0 68 61 102q-47 32 -47 85q0 54 38 86t99 32q60 0 98 -32t38 -86q0 -53 -47 -85zM669 334
q-55 0 -55 -45t55 -45q33 -3 47 21t0 48t-47 21zM669 68q29 0 45.5 14t16.5 38t-17 38t-45 14q-39 4 -55.5 -24t0 -56t55.5 -24z" />
    <glyph glyph-name="arrowleft" unicode="&#x2190;" horiz-adv-x="805" 
d="M246 402h509v-104h-509l248 -248h-144l-300 300l300 300h144z" />
    <glyph glyph-name="arrowup" unicode="&#x2191;" horiz-adv-x="700" 
d="M350 700l300 -300v-144l-246 246v-502h-108v502l-246 -246v144z" />
    <glyph glyph-name="arrowright" unicode="&#x2192;" horiz-adv-x="805" 
d="M311 650h144l300 -300l-300 -300h-144l248 248h-509v104h509z" />
    <glyph glyph-name="arrowdown" unicode="&#x2193;" horiz-adv-x="700" 
d="M404 700v-502l246 246v-144l-300 -300l-300 300v144l246 -246v502h108z" />
    <glyph glyph-name="arrowboth" unicode="&#x2194;" horiz-adv-x="1070" 
d="M614 615h142l264 -265l-264 -265h-142l211 213h-581l213 -213h-142l-265 265l265 265h142l-213 -213h582z" />
    <glyph glyph-name="arrowupdn" unicode="&#x2195;" 
d="M580 571v-142l-211 210v-578l211 211v-142l-265 -265l-265 265v142l211 -211v578l-211 -210v142l265 264z" />
    <glyph glyph-name="uni2196" unicode="&#x2196;" horiz-adv-x="642" 
d="M227 503l365 -366l-74 -74l-366 365v-349l-102 102v424h424l102 -102h-349z" />
    <glyph glyph-name="uni2197" unicode="&#x2197;" horiz-adv-x="642" 
d="M66 503l102 102h424v-424l-102 -102v349l-366 -365l-74 74l365 366h-349z" />
    <glyph glyph-name="uni2198" unicode="&#x2198;" horiz-adv-x="642" 
d="M490 255v349l102 -102v-424h-424l-102 102h349l-365 366l74 74z" />
    <glyph glyph-name="uni2199" unicode="&#x2199;" horiz-adv-x="642" 
d="M518 620l74 -74l-365 -366h349l-102 -102h-424v424l102 102v-349z" />
    <glyph glyph-name="partialdiff" unicode="&#x2202;" horiz-adv-x="581" 
d="M237 713q122 0 208 -101t86 -262q0 -173 -77 -268t-195 -95q-100 0 -157 60q-57 61 -57 153q0 104 61 168q62 65 167 65q80 0 148 -44q-9 102 -60 161.5t-134 60.5q-64 0 -121 -33v99q56 36 131 36zM262 89q66 0 108 53.5t51 149.5q-59 44 -137 44q-60 0 -95.5 -35.5
t-35.5 -97.5q0 -52 29.5 -83t79.5 -31z" />
    <glyph glyph-name="emptyset" unicode="&#x2205;" horiz-adv-x="804" 
d="M749 720l-92 -113q107 -107 107 -257t-106 -256t-256 -106q-106 0 -198 59l-54 -67h-95l92 113q-107 107 -107 257t106 256t256 106q106 0 198 -59l54 67h95zM120 350q0 -115 76 -195l354 437q-68 42 -148 42q-117 0 -200 -83q-82 -82 -82 -201zM402 66q118 0 200 82
t82 202q0 115 -76 195l-354 -437q68 -42 148 -42z" />
    <glyph glyph-name="product" unicode="&#x220f;" horiz-adv-x="640" 
d="M178 -200h-108v900h500v-900h-108v796h-284v-796z" />
    <glyph glyph-name="summation" unicode="&#x2211;" horiz-adv-x="555" 
d="M520 -200h-480v95l222 365l-207 344v96h450v-104h-323l202 -336l-216 -356h352v-104z" />
    <glyph glyph-name="minus" unicode="&#x2212;" horiz-adv-x="550" 
d="M495 299h-440v102h440v-102z" />
    <glyph glyph-name="radical" unicode="&#x221a;" horiz-adv-x="665" 
d="M381 0h-107l-127 211h-97v104h159l109 -188l226 673h111z" />
    <glyph glyph-name="infinity" unicode="&#x221e;" horiz-adv-x="805" 
d="M578 520q76 0 125 -48q50 -47 50 -122q0 -74 -50 -122q-49 -48 -125 -48q-88 0 -175 93q-87 -93 -176 -93q-75 0 -125 48q-49 48 -49 122q0 76 49 122q49 48 125 48q89 0 176 -93q87 93 175 93zM232 278q53 0 107 72q-54 73 -107 73q-31 0 -51.5 -20.5t-20.5 -52.5
q0 -31 20.5 -51.5t51.5 -20.5zM574 278q31 0 51.5 20.5t20.5 51.5q0 32 -20.5 52.5t-51.5 20.5q-53 0 -107 -73q54 -72 107 -72z" />
    <glyph glyph-name="integral" unicode="&#x222b;" horiz-adv-x="441" 
d="M0 -203v107q40 -20 73 -3t40 63l100 588q17 98 76.5 136t151.5 14v-107q-44 19 -78 2.5t-41 -62.5l-100 -588q-17 -98 -76 -136t-146 -14z" />
    <glyph glyph-name="approxequal" unicode="&#x2248;" horiz-adv-x="577" 
d="M287 387q-37 19 -63.5 26.5t-45 3.5t-30 -14t-23.5 -29l-75 28q26 94 88 119t153 -22q69 -36 100.5 -29.5t45.5 57.5l90 -43q-23 -93 -86 -119t-154 22zM140 174l-90 43q23 91 87 117.5t154 -20.5q79 -35 108 -30.5t53 43.5l75 -28q-53 -193 -240 -97q-68 36 -100.5 29.5
t-46.5 -57.5z" />
    <glyph glyph-name="notequal" unicode="&#x2260;" horiz-adv-x="530" 
d="M480 504v-102h-157l-46 -103h203v-102h-249l-61 -137h-70l61 137h-111v102h157l46 103h-203v102h249l61 136h70l-61 -136h111z" />
    <glyph glyph-name="lessequal" unicode="&#x2264;" horiz-adv-x="525" 
d="M50 472l425 163v-114l-299 -98l299 -98v-114l-425 163v98zM475 70h-425v102h425v-102z" />
    <glyph glyph-name="greaterequal" unicode="&#x2265;" horiz-adv-x="525" 
d="M50 521v114l425 -163v-98l-425 -163v114l299 98zM475 70h-425v102h425v-102z" />
    <glyph glyph-name="lozenge" unicode="&#x25ca;" horiz-adv-x="550" 
d="M319 0h-88l-186 350l186 350h88l186 -350zM162 350l113 -213l114 213l-114 213z" />
    <glyph glyph-name="NULL" horiz-adv-x="0" 
 />
    <glyph glyph-name="CR" horiz-adv-x="333" 
 />
    <glyph glyph-name="i.loclTRK" horiz-adv-x="233" 
d="M47 628q0 28 20.5 49t49.5 21t49.5 -20.5t20.5 -49.5t-20.5 -49.5t-49.5 -20.5t-49.5 20.5t-20.5 49.5zM171 0h-108v500h108v-500z" />
    <glyph glyph-name="f_f_j" horiz-adv-x="818" 
d="M482 500h274v-520q0 -208 -205 -193v104q50 -5 73.5 16t23.5 73v416h-166v-396h-108v396h-167v-396h-108v396h-76v104h76v10q0 104 58 157t168 46v-104q-118 10 -118 -99v-10h167v20q0 203 226 203q55 0 111 -13v-99q-56 8 -111 8q-61 0 -89.5 -22.5t-28.5 -76.5v-20z
" />
    <glyph glyph-name="f_j" horiz-adv-x="543" 
d="M207 500h274v-520q0 -208 -205 -193v104q50 -5 73.5 16t23.5 73v416h-166v-396h-108v396h-76v104h76v10q0 203 226 203q55 0 111 -13v-99q-56 8 -111 8q-61 0 -89.5 -22.5t-28.5 -76.5v-10z" />
    <glyph glyph-name="uni0414.loclBGR" horiz-adv-x="720" 
d="M429 700l196 -590h75v-244h-115v134h-450v-134h-115v244h75l196 590h138zM360 567l-144 -457h289z" />
    <glyph glyph-name="uni041B.loclBGR" horiz-adv-x="634" 
d="M5 0l243 700h138l243 -700h-125l-187 561l-186 -561h-126z" />
    <glyph glyph-name="uni0424.loclBGR" horiz-adv-x="854" 
d="M482 -9v-91h-110v91q-154 15 -245 112q-92 98 -92 247t92 247q91 97 245 112v91h110v-91q154 -15 245 -112q92 -98 92 -247t-92 -247q-91 -97 -245 -112zM372 96v508q-107 -14 -164.5 -80t-57.5 -174t57.5 -174t164.5 -80zM482 604v-508q107 14 164.5 80t57.5 174
t-57.5 174t-164.5 80z" />
    <glyph glyph-name="uni0414.ss01" horiz-adv-x="700" 
d="M595 700v-590h75v-110h-655v110h65q61 79 61 241v349h454zM206 110h274v482h-224v-243q0 -156 -50 -239z" />
    <glyph glyph-name="uni0426.ss01" horiz-adv-x="690" 
d="M585 700v-590h75v-110h-590v700h115v-590h285v590h115z" />
    <glyph glyph-name="uni0429.ss01" horiz-adv-x="980" 
d="M875 700v-590h75v-110h-880v700h115v-590h230v590h115v-590h230v590h115z" />
    <glyph glyph-name="uni0414.loclBGR.ss01" horiz-adv-x="720" 
d="M429 700l196 -590h75v-110h-680v110h75l196 590h138zM360 567l-144 -457h289z" />
    <glyph glyph-name="uni0432.loclBGR" horiz-adv-x="568" 
d="M413 406q57 -22 88.5 -72.5t31.5 -124.5q0 -104 -62 -163t-173 -59q-109 0 -172 65.5t-63 176.5v237q0 112 60 180q61 67 164 67q86 0 138.5 -47t52.5 -125q0 -70 -65 -135zM287 611q-54 0 -85 -39.5t-31 -105.5v-66l66 14q40 8 68 8q67 52 67 109q0 36 -23 58t-62 22z
M298 91q60 0 93.5 31t33.5 87q0 67 -51.5 95.5t-136.5 10.5l-66 -14v-72q0 -64 34 -101t93 -37z" />
    <glyph glyph-name="uni0433.loclBGR" horiz-adv-x="461" 
d="M343 160l93 -53q-25 -57 -78 -88.5t-126 -31.5q-83 0 -139 41q-55 40 -55 113q-1 38 14 66.5t43.5 46t54 26.5t59.5 17q45 13 69 27.5t24 37.5q0 24 -20.5 38.5t-50.5 14.5q-70 0 -96 -59l-92 50q27 51 76 79t112 28q75 0 128 -42t53 -111q0 -48 -25.5 -81t-67.5 -48
q-18 -6 -46.5 -14t-47.5 -14t-38 -14t-29 -19.5t-10 -26.5q0 -27 23 -42t61 -15q41 0 70 20t41 54z" />
    <glyph glyph-name="uni0434.loclBGR" 
d="M461 426v74h106v-477q0 -114 -75 -175q-74 -61 -182 -61q-173 0 -237 121l93 54q39 -77 146 -77q70 0 109.5 36.5t39.5 101.5v61q-61 -87 -174 -87q-105 0 -179 75q-73 76 -73 183q0 108 73 182q73 76 179 76q113 0 174 -87zM188 143q46 -45 114 -45t113 45q46 45 46 112
t-46 112q-45 45 -113 45t-114 -45q-45 -45 -45 -112t45 -112z" />
    <glyph glyph-name="uni0436.loclBGR" horiz-adv-x="722" 
d="M512 255l195 -255h-123l-170 229v-229h-106v229l-170 -229h-123l195 255l-185 245h123l160 -218v418h106v-418l160 218h123z" />
    <glyph glyph-name="uni0438.loclBGR" horiz-adv-x="571" 
d="M400 232v268h108v-500h-108v64q-50 -77 -155 -77q-87 0 -139.5 55.5t-52.5 150.5v307h108v-296q0 -56 30 -86t82 -30q59 0 93 36.5t34 107.5z" />
    <glyph glyph-name="uni0439.loclBGR" horiz-adv-x="571" 
d="M140 664h280v-94h-280v94zM400 232v268h108v-500h-108v64q-50 -77 -155 -77q-87 0 -139.5 55.5t-52.5 150.5v307h108v-296q0 -56 30 -86t82 -30q59 0 93 36.5t34 107.5z" />
    <glyph glyph-name="uni043A.loclBGR" horiz-adv-x="515" 
d="M277 255l228 -255h-129l-205 231v-231h-108v700h108v-421l194 221h132z" />
    <glyph glyph-name="uni043B.loclBGR" horiz-adv-x="525" 
d="M325 500l195 -500h-118l-139 380l-140 -380h-118l195 500h125z" />
    <glyph glyph-name="uni043F.loclBGR" horiz-adv-x="571" 
d="M326 513q87 0 139.5 -55.5t52.5 -150.5v-307h-108v296q0 56 -30 86t-82 30q-59 0 -93 -36.5t-34 -107.5v-268h-108v500h108v-64q50 77 155 77z" />
    <glyph glyph-name="uni0442.loclBGR" horiz-adv-x="851" 
d="M609 513q85 0 137 -55t52 -148v-310h-108v303q0 51 -26 80t-71 29q-51 0 -80 -33.5t-29 -98.5v-280h-108v303q0 52 -24.5 80.5t-69.5 28.5q-50 0 -80.5 -34t-30.5 -98v-280h-108v500h108v-60q48 73 143 73q96 0 142 -79q49 79 153 79z" />
    <glyph glyph-name="uni0446.loclBGR" horiz-adv-x="609" 
d="M542 102h42v-236h-106v141q-48 15 -68 62q-54 -82 -165 -82q-87 0 -139.5 55.5t-52.5 150.5v307h108v-296q0 -54 30 -85t82 -31q59 0 93 37t34 108v267h108v-365q0 -15 9 -24t25 -9z" />
    <glyph glyph-name="uni0448.loclBGR" horiz-adv-x="851" 
d="M680 220v280h108v-500h-108v60q-48 -73 -143 -73q-96 0 -142 79q-49 -79 -153 -79q-85 0 -137 55t-52 148v310h108v-303q0 -51 26 -80t71 -29q51 0 80 33.5t29 98.5v280h108v-303q0 -52 24.5 -80.5t69.5 -28.5q50 0 80.5 34t30.5 98z" />
    <glyph glyph-name="uni0449.loclBGR" horiz-adv-x="889" 
d="M822 102h42v-236h-106v141q-46 13 -66 57q-50 -77 -150 -77q-101 0 -147 79q-51 -79 -153 -79q-85 0 -137 55.5t-52 148.5v309h108v-303q0 -51 26 -80t71 -29q51 0 80 34t29 99v279h108v-303q0 -52 25 -80.5t69 -28.5q50 0 80.5 34.5t30.5 98.5v279h108v-365q0 -15 9 -24
t25 -9z" />
    <glyph glyph-name="uni044C.loclBGR" horiz-adv-x="488" 
d="M159 353h104q96 0 148 -46.5t52 -131.5q0 -80 -57 -134t-148 -54q-95 0 -150 52.5t-55 140.5v320h106v-147zM258 89q42 0 70.5 26t28.5 61q0 37 -24.5 58.5t-69.5 21.5h-104v-76q0 -39 27.5 -65t71.5 -26z" />
    <glyph glyph-name="uni044A.loclBGR" horiz-adv-x="574" 
d="M244 353h104q96 0 148 -46.5t52 -131.5q0 -80 -57 -134t-148 -54q-95 0 -150 52.5t-55 140.5v218h-138v102h244v-147zM343 89q42 0 70.5 26t28.5 61q0 37 -24.5 58.5t-69.5 21.5h-104v-76q0 -39 27.5 -65t71.5 -26z" />
    <glyph glyph-name="uni044E.loclBGR" horiz-adv-x="808" 
d="M509 513q111 0 187 -76q77 -77 77 -187t-77 -187q-76 -76 -187 -76q-97 0 -168 59q-71 60 -87 153h-83v-199h-108v700h108v-399h83q17 94 87 152q71 60 168 60zM398 137q45 -45 111 -45t111 45t45 113t-45 113t-111 45t-111 -45t-45 -113t45 -113z" />
    <glyph glyph-name="zero.sinf" horiz-adv-x="409" 
d="M336 -115q-48 -58 -131 -58t-132 58q-48 57 -48 155t48 155q49 58 132 58t131 -58q48 -57 48 -155t-48 -155zM205 -82q40 0 62.5 31.5t22.5 90.5t-22.5 90.5t-62.5 31.5q-41 0 -63.5 -31.5t-22.5 -90.5t22.5 -90.5t63.5 -31.5z" />
    <glyph glyph-name="one.sinf" horiz-adv-x="257" 
d="M5 197l119 43h80v-400h-92v306l-85 -25z" />
    <glyph glyph-name="two.sinf" horiz-adv-x="347" 
d="M319 -160h-293v64l157 151q37 34 37 69q0 20 -14 32t-38 12q-48 0 -70 -54l-75 42q40 97 146 97q63 0 103 -35t40 -89q0 -65 -66 -128l-82 -76h155v-85z" />
    <glyph glyph-name="three.sinf" horiz-adv-x="346" 
d="M301 168l-78 -93q46 -11 71 -41.5t25 -74.5q0 -62 -41 -97t-111 -35q-111 0 -152 87l78 45q20 -50 74 -50q43 -4 55 31q12 31 -11 54q-17 18 -47 15h-14l-36 55l75 91h-158v85h270v-72z" />
    <glyph glyph-name="four.sinf" horiz-adv-x="356" 
d="M295 -8h44v-84h-44v-68h-89v68h-193v84l135 248h99l-132 -248h91v79h89v-79z" />
    <glyph glyph-name="five.sinf" horiz-adv-x="334" 
d="M130 90h42q65 0 103.5 -35t38.5 -98q0 -61 -39.5 -95.5t-106.5 -34.5q-111 0 -150 87l76 43q21 -49 72 -49q61 0 61 50q0 53 -61 53h-126l16 229h239v-84h-161z" />
    <glyph glyph-name="six.sinf" horiz-adv-x="339" 
d="M261 240l-86 -130q65 -2 105.5 -42t40.5 -100q0 -61 -43 -101t-109 -40t-109 40q-42 41 -42 101q0 41 19 73l126 199h98zM169 -93q30 0 47.5 16.5t17.5 44.5t-17.5 44.5t-47.5 16.5q-29 0 -46.5 -16.5t-17.5 -44.5t17.5 -44.5t46.5 -16.5z" />
    <glyph glyph-name="seven.sinf" horiz-adv-x="296" 
d="M5 155v85h273v-71l-133 -329h-96l130 315h-174z" />
    <glyph glyph-name="eight.sinf" horiz-adv-x="345" 
d="M262 50q61 -34 61 -102q0 -56 -40.5 -88.5t-109.5 -32.5q-70 0 -110.5 32.5t-40.5 88.5q0 68 61 102q-47 32 -47 85q0 54 38 86t99 32q60 0 98 -32t38 -86q0 -53 -47 -85zM173 174q-55 0 -55 -45t55 -45q33 -3 47 21t0 48t-47 21zM173 -92q29 0 45.5 14t16.5 38t-17 38
t-45 14q-39 4 -55.5 -24t0 -56t55.5 -24z" />
    <glyph glyph-name="nine.sinf" horiz-adv-x="339" 
d="M321 112q0 -47 -25 -81l-120 -191h-98l86 130q-65 2 -105.5 42t-40.5 100q0 61 43 101t109 40q67 0 108 -40q43 -40 43 -101zM170 51q29 0 46.5 16.5t17.5 44.5t-17.5 44.5t-46.5 16.5q-30 0 -47.5 -16.5t-17.5 -44.5t17.5 -44.5t47.5 -16.5z" />
    <glyph glyph-name="zero.tf" horiz-adv-x="575" 
d="M490 86q-72 -99 -202 -99t-203 99q-72 99 -72 264t72 264q73 99 203 99t202 -99q73 -98 73 -264t-73 -264zM288 99q77 0 118.5 65t41.5 186t-41.5 186t-118.5 65q-78 0 -119 -65t-41 -186t41 -186t119 -65z" />
    <glyph glyph-name="one.tf" horiz-adv-x="575" 
d="M358 700v-590h195v-110h-520v110h210v467l-141 -40l-28 98l184 65h100z" />
    <glyph glyph-name="two.tf" horiz-adv-x="575" 
d="M535 0h-497v90l254 226q61 54 88.5 92.5t27.5 77.5q0 52 -33.5 83.5t-91.5 31.5q-95 0 -145 -99l-96 56q35 75 98 115t144 40q103 0 171 -62t68 -160q0 -64 -37 -122t-115 -126l-155 -132h319v-111z" />
    <glyph glyph-name="three.tf" horiz-adv-x="575" 
d="M511 602l-150 -182q85 -18 133.5 -72t48.5 -134q0 -106 -73 -167q-74 -60 -185 -60q-94 0 -163 42t-99 120l99 57q15 -50 56.5 -78.5t101.5 -28.5q70 0 109 30.5t39 84.5q0 55 -39 85t-109 30h-25l-47 70l160 193h-322v108h465v-98z" />
    <glyph glyph-name="four.tf" horiz-adv-x="575" 
d="M478 233h80v-107h-80v-126h-116v126h-349v107l241 467h124l-241 -467h225v172h116v-172z" />
    <glyph glyph-name="five.tf" horiz-adv-x="575" 
d="M188 436h105q108 0 179 -59t71 -165t-73 -166q-73 -59 -180 -59q-94 0 -163 42t-99 120l99 57q15 -51 57 -79t104 -28q66 0 103 30t37 83t-37 82.5t-103 29.5h-220l27 376h418v-108h-313z" />
    <glyph glyph-name="six.tf" horiz-adv-x="575" 
d="M265 470h18q122 0 193 -67q72 -66 72 -174q0 -109 -72 -176q-72 -66 -193 -66t-193 66q-72 67 -72 176q0 82 44 144l235 327h133zM433 229q0 61 -40 96.5t-110 35.5t-110 -35t-40 -97t40 -97.5t110 -35.5t110 35.5t40 97.5z" />
    <glyph glyph-name="seven.tf" horiz-adv-x="575" 
d="M30 590v110h510v-100l-271 -600h-121l265 590h-383z" />
    <glyph glyph-name="eight.tf" horiz-adv-x="575" 
d="M444 363q107 -57 107 -169q0 -96 -71 -151.5t-192 -55.5q-122 0 -193 55.5t-71 151.5q0 114 108 169q-84 54 -84 149t68 148t172 53q103 0 171 -53t68 -148t-83 -149zM288 604q-60 0 -92.5 -25t-32.5 -72q0 -45 33.5 -71t91.5 -26q57 0 90.5 26t33.5 71q0 47 -33 72
t-91 25zM177 124q38 -28 111 -28t110 28q38 29 38 81q0 51 -38 80t-110 29q-71 0 -111 -29q-38 -29 -38 -80q0 -52 38 -81z" />
    <glyph glyph-name="nine.tf" horiz-adv-x="575" 
d="M558 472q0 -90 -51 -153l-228 -319h-134l165 230h-17q-121 0 -193 66q-72 68 -72 176t72 174q71 67 193 67t193 -67q72 -66 72 -174zM183 569q-40 -34 -40 -97q0 -62 40 -98q41 -35 110 -35t110 35q40 36 40 98q0 63 -40 97q-41 35 -110 35t-110 -35z" />
    <glyph glyph-name="zero.dnom" horiz-adv-x="409" 
d="M336 44q-48 -57 -131 -57t-132 57q-48 58 -48 156t48 155q49 58 132 58t131 -58q48 -57 48 -155t-48 -156zM205 78q40 0 62.5 31.5t22.5 90.5t-22.5 90.5t-62.5 31.5q-41 0 -63.5 -31.5t-22.5 -90.5t22.5 -90.5t63.5 -31.5z" />
    <glyph glyph-name="one.dnom" horiz-adv-x="261" 
d="M5 357l119 43h80v-400h-92v306l-85 -25z" />
    <glyph glyph-name="two.dnom" horiz-adv-x="351" 
d="M319 0h-293v64l157 151q37 34 37 69q0 20 -14 32t-38 12q-48 0 -70 -54l-75 42q40 97 146 97q63 0 103 -35t40 -89q0 -65 -66 -128l-82 -76h155v-85z" />
    <glyph glyph-name="three.dnom" horiz-adv-x="349" 
d="M301 328l-78 -93q46 -11 71 -41.5t25 -74.5q0 -62 -41 -97t-111 -35q-111 0 -152 87l78 45q20 -50 74 -50q43 -4 55 31q12 31 -11 54q-17 18 -47 15h-14l-36 55l75 91h-158v85h270v-72z" />
    <glyph glyph-name="four.dnom" horiz-adv-x="356" 
d="M295 152h44v-84h-44v-68h-89v68h-193v84l135 248h99l-132 -248h91v79h89v-79z" />
    <glyph glyph-name="five.dnom" horiz-adv-x="337" 
d="M127 250h42q65 0 103.5 -35t38.5 -98q0 -61 -39.5 -95.5t-106.5 -34.5q-111 0 -150 87l76 43q21 -49 72 -49q61 0 61 50q0 53 -61 53h-126l16 229h239v-84h-161z" />
    <glyph glyph-name="six.dnom" horiz-adv-x="339" 
d="M261 400l-86 -130q65 -2 105.5 -42t40.5 -100q0 -61 -43 -101t-109 -40t-109 40q-42 41 -42 101q0 41 19 73l126 199h98zM169 67q30 0 47.5 16.5t17.5 44.5t-17.5 44.5t-47.5 16.5q-29 0 -46.5 -16.5t-17.5 -44.5t17.5 -44.5t46.5 -16.5z" />
    <glyph glyph-name="seven.dnom" horiz-adv-x="296" 
d="M5 315v85h273v-71l-133 -329h-96l130 315h-174z" />
    <glyph glyph-name="eight.dnom" horiz-adv-x="345" 
d="M262 210q61 -34 61 -102q0 -56 -40.5 -88.5t-109.5 -32.5q-70 0 -110.5 32.5t-40.5 88.5q0 68 61 102q-47 32 -47 85q0 54 38 86t99 32q60 0 98 -32t38 -86q0 -53 -47 -85zM173 334q-55 0 -55 -45t55 -45q33 -3 47 21t0 48t-47 21zM173 68q29 0 45.5 14t16.5 38t-17 38
t-45 14q-39 4 -55.5 -24t0 -56t55.5 -24z" />
    <glyph glyph-name="nine.dnom" horiz-adv-x="339" 
d="M321 272q0 -47 -25 -81l-120 -191h-98l86 130q-65 2 -105.5 42t-40.5 100q0 61 43 101t109 40q67 0 108 -40q43 -40 43 -101zM170 211q29 0 46.5 16.5t17.5 44.5t-17.5 44.5t-46.5 16.5q-30 0 -47.5 -16.5t-17.5 -44.5t17.5 -44.5t47.5 -16.5z" />
    <glyph glyph-name="zero.numr" horiz-adv-x="409" 
d="M336 344q-48 -57 -131 -57t-132 57q-48 58 -48 156t48 155q49 58 132 58t131 -58q48 -57 48 -155t-48 -156zM205 378q40 0 62.5 31.5t22.5 90.5t-22.5 90.5t-62.5 31.5q-41 0 -63.5 -31.5t-22.5 -90.5t22.5 -90.5t63.5 -31.5z" />
    <glyph glyph-name="one.numr" horiz-adv-x="261" 
d="M5 657l119 43h80v-400h-92v306l-85 -25z" />
    <glyph glyph-name="two.numr" horiz-adv-x="351" 
d="M319 300h-293v64l157 151q37 34 37 69q0 20 -14 32t-38 12q-48 0 -70 -54l-75 42q40 97 146 97q63 0 103 -35t40 -89q0 -65 -66 -128l-82 -76h155v-85z" />
    <glyph glyph-name="three.numr" horiz-adv-x="349" 
d="M301 628l-78 -93q46 -11 71 -41.5t25 -74.5q0 -62 -41 -97t-111 -35q-111 0 -152 87l78 45q20 -50 74 -50q43 -4 55 31q12 31 -11 54q-17 18 -47 15h-14l-36 55l75 91h-158v85h270v-72z" />
    <glyph glyph-name="four.numr" horiz-adv-x="356" 
d="M295 452h44v-84h-44v-68h-89v68h-193v84l135 248h99l-132 -248h91v79h89v-79z" />
    <glyph glyph-name="five.numr" horiz-adv-x="337" 
d="M127 550h42q65 0 103.5 -35t38.5 -98q0 -61 -39.5 -95.5t-106.5 -34.5q-111 0 -150 87l76 43q21 -49 72 -49q61 0 61 50q0 53 -61 53h-126l16 229h239v-84h-161z" />
    <glyph glyph-name="six.numr" horiz-adv-x="339" 
d="M261 700l-86 -130q65 -2 105.5 -42t40.5 -100q0 -61 -43 -101t-109 -40t-109 40q-42 41 -42 101q0 41 19 73l126 199h98zM169 367q30 0 47.5 16.5t17.5 44.5t-17.5 44.5t-47.5 16.5q-29 0 -46.5 -16.5t-17.5 -44.5t17.5 -44.5t46.5 -16.5z" />
    <glyph glyph-name="seven.numr" horiz-adv-x="296" 
d="M5 615v85h273v-71l-133 -329h-96l130 315h-174z" />
    <glyph glyph-name="eight.numr" horiz-adv-x="345" 
d="M262 510q61 -34 61 -102q0 -56 -40.5 -88.5t-109.5 -32.5q-70 0 -110.5 32.5t-40.5 88.5q0 68 61 102q-47 32 -47 85q0 54 38 86t99 32q60 0 98 -32t38 -86q0 -53 -47 -85zM173 634q-55 0 -55 -45t55 -45q33 -3 47 21t0 48t-47 21zM173 368q29 0 45.5 14t16.5 38t-17 38
t-45 14q-39 4 -55.5 -24t0 -56t55.5 -24z" />
    <glyph glyph-name="nine.numr" horiz-adv-x="339" 
d="M321 572q0 -47 -25 -81l-120 -191h-98l86 130q-65 2 -105.5 42t-40.5 100q0 61 43 101t109 40q67 0 108 -40q43 -40 43 -101zM170 511q29 0 46.5 16.5t17.5 44.5t-17.5 44.5t-46.5 16.5q-30 0 -47.5 -16.5t-17.5 -44.5t17.5 -44.5t47.5 -16.5z" />
    <glyph glyph-name="zero.sups" horiz-adv-x="409" 
d="M336 504q-48 -57 -131 -57t-132 57q-48 58 -48 156t48 155q49 58 132 58t131 -58q48 -57 48 -155t-48 -156zM205 538q40 0 62.5 31.5t22.5 90.5t-22.5 90.5t-62.5 31.5q-41 0 -63.5 -31.5t-22.5 -90.5t22.5 -90.5t63.5 -31.5z" />
    <glyph glyph-name="one.sups" horiz-adv-x="261" 
d="M5 817l119 43h80v-400h-92v306l-85 -25z" />
    <glyph glyph-name="two.sups" horiz-adv-x="351" 
d="M319 460h-293v64l157 151q37 34 37 69q0 20 -14 32t-38 12q-48 0 -70 -54l-75 42q40 97 146 97q63 0 103 -35t40 -89q0 -65 -66 -128l-82 -76h155v-85z" />
    <glyph glyph-name="three.sups" horiz-adv-x="349" 
d="M301 788l-78 -93q46 -11 71 -41.5t25 -74.5q0 -62 -41 -97t-111 -35q-111 0 -152 87l78 45q20 -50 74 -50q43 -4 55 31q12 31 -11 54q-17 18 -47 15h-14l-36 55l75 91h-158v85h270v-72z" />
    <glyph glyph-name="four.sups" horiz-adv-x="356" 
d="M295 612h44v-84h-44v-68h-89v68h-193v84l135 248h99l-132 -248h91v79h89v-79z" />
    <glyph glyph-name="five.sups" horiz-adv-x="337" 
d="M127 710h42q65 0 103.5 -35t38.5 -98q0 -61 -39.5 -95.5t-106.5 -34.5q-111 0 -150 87l76 43q21 -49 72 -49q61 0 61 50q0 53 -61 53h-126l16 229h239v-84h-161z" />
    <glyph glyph-name="six.sups" horiz-adv-x="339" 
d="M261 860l-86 -130q65 -2 105.5 -42t40.5 -100q0 -61 -43 -101t-109 -40t-109 40q-42 41 -42 101q0 41 19 73l126 199h98zM169 527q30 0 47.5 16.5t17.5 44.5t-17.5 44.5t-47.5 16.5q-29 0 -46.5 -16.5t-17.5 -44.5t17.5 -44.5t46.5 -16.5z" />
    <glyph glyph-name="seven.sups" horiz-adv-x="296" 
d="M5 775v85h273v-71l-133 -329h-96l130 315h-174z" />
    <glyph glyph-name="eight.sups" horiz-adv-x="345" 
d="M262 670q61 -34 61 -102q0 -56 -40.5 -88.5t-109.5 -32.5q-70 0 -110.5 32.5t-40.5 88.5q0 68 61 102q-47 32 -47 85q0 54 38 86t99 32q60 0 98 -32t38 -86q0 -53 -47 -85zM173 794q-55 0 -55 -45t55 -45q33 -3 47 21t0 48t-47 21zM173 528q29 0 45.5 14t16.5 38t-17 38
t-45 14q-39 4 -55.5 -24t0 -56t55.5 -24z" />
    <glyph glyph-name="nine.sups" horiz-adv-x="339" 
d="M321 732q0 -47 -25 -81l-120 -191h-98l86 130q-65 2 -105.5 42t-40.5 100q0 61 43 101t109 40q67 0 108 -40q43 -40 43 -101zM170 671q29 0 46.5 16.5t17.5 44.5t-17.5 44.5t-46.5 16.5q-30 0 -47.5 -16.5t-17.5 -44.5t17.5 -44.5t47.5 -16.5z" />
    <glyph glyph-name="cent.tf" horiz-adv-x="575" 
d="M447 270l93 -53q-32 -60 -92.5 -95t-132.5 -35q-37 0 -64 7l-30 -94h-55l36 111q-69 31 -110 95t-41 144q0 112 75 187q76 76 189 76q29 0 48 -4l29 91h55l-34 -105q84 -34 125 -111l-93 -54q-19 43 -65 63l-96 -297q15 -3 30 -3q44 0 79.5 20.5t53.5 56.5zM159 350
q0 -92 76 -136l94 292q-3 1 -15 1q-66 0 -111 -45q-44 -46 -44 -112z" />
    <glyph glyph-name="dollar.tf" horiz-adv-x="575" 
d="M545 191q0 -85 -56.5 -139t-152.5 -63v-89h-65v88q-89 6 -151 48.5t-90 115.5l99 57q38 -101 142 -111v208q-93 33 -144 69q-65 47 -65 142q0 86 59 137q58 52 150 58v88h65v-89q142 -18 194 -145l-97 -56q-27 74 -97 90v-200q73 -24 120 -52q44 -26 65 -62.5t24 -94.5z
M177 518q0 -32 21 -53t73 -42v180q-45 -5 -69.5 -27.5t-24.5 -57.5zM336 283v-184q94 13 94 88q0 33 -21 54t-73 42z" />
    <glyph glyph-name="Euro.tf" horiz-adv-x="575" 
d="M459 196l95 -54q-26 -73 -81.5 -114t-129.5 -41q-104 0 -170 72.5t-84 200.5h-66v71h60v19q0 21 1 27h-61v71h67q19 124 85.5 194.5t167.5 70.5q71 0 125.5 -38.5t80.5 -106.5l-96 -55q-13 42 -42 65t-68 23q-111 0 -137 -153h196v-71h-203q-1 -6 -1 -27v-19h204v-71
h-198q26 -161 139 -161q39 0 70 25.5t46 71.5z" />
    <glyph glyph-name="florin.tf" horiz-adv-x="575" 
d="M550 704v-107q-51 17 -85 1.5t-46 -61.5l-35 -133h131v-104h-158l-93 -351q-26 -98 -88 -136t-151 -14v107q51 -17 85 -1.5t46 61.5l88 334h-129v104h156l40 150q26 98 88 136t151 14z" />
    <glyph glyph-name="uni20BD.tf" horiz-adv-x="575" 
d="M323 255h-118v-67h210v-78h-210v-110h-115v110h-80v78h80v67h-80v103h80v342h233q95 0 161 -66q66 -64 66 -159q0 -93 -66 -157q-66 -63 -161 -63zM323 592h-118v-234h118q48 0 79 34q33 34 33 83t-33 83q-31 34 -79 34z" />
    <glyph glyph-name="sterling.tf" horiz-adv-x="575" 
d="M225 279v-168h340v-111h-535v111h80v168h-65v101h65v118q0 104 64 159q65 56 151 56q74 0 128 -37t81 -104l-98 -56q-28 85 -108 85q-46 0 -74.5 -27.5t-28.5 -79.5v-114h218v-101h-218z" />
    <glyph glyph-name="yen.tf" horiz-adv-x="575" 
d="M442 700h130l-203 -343h144v-73h-168v-50h168v-73h-168v-161h-115v161h-167v73h167v50h-167v73h144l-203 343h130l154 -273z" />
    <glyph glyph-name="brevecy" horiz-adv-x="340" 
d="M310 570h-280v94h280v-94z" />
    </font>
</defs>
</svg>
