<?xml version="1.0" standalone="no"?>
<!DOCTYPE svg PUBLIC "-//W3C//DTD SVG 1.1//EN" "http://www.w3.org/Graphics/SVG/1.1/DTD/svg11.dtd" >
<svg xmlns="http://www.w3.org/2000/svg" xmlns:xlink="http://www.w3.org/1999/xlink" version="1.1">
<metadata>
Created by FontForge 20170731 at Fri Jul 22 02:24:45 2016
 By Aleksey,,,
Copyright (c) 2016 by Radomir Tinkov. All rights reserved.
</metadata>
<defs>
<font id="Gilroy-Light" horiz-adv-x="564" >
  <font-face 
    font-family="Gilroy"
    font-weight="300"
    font-stretch="normal"
    units-per-em="1000"
    panose-1="0 0 4 0 0 0 0 0 0 0"
    ascent="776"
    descent="-224"
    x-height="500"
    cap-height="700"
    bbox="-295 -240 1021 960"
    underline-thickness="50"
    underline-position="-200"
    unicode-range="U+0020-FB02"
  />
<missing-glyph horiz-adv-x="500" 
d="M93 800h317v-1000h-317v1000zM333 700v33h-165v-33h65v-37h-66v-33h166v33h-66v37h66zM267 534v70h-100v-104h166v34h-66zM200 570h33v-36h-33v36zM333 440v33h-166v-33h66v-37h-66v-33h100v70h66zM333 313v100h-33v-66h-133v-34h166zM333 178v113h-100v-56h34v23h33v-47
h-100v80h-33v-113h166zM333 5v113h-166v-113h166zM200 85h100v-47h-100v47zM333 -51v33h-166v-33h70l-70 -47v-33h166v33h-102l70 47h32z" />
    <glyph glyph-name="fi" unicode="fi" horiz-adv-x="510" 
d="M164 500h270v-500h-51v451h-219v-451h-51v451h-86v49h86v27q0 184 200 184q42 0 97 -11v-46q-50 9 -97 9q-78 0 -113.5 -32t-35.5 -104v-27z" />
    <glyph glyph-name="fl" unicode="fl" horiz-adv-x="510" 
d="M313 711q52 0 121 -11v-700h-51v661q-28 4 -70 4q-77 0 -113 -33t-36 -105v-27h119v-49h-119v-451h-51v451h-86v49h86v27q0 184 200 184z" />
    <glyph glyph-name="f_f" unicode="ff" horiz-adv-x="583" 
d="M583 721v-48q-149 12 -149 -136v-37h149v-49h-149v-451h-51v451h-219v-451h-51v451h-86v49h86v27q0 94 52 142.5t148 41.5v-48q-149 12 -149 -136v-27h219v37q0 94 52 142.5t148 41.5z" />
    <glyph glyph-name="f_f_i" unicode="ffi" horiz-adv-x="780" 
d="M434 500h269v-500h-50v451h-219v-451h-51v451h-219v-451h-51v451h-86v49h86v27q0 94 52 142.5t148 41.5v-48q-149 12 -149 -136v-27h219v37q0 184 200 184q42 0 97 -11v-46q-50 9 -97 9q-78 0 -113.5 -32t-35.5 -104v-37z" />
    <glyph glyph-name="f_f_l" unicode="ffl" horiz-adv-x="780" 
d="M583 721q52 0 120 -11v-710h-50v671q-28 4 -70 4q-78 0 -113.5 -33t-35.5 -105v-37h119v-49h-119v-451h-51v451h-219v-451h-51v451h-86v49h86v27q0 94 52 142.5t148 41.5v-48q-149 12 -149 -136v-27h219v37q0 184 200 184z" />
    <glyph glyph-name=".notdef" horiz-adv-x="500" 
d="M93 800h317v-1000h-317v1000zM333 700v33h-165v-33h65v-37h-66v-33h166v33h-66v37h66zM267 534v70h-100v-104h166v34h-66zM200 570h33v-36h-33v36zM333 440v33h-166v-33h66v-37h-66v-33h100v70h66zM333 313v100h-33v-66h-133v-34h166zM333 178v113h-100v-56h34v23h33v-47
h-100v80h-33v-113h166zM333 5v113h-166v-113h166zM200 85h100v-47h-100v47zM333 -51v33h-166v-33h70l-70 -47v-33h166v33h-102l70 47h32z" />
    <glyph glyph-name=".null" horiz-adv-x="0" 
 />
    <glyph glyph-name="nonmarkingreturn" horiz-adv-x="333" 
 />
    <glyph glyph-name="space" unicode=" " horiz-adv-x="267" 
 />
    <glyph glyph-name="exclam" unicode="!" horiz-adv-x="220" 
d="M130 180h-40l-10 320v200h60v-200zM142 3q-13 -13 -32 -13t-32 13t-13 32t13 32t32 13t32 -13t13 -32t-13 -32z" />
    <glyph glyph-name="quotedbl" unicode="&#x22;" horiz-adv-x="293" 
d="M100 513h-40l-7 187h54zM233 513h-40l-6 187h53z" />
    <glyph glyph-name="numbersign" unicode="#" horiz-adv-x="603" 
d="M567 463l-8 -46h-119l-22 -134h120l-8 -46h-120l-31 -187h-50l31 187h-154l-31 -187h-50l31 187h-119l7 46h120l22 134h-120l7 46h121l31 187h50l-31 -187h154l31 187h50l-31 -187h119zM214 283h154l22 134h-154z" />
    <glyph glyph-name="dollar" unicode="$" horiz-adv-x="550" 
d="M507 179q0 -77 -54 -130q-53 -52 -140 -59v-90h-47v89q-83 4 -141.5 41t-81.5 101l46 26q36 -109 177 -117v297q-81 27 -132 64q-58 42 -58 128q0 77 54 126q55 51 136 55v90h47v-90q61 -7 107.5 -39.5t69.5 -86.5l-45 -25q-35 87 -132 99v-284q73 -26 112 -50
q41 -25 60.5 -58t21.5 -87zM129 529q0 -52 32 -82t105 -56v268q-61 -5 -99 -41t-38 -89zM313 321v-279q65 7 102.5 44.5t37.5 92.5q0 53 -33.5 84.5t-106.5 57.5z" />
    <glyph glyph-name="percent" unicode="%" horiz-adv-x="716" 
d="M216 413q-67 0 -110 43t-43 106t43 106t110 43q66 0 109 -43q44 -44 44 -106q0 -63 -43 -106t-110 -43zM142 488q29 -29 74 -29t74 29q30 30 30 74t-30 73q-28 30 -74 30t-74 -30q-29 -29 -29 -73q0 -43 29 -74zM134 71l-33 19l475 534l34 -19zM608 32q-43 -43 -109 -43
q-67 0 -110 43t-43 106t43 106t110 43q66 0 109 -43q44 -44 44 -106t-44 -106zM425 64q29 -29 74 -29t74 29q30 30 30 74t-30 73q-29 30 -74 30t-74 -30q-29 -29 -29 -73q0 -43 29 -74z" />
    <glyph glyph-name="ampersand" unicode="&#x26;" horiz-adv-x="655" 
d="M532 120l96 -101l-47 -27l-81 85q-76 -88 -209 -88q-104 0 -166 53q-62 54 -62 144q0 67 36.5 121t102.5 83q-56 65 -56 137q0 84 58 133q58 51 140 51q68 0 121 -35t74 -97l-44 -26q-16 49 -56.5 78t-93.5 29q-63 0 -104 -37t-41 -94q0 -37 17.5 -68.5t58.5 -72.5
l219 -229q31 58 42 139l47 -27q-13 -84 -52 -151zM289 40q109 0 175 75l-225 236q-60 -22 -91 -66t-31 -98q0 -69 46.5 -108t125.5 -39z" />
    <glyph glyph-name="quotesingle" unicode="'" horiz-adv-x="157" 
d="M100 513h-40l-7 187h54z" />
    <glyph glyph-name="parenleft" unicode="(" horiz-adv-x="261" 
d="M221 -100h-51q-110 220 -110 450t110 450h51q-110 -220 -110 -450t110 -450z" />
    <glyph glyph-name="parenright" unicode=")" horiz-adv-x="261" 
d="M91 -100h-51q110 220 110 450t-110 450h51q110 -220 110 -450t-110 -450z" />
    <glyph glyph-name="asterisk" unicode="*" horiz-adv-x="387" 
d="M228 609l95 2v-43l-95 2l53 -79l-39 -23l-49 84l-48 -84l-40 23l53 79l-95 -2v43l95 -2l-53 79l40 23l48 -83l49 83l39 -23z" />
    <glyph glyph-name="plus" unicode="+" horiz-adv-x="533" 
d="M291 374h179v-48h-179v-179h-49v179h-179v48h179v179h49v-179z" />
    <glyph glyph-name="comma" unicode="," horiz-adv-x="223" 
d="M100 68h62l-54 -208h-46z" />
    <glyph glyph-name="hyphen" unicode="-" horiz-adv-x="533" 
d="M447 285h-360v48h360v-48z" />
    <glyph glyph-name="period" unicode="." horiz-adv-x="213" 
d="M139 3q-13 -13 -32 -13t-32 13t-13 32t13 32t32 13t32 -13t13 -32t-13 -32z" />
    <glyph glyph-name="slash" unicode="/" horiz-adv-x="527" 
d="M483 800l-400 -900h-40l400 900h40z" />
    <glyph glyph-name="zero" unicode="0" horiz-adv-x="630" 
d="M508 87q-69 -98 -193 -98t-193 98q-69 97 -69 263t69 263q69 98 193 98t193 -98t69 -263q0 -166 -69 -263zM162 121q56 -81 153 -81t153 81q55 82 55 229q0 148 -55 228q-55 82 -153 82t-153 -82q-55 -80 -55 -228q0 -147 55 -229z" />
    <glyph glyph-name="one" unicode="1" horiz-adv-x="332" 
d="M17 637l183 63h45v-700h-53v642l-162 -51z" />
    <glyph glyph-name="two" unicode="2" horiz-adv-x="527" 
d="M483 0h-440v48l257 264q113 118 113 198q0 68 -43.5 109t-110.5 41q-118 0 -167 -106l-45 27q31 63 86.5 96.5t125.5 33.5q85 0 146 -54q62 -54 62 -147q0 -57 -32.5 -113t-98.5 -123l-217 -223h364v-51z" />
    <glyph glyph-name="three" unicode="3" horiz-adv-x="539" 
d="M459 650l-169 -241q88 -9 145 -63t57 -144q0 -98 -67 -156q-67 -57 -164 -57q-79 0 -138.5 35.5t-84.5 97.5l44 26q19 -52 66 -80t113 -28q79 0 128.5 44.5t49.5 117.5q0 74 -51 118q-50 44 -129 44v1l-1 -1h-14l-23 35l177 251h-342v50h403v-50z" />
    <glyph glyph-name="four" unicode="4" horiz-adv-x="573" 
d="M458 197h90v-50h-90v-147h-53v147h-377v50l266 503h58l-265 -503h318v220h53v-220z" />
    <glyph glyph-name="five" unicode="5" horiz-adv-x="541" 
d="M134 415h132q98 0 165 -58q68 -57 68 -155q0 -97 -68 -156q-67 -57 -165 -57q-78 0 -138 37.5t-83 103.5l45 26q17 -56 63.5 -86t112.5 -30q79 0 129 44q51 44 51 118t-51 118q-50 44 -129 44h-187l24 336h370v-50h-323z" />
    <glyph glyph-name="six" unicode="6" horiz-adv-x="537" 
d="M268 450q102 0 169 -65q66 -65 66 -166t-66 -166q-65 -64 -169 -64t-169 64q-66 65 -66 166q0 79 43 140l235 341h60l-179 -261q39 11 76 11zM450 219q0 80 -50 130t-132 50t-132 -50q-49 -49 -49 -130q0 -79 50 -129t131 -50t131.5 50t50.5 129z" />
    <glyph glyph-name="seven" unicode="7" horiz-adv-x="490" 
d="M23 650v50h424v-50l-272 -650h-55l272 650h-369z" />
    <glyph glyph-name="eight" unicode="8" horiz-adv-x="550" 
d="M382 362q58 -23 91.5 -69.5t33.5 -105.5q0 -93 -65 -146q-64 -52 -167 -52t-167 52q-65 53 -65 146q0 59 33.5 105.5t91.5 69.5q-48 24 -75 65.5t-27 94.5q0 90 60 139q62 50 149 50t148 -50q61 -49 61 -139q0 -53 -27 -94.5t-75 -65.5zM119 522q0 -62 43.5 -99.5
t112.5 -37.5t112.5 37.5t43.5 99.5q0 64 -43 101t-113 37t-113 -37t-43 -101zM145 79q48 -39 130 -39t130 39t48 108t-48 107q-48 39 -130 39t-130 -39q-48 -38 -48 -107t48 -108z" />
    <glyph glyph-name="nine" unicode="9" horiz-adv-x="537" 
d="M503 481q0 -79 -43 -140l-234 -341h-60l179 261q-39 -11 -77 -11q-104 0 -169 64q-66 64 -66 167q0 101 66 165q67 65 169 65t169 -65q66 -64 66 -165zM87 481q0 -81 49 -130q50 -50 132 -50t132 50t50 130q0 79 -50.5 129t-131.5 50t-131 -50t-50 -129z" />
    <glyph glyph-name="colon" unicode=":" horiz-adv-x="213" 
d="M139 423q-13 -13 -32 -13t-32 13t-13 32t13 32t32 13t32 -13t13 -32t-13 -32zM139 3q-13 -13 -32 -13t-32 13t-13 32t13 32t32 13t32 -13t13 -32t-13 -32z" />
    <glyph glyph-name="semicolon" unicode=";" horiz-adv-x="230" 
d="M156 423q-13 -13 -32 -13t-32 13t-13 32t13 32t32 13t32 -13t13 -32t-13 -32zM100 68h62l-54 -208h-46z" />
    <glyph glyph-name="less" unicode="&#x3c;" horiz-adv-x="527" 
d="M64 376l400 178v-56l-343 -148l343 -148v-56l-400 178v52z" />
    <glyph glyph-name="equal" unicode="=" horiz-adv-x="537" 
d="M473 426h-410v48h410v-48zM473 226h-410v48h410v-48z" />
    <glyph glyph-name="greater" unicode="&#x3e;" horiz-adv-x="527" 
d="M63 498v56l400 -178v-52l-400 -178v56l343 148z" />
    <glyph glyph-name="question" unicode="?" horiz-adv-x="530" 
d="M273 180h-53q0 88 68 162q9 10 33 34t35.5 37.5t27 34.5t22.5 41.5t7 41.5q0 62 -40.5 95.5t-111.5 33.5q-61 0 -104 -28t-59 -78l-45 25q21 62 77.5 97t130.5 35q89 0 147 -48q59 -47 59 -132q0 -75 -69 -146q-5 -6 -23 -24t-25.5 -26t-22.5 -25.5t-22 -30t-16 -29.5
t-12.5 -34.5t-3.5 -35.5zM279 3q-13 -13 -32 -13t-32 13t-13 32t13 32t32 13t32 -13t13 -32t-13 -32z" />
    <glyph glyph-name="at" unicode="@" horiz-adv-x="807" 
d="M411 612q106 0 188 -52q80 -50 121 -126.5t41 -163.5q0 -101 -40 -155t-100 -54q-42 0 -70 24t-35 68q-44 -63 -120 -63q-70 0 -116 46t-46 114t46 114t116 46q76 0 118 -60v53h48v-223q0 -91 66 -91q49 0 77.5 46.5t28.5 134.5q0 134 -93 226q-92 91 -230 91
q-142 0 -240 -97q-98 -98 -98 -240q0 -146 101 -242q101 -95 255 -95q102 0 171 28l3 -26q-75 -27 -174 -27q-164 0 -273 103q-109 102 -109 259q0 150 104 256q105 106 260 106zM315 168q35 -32 83 -32t82 32q34 31 34 82t-34 82q-34 32 -82 32t-83 -32q-33 -32 -33 -82
t33 -82z" />
    <glyph glyph-name="A" unicode="A" horiz-adv-x="629" 
d="M614 0h-56l-68 178h-351l-68 -178h-56l272 700h56zM315 635l-156 -407h312z" />
    <glyph glyph-name="B" unicode="B" horiz-adv-x="623" 
d="M460 363q55 -21 87.5 -67t32.5 -105q0 -79 -56 -135t-135 -56h-302v700h279q76 0 130 -54t54 -130q0 -50 -24 -90.5t-66 -62.5zM366 650h-226v-268h226q54 0 92 39q39 41 39 95q0 55 -39 94q-37 40 -92 40zM140 50h249q56 0 97 41q41 43 41 100q0 58 -41 99
q-40 42 -97 42h-249v-282z" />
    <glyph glyph-name="C" unicode="C" horiz-adv-x="751" 
d="M411 -11q-157 0 -261 104q-103 104 -103 257t103 256q104 105 261 105q97 0 176 -46q81 -46 124 -122l-47 -27q-34 64 -103 104q-67 40 -150 40q-135 0 -224 -90q-87 -89 -87 -220t87 -221q89 -89 224 -89q81 0 150.5 40t104.5 107l47 -27q-43 -78 -124.5 -124.5
t-177.5 -46.5z" />
    <glyph glyph-name="D" unicode="D" horiz-adv-x="727" 
d="M87 700h263q143 0 236 -102q94 -100 94 -248t-94 -249q-93 -101 -236 -101h-263v700zM140 50h210q122 0 200 86q78 87 78 214q0 128 -78 213q-78 87 -200 87h-210v-600z" />
    <glyph glyph-name="E" unicode="E" horiz-adv-x="533" 
d="M140 328v-278h350v-50h-403v700h398v-50h-345v-272h320v-50h-320z" />
    <glyph glyph-name="F" unicode="F" horiz-adv-x="518" 
d="M475 700v-50h-335v-280h323v-50h-323v-320h-53v700h388z" />
    <glyph glyph-name="G" unicode="G" horiz-adv-x="799" 
d="M402 326h351v-27q0 -131 -93 -221q-94 -89 -245 -89q-160 0 -264 104q-104 106 -104 257q0 153 103 256q104 105 261 105q97 0 176 -46q82 -47 125 -123l-47 -28q-34 65 -104 106q-67 40 -150 40q-135 0 -224 -90q-87 -89 -87 -220q0 -132 88 -221q89 -89 227 -89
q123 0 199 67t85 169h-297v50z" />
    <glyph glyph-name="H" unicode="H" horiz-adv-x="687" 
d="M547 385v315h53v-700h-53v335h-407v-335h-53v700h53v-315h407z" />
    <glyph glyph-name="I" unicode="I" horiz-adv-x="227" 
d="M87 0v700h53v-700h-53z" />
    <glyph glyph-name="J" unicode="J" horiz-adv-x="553" 
d="M252 -11q-74 0 -129.5 30.5t-79.5 86.5l45 27q38 -93 164 -93q79 0 125 40t46 112v508h54v-508q0 -98 -64 -150q-64 -53 -161 -53z" />
    <glyph glyph-name="K" unicode="K" horiz-adv-x="572" 
d="M198 360l364 -360h-71l-351 345v-345h-53v700h53v-326l341 326h71z" />
    <glyph glyph-name="L" unicode="L" horiz-adv-x="493" 
d="M140 700v-650h330v-50h-383v700h53z" />
    <glyph glyph-name="M" unicode="M" horiz-adv-x="807" 
d="M653 700h67v-700h-53v622l-259 -430h-9l-259 430v-622h-53v700h66l250 -414z" />
    <glyph glyph-name="N" unicode="N" horiz-adv-x="687" 
d="M547 98v602h53v-700h-47l-413 602v-602h-53v700h46z" />
    <glyph glyph-name="O" unicode="O" horiz-adv-x="816" 
d="M664 94q-105 -105 -256 -105t-256 105q-105 106 -105 256t105 255q105 106 256 106t256 -106q105 -105 105 -255t-105 -256zM189 130q90 -90 219 -90q130 0 218 90q90 92 90 220q0 129 -90 219q-88 91 -218 91q-129 0 -219 -91q-89 -91 -89 -219t89 -220z" />
    <glyph glyph-name="P" unicode="P" horiz-adv-x="587" 
d="M87 700h238q94 0 156 -62t62 -155t-62 -155q-61 -61 -156 -61h-185v-267h-53v700zM140 317h185q71 0 118 47t47 119q0 73 -47 120t-118 47h-185v-333z" />
    <glyph glyph-name="Q" unicode="Q" horiz-adv-x="821" 
d="M769 350q0 -153 -110 -260l82 -81l-36 -33l-84 82q-95 -69 -213 -69q-150 0 -256 105q-105 106 -105 256t105 255q106 106 256 106t255 -106q106 -105 106 -255zM408 40q97 0 176 55l-155 153l36 33l157 -155q94 91 94 224q0 129 -90 219q-90 91 -218 91t-218 -91
q-90 -90 -90 -219q0 -128 90 -220q90 -90 218 -90z" />
    <glyph glyph-name="R" unicode="R" horiz-adv-x="613" 
d="M590 0h-61l-168 287h-221v-287h-53v700h276q85 0 146 -61t61 -146q0 -70 -44 -126q-43 -55 -110 -73zM363 650h-223v-313h223q64 0 109 45q45 46 45 111t-45 111t-109 46z" />
    <glyph glyph-name="S" unicode="S" horiz-adv-x="574" 
d="M301 -11q-96 0 -164 44.5t-92 120.5l46 27q19 -66 73 -103.5t137 -37.5t129.5 38t46.5 102q0 57 -44 89q-42 30 -137 61l-50 16l-44 17q-31 13 -43 21q-48 30 -62 54q-23 40 -23 85q0 85 60 136q61 52 152 52q80 0 138.5 -40t86.5 -107l-45 -25q-49 121 -180 121
q-71 0 -114.5 -37.5t-43.5 -97.5q0 -57 40 -85t131 -58q59 -20 90 -33q34 -14 70 -37q72 -44 72 -131t-63 -140q-62 -52 -167 -52z" />
    <glyph glyph-name="T" unicode="T" horiz-adv-x="540" 
d="M23 700h494v-50h-220v-650h-54v650h-220v50z" />
    <glyph glyph-name="U" unicode="U" horiz-adv-x="667" 
d="M77 234v466h53v-466q0 -89 53.5 -141.5t149.5 -52.5t150 52.5t54 141.5v466h53v-466q0 -110 -71 -178q-70 -67 -186 -67t-186 67t-70 178z" />
    <glyph glyph-name="V" unicode="V" horiz-adv-x="605" 
d="M330 0h-56l-261 700h58l231 -631l232 631h57z" />
    <glyph glyph-name="W" unicode="W" horiz-adv-x="993" 
d="M300 0h-64l-203 700h56l181 -629l195 629h63l196 -629l180 629h56l-203 -700h-64l-196 631z" />
    <glyph glyph-name="X" unicode="X" horiz-adv-x="573" 
d="M317 360l233 -360h-61l-202 312l-202 -312h-62l233 360l-220 340h61l190 -293l189 293h61z" />
    <glyph glyph-name="Y" unicode="Y" horiz-adv-x="583" 
d="M513 700h60l-255 -412v-288h-53v288l-255 412h60l222 -361z" />
    <glyph glyph-name="Z" unicode="Z" horiz-adv-x="523" 
d="M480 650l-378 -600h388v-50h-447v50l378 600h-368v50h427v-50z" />
    <glyph glyph-name="bracketleft" unicode="[" horiz-adv-x="277" 
d="M257 800v-49h-143v-802h143v-49h-194v900h194z" />
    <glyph glyph-name="backslash" unicode="\" horiz-adv-x="527" 
d="M483 -100h-40l-400 900h40z" />
    <glyph glyph-name="bracketright" unicode="]" horiz-adv-x="277" 
d="M20 800h194v-900h-194v49h143v802h-143v49z" />
    <glyph glyph-name="asciicircum" unicode="^" horiz-adv-x="502" 
d="M226 700h50l176 -300h-59l-142 243l-142 -243h-59z" />
    <glyph glyph-name="underscore" unicode="_" horiz-adv-x="507" 
d="M467 -133h-427v48h427v-48z" />
    <glyph glyph-name="grave" unicode="`" horiz-adv-x="180" 
d="M160 570h-48l-92 127h60z" />
    <glyph glyph-name="a" unicode="a" horiz-adv-x="645" 
d="M517 387v113h51v-500h-51v113q-33 -58 -89 -91t-126 -33q-106 0 -183 75q-76 76 -76 186t76 185q76 76 183 76q70 0 126 -33t89 -91zM155 99q62 -62 151 -62q88 0 150 62q61 61 61 151t-61 151q-62 62 -150 62q-89 0 -151 -62q-61 -61 -61 -151t61 -151z" />
    <glyph glyph-name="b" unicode="b" horiz-adv-x="645" 
d="M342 511q108 0 183 -76q76 -75 76 -185t-76 -186q-75 -75 -183 -75q-71 0 -127.5 33.5t-87.5 93.5v-116h-50v700h50v-316q31 60 87.5 93.5t127.5 33.5zM188 99q62 -62 151 -62q88 0 150 62t62 151t-62 151t-150 62q-89 0 -151 -62q-61 -61 -61 -151t61 -151z" />
    <glyph glyph-name="c" unicode="c" horiz-adv-x="561" 
d="M306 -11q-113 0 -188 75t-75 186t75 186t188 75q73 0 132 -34.5t86 -93.5l-41 -24q-22 48 -69.5 76t-107.5 28q-89 0 -151 -62q-61 -61 -61 -151q0 -91 61 -152t151 -61q60 0 107.5 28t72.5 76l42 -25q-30 -58 -90 -92.5t-132 -34.5z" />
    <glyph glyph-name="d" unicode="d" horiz-adv-x="645" 
d="M518 384v316h50v-700h-50v116q-31 -60 -87.5 -93.5t-127.5 -33.5q-107 0 -184 75q-75 76 -75 186t75 185q76 76 184 76q71 0 127.5 -33.5t87.5 -93.5zM155 99q62 -62 151 -62q88 0 150 62t62 151t-62 151t-150 62q-89 0 -151 -62q-61 -61 -61 -151t61 -151z" />
    <glyph glyph-name="e" unicode="e" horiz-adv-x="589" 
d="M302 511q110 0 178 -78q69 -78 69 -185q0 -2 -0.5 -12t-0.5 -12h-453q9 -84 67 -136q58 -51 145 -51q59 0 104 24.5t69 66.5l44 -26q-31 -52 -88.5 -82.5t-129.5 -30.5q-116 0 -189 73q-74 74 -74 188q0 112 72 186q74 75 187 75zM302 463q-84 0 -142 -53
q-57 -53 -65 -137h402q-8 89 -64 139q-56 51 -131 51z" />
    <glyph glyph-name="f" unicode="f" horiz-adv-x="313" 
d="M313 711v-48q-149 12 -149 -136v-27h149v-49h-149v-451h-51v451h-86v49h86v27q0 94 52 142.5t148 41.5z" />
    <glyph glyph-name="g" unicode="g" horiz-adv-x="648" 
d="M521 384v116h50v-476q0 -109 -71 -172t-178 -63q-85 0 -146.5 31.5t-89.5 88.5l44 25q48 -97 192 -97q93 0 146 50t53 137v92q-31 -60 -87.5 -93.5t-127.5 -33.5q-107 0 -184 75q-75 76 -75 186t75 185q76 76 184 76q71 0 127.5 -33.5t87.5 -93.5zM158 99q62 -62 151 -62
q88 0 150 62t62 151t-62 151t-150 62q-89 0 -151 -62q-61 -61 -61 -151t61 -151z" />
    <glyph glyph-name="h" unicode="h" 
d="M306 511q89 0 141.5 -54.5t52.5 -145.5v-311h-51v311q0 70 -39 111t-108 41q-79 0 -127 -52t-48 -147v-264h-50v700h50v-295q54 106 179 106z" />
    <glyph glyph-name="i" unicode="i" horiz-adv-x="204" 
d="M62 661q-1 24 19.5 33.5t41 0t19.5 -33.5q1 -25 -19.5 -35t-41 0t-19.5 35zM127 0h-50v500h50v-500z" />
    <glyph glyph-name="j" unicode="j" horiz-adv-x="223" 
d="M161 661q2 -24 -19 -34.5t-42 0t-19 34.5q-1 24 19.5 33.5t41 0t19.5 -33.5zM96 -57v557h50v-557q0 -80 -43 -120.5t-123 -33.5v48q116 -12 116 106z" />
    <glyph glyph-name="k" unicode="k" horiz-adv-x="483" 
d="M181 260l279 -260h-68l-265 246v-246h-50v700h50v-427l253 227h70z" />
    <glyph glyph-name="l" unicode="l" horiz-adv-x="204" 
d="M127 0h-50v730h50v-730z" />
    <glyph glyph-name="m" unicode="m" horiz-adv-x="857" 
d="M611 511q83 0 132.5 -51.5t49.5 -142.5v-317h-50v317q0 69 -36 107.5t-97 38.5q-69 0 -109.5 -47t-40.5 -137v-279h-50v317q0 69 -34 107.5t-94 38.5q-69 0 -112 -48t-43 -136v-279h-50v500h50v-86q52 97 161 97q55 0 96 -26.5t60 -75.5q26 50 70 76t97 26z" />
    <glyph glyph-name="n" unicode="n" 
d="M306 511q89 0 141.5 -54.5t52.5 -145.5v-311h-51v311q0 70 -39 111t-108 41q-79 0 -127 -52t-48 -147v-264h-50v500h50v-95q54 106 179 106z" />
    <glyph glyph-name="o" unicode="o" horiz-adv-x="611" 
d="M306 -11q-110 0 -187 75q-76 76 -76 186t76 185q76 76 187 76q109 0 185 -76q77 -75 77 -185q0 -109 -77 -186q-77 -75 -185 -75zM155 99q62 -62 151 -62q88 0 150 62q61 61 61 151t-61 151q-62 62 -150 62q-89 0 -151 -62q-61 -61 -61 -151t61 -151z" />
    <glyph glyph-name="p" unicode="p" horiz-adv-x="645" 
d="M342 511q108 0 183 -76q76 -75 76 -185t-76 -186q-75 -75 -183 -75q-71 0 -127.5 33.5t-87.5 93.5v-316h-50v700h50v-116q31 60 87.5 93.5t127.5 33.5zM188 99q62 -62 151 -62q88 0 150 62t62 151t-62 151t-150 62q-89 0 -151 -62q-61 -61 -61 -151t61 -151z" />
    <glyph glyph-name="q" unicode="q" horiz-adv-x="645" 
d="M518 384v116h50v-700h-50v316q-31 -60 -87.5 -93.5t-127.5 -33.5q-107 0 -184 75q-75 76 -75 186t75 185q76 76 184 76q71 0 127.5 -33.5t87.5 -93.5zM155 99q62 -62 151 -62q88 0 150 62t62 151t-62 151t-150 62q-89 0 -151 -62q-61 -61 -61 -151t61 -151z" />
    <glyph glyph-name="r" unicode="r" horiz-adv-x="318" 
d="M127 500v-98q45 105 167 105v-48q-74 0 -120.5 -47t-46.5 -134v-278h-50v500h50z" />
    <glyph glyph-name="s" unicode="s" horiz-adv-x="458" 
d="M111 369q0 -63 107 -90q31 -7 45.5 -10.5t43 -12t43 -18.5t32 -25t25 -35.5t7.5 -46.5q0 -63 -49.5 -102.5t-129.5 -39.5q-71 0 -121 30t-69 81l43 25q14 -42 52.5 -65t94.5 -23q58 0 93.5 25t35.5 69q0 68 -107 91q-100 24 -134 44q-62 36 -62 103q0 60 47 101
q49 41 123 41q59 0 104 -27t66 -73l-42 -24q-15 36 -49.5 56t-78.5 20q-52 0 -86 -26t-34 -68z" />
    <glyph glyph-name="t" unicode="t" horiz-adv-x="376" 
d="M333 500v-49h-149v-325q0 -61 32.5 -75t116.5 -6v-45q-103 -15 -151.5 14.5t-48.5 111.5v325h-110v49h110v125l51 15v-140h149z" />
    <glyph glyph-name="u" unicode="u" 
d="M437 236v264h50v-500h-50v95q-54 -106 -179 -106q-89 0 -141.5 54.5t-52.5 145.5v311h51v-311q0 -70 39 -111t108 -41q79 0 127 52t48 147z" />
    <glyph glyph-name="v" unicode="v" horiz-adv-x="511" 
d="M255 52l189 448h53l-211 -500h-61l-212 500h54z" />
    <glyph glyph-name="w" unicode="w" horiz-adv-x="770" 
d="M551 65l133 435h53l-158 -500h-55l-139 426l-139 -426h-55l-158 500h53l133 -435l140 435h52z" />
    <glyph glyph-name="x" unicode="x" horiz-adv-x="507" 
d="M284 258l199 -258h-61l-169 218l-169 -218h-61l200 257l-188 243h61l157 -203l158 203h60z" />
    <glyph glyph-name="y" unicode="y" horiz-adv-x="510" 
d="M269 55l174 445h54l-216 -546q-30 -75 -83 -117t-115 -37v47q47 -4 86 27t63 90l11 27l-230 509h54z" />
    <glyph glyph-name="z" unicode="z" horiz-adv-x="477" 
d="M423 467l-299 -418h309v-49h-380v33l300 418h-290v49h360v-33z" />
    <glyph glyph-name="braceleft" unicode="{" horiz-adv-x="349" 
d="M329 -60v-48q-81 -8 -124 30t-43 118v187q0 57 -25 78.5t-84 21.5v48q59 0 84 21.5t25 78.5v187q0 80 43 118t124 30v-49q-61 7 -88.5 -16.5t-27.5 -82.5v-187q0 -104 -80 -124q80 -20 80 -124v-187q0 -59 27.5 -82.5t88.5 -17.5z" />
    <glyph glyph-name="bar" unicode="|" horiz-adv-x="224" 
d="M137 -200h-50v920h50v-920z" />
    <glyph glyph-name="braceright" unicode="}" horiz-adv-x="349" 
d="M20 -108v48q61 -6 88.5 17.5t27.5 82.5v187q0 104 80 124q-80 20 -80 124v187q0 59 -27.5 82.5t-88.5 16.5v49q81 8 124 -30t43 -118v-187q0 -57 25 -78.5t84 -21.5v-48q-59 0 -84 -21.5t-25 -78.5v-187q0 -80 -43 -118t-124 -30z" />
    <glyph glyph-name="asciitilde" unicode="~" horiz-adv-x="587" 
d="M477 411l46 -22q-14 -47 -42 -75.5t-80.5 -28.5t-118.5 44q-138 92 -173 -40l-46 22q10 34 29.5 58.5t48.5 38t71.5 5t92.5 -41.5q139 -91 172 40z" />
    <glyph glyph-name="exclamdown" unicode="&#xa1;" horiz-adv-x="220" 
d="M78 497q13 13 32 13t32 -13t13 -32t-13 -32t-32 -13t-32 13t-13 32t13 32zM80 0l10 320h40l10 -320v-200h-60v200z" />
    <glyph glyph-name="cent" unicode="&#xa2;" horiz-adv-x="561" 
d="M486 241l42 -25q-30 -58 -90 -92.5t-132 -34.5q-41 0 -74 10l-32 -99h-40l36 111q-70 30 -111.5 94t-41.5 145q0 111 75 186t188 75q21 0 53 -5l31 94h40l-34 -104q90 -31 128 -113l-41 -24q-28 64 -102 91l-133 -405q30 -8 58 -8q60 0 107.5 28t72.5 76zM94 350
q0 -63 32 -114.5t86 -77.5l132 402q-18 3 -38 3q-89 0 -151 -62q-61 -61 -61 -151z" />
    <glyph glyph-name="sterling" unicode="&#xa3;" horiz-adv-x="590" 
d="M196 293v-242h377v-51h-530v51h100v242h-80v47h80v170q0 94 59 147q58 54 142 54q136 0 187 -130l-43 -25q-38 104 -144 104q-65 0 -106.5 -40t-41.5 -110v-170h241v-47h-241z" />
    <glyph glyph-name="currency" unicode="&#xa4;" horiz-adv-x="553" 
d="M440 213l69 -70l-26 -26l-70 70q-59 -48 -137 -48t-136 48l-71 -70l-26 26l71 70q-50 59 -50 137t50 137l-71 70l26 26l71 -70q58 48 136 48t137 -48l70 70l26 -26l-69 -70q49 -59 49 -137t-49 -137zM161 465q-46 -46 -46 -115t46 -116q47 -47 115 -47t115 47
q47 49 47 116q0 68 -47 115q-47 48 -115 48t-115 -48z" />
    <glyph glyph-name="yen" unicode="&#xa5;" horiz-adv-x="570" 
d="M513 700h60l-221 -356h145v-45h-172l-7 -11v-66h179v-44h-179v-178h-53v178h-191v44h191v66l-7 11h-184v45h157l-221 356h60l219 -356h5z" />
    <glyph glyph-name="brokenbar" unicode="&#xa6;" horiz-adv-x="224" 
d="M137 350h-50v370h50v-370zM137 -200h-50v370h50v-370z" />
    <glyph glyph-name="section" unicode="&#xa7;" horiz-adv-x="508" 
d="M399 137q46 -43 46 -103q0 -64 -49 -104q-50 -42 -129 -42q-154 0 -202 130l43 25q33 -106 159 -106q57 0 92 26t35 71q0 51 -55 84q-24 17 -49 28q-3 2 -64 29q-71 31 -111 61q-52 42 -52 107q0 74 70 120q-43 43 -43 101q0 62 47 104q47 43 123 43q64 0 110 -30.5
t68 -86.5l-41 -23q-38 92 -137 92q-51 0 -85 -27.5t-34 -71.5q0 -56 76 -98q14 -8 87 -40q67 -29 109 -63q52 -40 52 -106q0 -73 -66 -120zM114 343q0 -43 32 -71t100 -54q80 -30 114 -51q54 35 54 90q0 43 -31 70t-101 56q-74 29 -111 51q-57 -34 -57 -91z" />
    <glyph glyph-name="dieresis" unicode="&#xa8;" horiz-adv-x="293" 
d="M57 577q-16 0 -26.5 10.5t-10.5 25.5q0 16 10.5 26.5t26.5 10.5q15 0 25.5 -10.5t10.5 -26.5q0 -15 -10.5 -25.5t-25.5 -10.5zM237 577q-16 0 -26.5 10.5t-10.5 25.5q0 16 10.5 26.5t26.5 10.5q15 0 25.5 -10.5t10.5 -26.5q0 -15 -10.5 -25.5t-25.5 -10.5z" />
    <glyph glyph-name="copyright" unicode="&#xa9;" horiz-adv-x="817" 
d="M665 94q-107 -105 -256 -105t-256 105q-106 106 -106 256t106 255q106 106 256 106t256 -106q106 -105 106 -255t-106 -256zM171 111q100 -98 238 -98q139 0 237 98q98 100 98 239q0 140 -98 238q-98 99 -237 99t-238 -99q-98 -98 -98 -238q0 -139 98 -239zM412 158
q-84 0 -139 55t-55 137q0 81 55 136q56 56 139 56q53 0 96 -25t67 -68l-42 -24q-16 33 -48.5 51.5t-72.5 18.5q-64 0 -104 -43q-40 -41 -40 -102q0 -60 40 -103q40 -42 104 -42q40 0 73 19t48 52l43 -25q-24 -43 -67.5 -68t-96.5 -25z" />
    <glyph glyph-name="guillemotleft" unicode="&#xab;" horiz-adv-x="469" 
d="M187 482h62l-107 -173l107 -173h-62l-107 173zM327 482h62l-106 -173l106 -173h-62l-106 173z" />
    <glyph glyph-name="logicalnot" unicode="&#xac;" horiz-adv-x="520" 
d="M63 333v49h394v-173h-51v124h-343z" />
    <glyph glyph-name="registered" unicode="&#xae;" horiz-adv-x="817" 
d="M153 605q106 106 256 106t256 -106q106 -105 106 -255t-106 -256q-107 -105 -256 -105t-256 105q-106 106 -106 256t106 255zM171 111q100 -98 238 -98q139 0 237 98q98 100 98 239q0 140 -98 238q-98 99 -237 99t-238 -99q-98 -98 -98 -238q0 -139 98 -239zM549 419
q0 -82 -75 -106l84 -148h-53l-78 139h-14h-63v-139h-48v370h111q64 0 100 -33t36 -83zM350 489v-139h65q86 0 86 69q0 33 -22.5 51.5t-63.5 18.5h-65z" />
    <glyph glyph-name="overscore" unicode="&#xaf;" horiz-adv-x="293" 
d="M273 587h-253v44h253v-44z" />
    <glyph glyph-name="degree" unicode="&#xb0;" horiz-adv-x="386" 
d="M193 517q-63 0 -107 42q-43 43 -43 104t43 104t107 43t107 -43t43 -104q0 -62 -43 -104q-42 -42 -107 -42zM193 563q44 0 72 28t28 72q0 43 -29 72t-71 29q-43 0 -71.5 -29t-28.5 -72q0 -42 28.5 -71t71.5 -29z" />
    <glyph glyph-name="plusminus" unicode="&#xb1;" horiz-adv-x="533" 
d="M291 607v-169h179v-49h-179v-169h-49v169h-179v49h179v169h49zM470 93h-407v49h407v-49z" />
    <glyph glyph-name="acute" unicode="&#xb4;" horiz-adv-x="180" 
d="M20 570l80 127h60l-91 -127h-49z" />
    <glyph glyph-name="uni00B5" unicode="&#xb5;" horiz-adv-x="607" 
d="M541 49h33v-49h-38q-40 0 -63.5 24.5t-23.5 65.5v3q-56 -104 -178 -104q-98 0 -144 67v-256h-50v700h50v-311q0 -70 39.5 -111t108.5 -41q79 0 126.5 52t47.5 147v264h51v-410q0 -19 11 -30t30 -11z" />
    <glyph glyph-name="paragraph" unicode="&#xb6;" horiz-adv-x="570" 
d="M237 700h290v-47h-60v-853h-50v853h-131v-853h-49v513q-81 0 -138 57q-56 58 -56 137q0 80 56 136q57 57 138 57z" />
    <glyph glyph-name="middot" unicode="&#xb7;" horiz-adv-x="213" 
d="M139 313q-13 -13 -32 -13t-32 13t-13 32t13 32t32 13t32 -13t13 -32t-13 -32z" />
    <glyph glyph-name="cedilla" unicode="&#xb8;" horiz-adv-x="228" 
d="M120 0v-56q41 -5 66 -25t25 -50q0 -95 -195 -80v41q151 -14 151 39q0 43 -92 43v88h45z" />
    <glyph glyph-name="guillemotright" unicode="&#xbb;" horiz-adv-x="469" 
d="M80 482h62l106 -173l-106 -173h-62l106 173zM220 482h62l107 -173l-107 -173h-62l107 173z" />
    <glyph glyph-name="onequarter" unicode="&#xbc;" horiz-adv-x="829" 
d="M174 700v-400h-48v346l-100 -33l-13 42l123 45h38zM133 0l406 700h47l-407 -700h-46zM751 125h54v-45h-54v-80h-48v80h-213v45l150 275h52l-150 -275h161v104h48v-104z" />
    <glyph glyph-name="onehalf" unicode="&#xbd;" horiz-adv-x="815" 
d="M174 700v-400h-48v346l-100 -33l-13 42l123 45h38zM133 0l406 700h47l-407 -700h-46zM715 171l-137 -125h204v-46h-275v39l175 163q44 39 44 90q0 33 -22.5 53.5t-60.5 20.5q-69 0 -95 -66l-40 22q16 42 51.5 66t83.5 24q58 0 94.5 -34t36.5 -86q0 -65 -59 -121z" />
    <glyph glyph-name="threequarters" unicode="&#xbe;" horiz-adv-x="932" 
d="M308 415q0 -57 -38.5 -92t-103.5 -35q-100 0 -138 81l40 23q25 -58 98 -58q45 0 69.5 22t24.5 59t-25 59.5t-69 22.5h-4l-23 35l97 122h-196v46h252v-46l-96 -119q53 -7 82.5 -39t29.5 -81zM236 0l406 700h47l-407 -700h-46zM854 125h54v-45h-54v-80h-48v80h-213v45
l150 275h52l-150 -275h161v104h48v-104z" />
    <glyph glyph-name="questiondown" unicode="&#xbf;" horiz-adv-x="530" 
d="M251 497q13 13 32 13t32 -13t13 -32t-13 -32t-32 -13t-32 13t-13 32t13 32zM257 320h53q0 -88 -68 -162q-9 -10 -33 -34t-35.5 -37.5t-27 -34.5t-22.5 -41.5t-7 -41.5q0 -62 40.5 -95.5t111.5 -33.5q61 0 104 28t59 78l45 -25q-21 -62 -77.5 -97t-130.5 -35
q-89 0 -147 48q-59 47 -59 132q0 73 68 145q2 2 27.5 28t31 32.5t24 29.5t24.5 37t12.5 36t6.5 43z" />
    <glyph glyph-name="Agrave" unicode="&#xc0;" horiz-adv-x="629" 
d="M283 897l80 -127h-48l-92 127h60zM614 0h-56l-68 178h-351l-68 -178h-56l272 700h56zM315 635l-156 -407h312z" />
    <glyph glyph-name="Aacute" unicode="&#xc1;" horiz-adv-x="629" 
d="M353 897h60l-91 -127h-49zM614 0h-56l-68 178h-351l-68 -178h-56l272 700h56zM315 635l-156 -407h312z" />
    <glyph glyph-name="Acircumflex" unicode="&#xc2;" horiz-adv-x="629" 
d="M395 770l-80 95l-81 -95h-57l108 127h59l108 -127h-57zM614 0h-56l-68 178h-351l-68 -178h-56l272 700h56zM315 635l-156 -407h312z" />
    <glyph glyph-name="Atilde" unicode="&#xc3;" horiz-adv-x="629" 
d="M313 811q-90 82 -90 -28h-44q0 55 20 82.5t51.5 24.5t66.5 -33q90 -77 90 28h44q0 -82 -43 -101t-95 27zM614 0h-56l-68 178h-351l-68 -178h-56l272 700h56zM315 635l-156 -407h312z" />
    <glyph glyph-name="Adieresis" unicode="&#xc4;" horiz-adv-x="629" 
d="M225 777q-16 0 -26.5 10.5t-10.5 25.5q0 16 10.5 26.5t26.5 10.5q15 0 25.5 -10.5t10.5 -26.5q0 -15 -10.5 -25.5t-25.5 -10.5zM405 777q-16 0 -26.5 10.5t-10.5 25.5q0 16 10.5 26.5t26.5 10.5q15 0 25.5 -10.5t10.5 -26.5q0 -15 -10.5 -25.5t-25.5 -10.5zM614 0h-56
l-68 178h-351l-68 -178h-56l272 700h56zM315 635l-156 -407h312z" />
    <glyph glyph-name="Aring" unicode="&#xc5;" horiz-adv-x="629" 
d="M614 0h-56l-68 178h-351l-68 -178h-56l263 676q-31 10 -48.5 34.5t-17.5 56.5q0 42 28.5 69.5t73.5 27.5t74 -27.5t29 -69.5q0 -32 -17.5 -56.5t-47.5 -34.5zM314 710q38 -3 53.5 27t0 60t-53.5 27q-27 0 -43 -16t-16 -41t16 -41t43 -16zM315 635l-156 -407h312z" />
    <glyph glyph-name="AE" unicode="&#xc6;" horiz-adv-x="873" 
d="M503 328v-278h326v-50h-380v183h-273l-112 -183h-61l429 700h392v-50h-321v-272h303v-50h-303zM449 631l-243 -398h243v398z" />
    <glyph glyph-name="Ccedilla" unicode="&#xc7;" horiz-adv-x="751" 
d="M666 187l47 -27q-41 -74 -115.5 -119.5t-164.5 -50.5v-46q41 -5 66 -25t25 -50q0 -95 -195 -80v41q151 -14 151 39q0 43 -92 43v78q-149 8 -245 111t-96 249q0 153 103 256q104 105 261 105q97 0 176 -46q81 -46 124 -122l-47 -27q-34 64 -103 104q-67 40 -150 40
q-135 0 -224 -90q-87 -89 -87 -220t87 -221q89 -89 224 -89q81 0 150.5 40t104.5 107z" />
    <glyph glyph-name="Egrave" unicode="&#xc8;" horiz-adv-x="533" 
d="M254 897l80 -127h-48l-92 127h60zM140 328v-278h350v-50h-403v700h398v-50h-345v-272h320v-50h-320z" />
    <glyph glyph-name="Eacute" unicode="&#xc9;" horiz-adv-x="533" 
d="M324 897h60l-91 -127h-49zM140 328v-278h350v-50h-403v700h398v-50h-345v-272h320v-50h-320z" />
    <glyph glyph-name="Ecircumflex" unicode="&#xca;" horiz-adv-x="533" 
d="M366 770l-80 95l-81 -95h-57l108 127h59l108 -127h-57zM140 328v-278h350v-50h-403v700h398v-50h-345v-272h320v-50h-320z" />
    <glyph glyph-name="Edieresis" unicode="&#xcb;" horiz-adv-x="533" 
d="M196 777q-16 0 -26.5 10.5t-10.5 25.5q0 16 10.5 26.5t26.5 10.5q15 0 25.5 -10.5t10.5 -26.5q0 -15 -10.5 -25.5t-25.5 -10.5zM376 777q-16 0 -26.5 10.5t-10.5 25.5q0 16 10.5 26.5t26.5 10.5q15 0 25.5 -10.5t10.5 -26.5q0 -15 -10.5 -25.5t-25.5 -10.5zM140 328v-278
h350v-50h-403v700h398v-50h-345v-272h320v-50h-320z" />
    <glyph glyph-name="Igrave" unicode="&#xcc;" horiz-adv-x="227" 
d="M161 770h-48l-92 127h60zM87 700v-700h53v700h-53z" />
    <glyph glyph-name="Iacute" unicode="&#xcd;" horiz-adv-x="227" 
d="M71 770l80 127h60l-91 -127h-49zM87 700v-700h53v700h-53z" />
    <glyph glyph-name="Icircumflex" unicode="&#xce;" horiz-adv-x="227" 
d="M83 897h59l108 -127h-57l-80 95l-81 -95h-57zM140 0h-53v700h53v-700z" />
    <glyph glyph-name="Idieresis" unicode="&#xcf;" horiz-adv-x="227" 
d="M23 777q-16 0 -26.5 10.5t-10.5 25.5q0 16 10.5 26.5t26.5 10.5q15 0 25.5 -10.5t10.5 -26.5q0 -15 -10.5 -25.5t-25.5 -10.5zM203 777q-16 0 -26.5 10.5t-10.5 25.5q0 16 10.5 26.5t26.5 10.5q15 0 25.5 -10.5t10.5 -26.5q0 -15 -10.5 -25.5t-25.5 -10.5zM87 0v700h53
v-700h-53z" />
    <glyph glyph-name="Eth" unicode="&#xd0;" horiz-adv-x="747" 
d="M107 700h263q143 0 236 -102q94 -100 94 -248t-94 -249q-93 -101 -236 -101h-263v326h-67v48h67v326zM160 50h210q122 0 200 86q78 87 78 214q0 128 -78 213q-78 87 -200 87h-210v-276h240v-48h-240v-276z" />
    <glyph glyph-name="Ntilde" unicode="&#xd1;" horiz-adv-x="687" 
d="M248 783h-44q0 55 20 82.5t51.5 24.5t66.5 -33q90 -77 90 28h44q0 -82 -43 -101t-95 27q-90 82 -90 -28zM547 98v602h53v-700h-47l-413 602v-602h-53v700h46z" />
    <glyph glyph-name="Ograve" unicode="&#xd2;" horiz-adv-x="816" 
d="M456 770h-48l-92 127h60zM664 94q105 106 105 256t-105 255q-105 106 -256 106t-256 -106q-105 -105 -105 -255t105 -256q105 -105 256 -105t256 105zM189 130q-89 92 -89 220t89 219q90 91 219 91q130 0 218 -91q90 -90 90 -219q0 -128 -90 -220q-88 -90 -218 -90
q-129 0 -219 90z" />
    <glyph glyph-name="Oacute" unicode="&#xd3;" horiz-adv-x="816" 
d="M366 770l80 127h60l-91 -127h-49zM664 94q105 106 105 256t-105 255q-105 106 -256 106t-256 -106q-105 -105 -105 -255t105 -256q105 -105 256 -105t256 105zM189 130q-89 92 -89 220t89 219q90 91 219 91q130 0 218 -91q90 -90 90 -219q0 -128 -90 -220
q-88 -90 -218 -90q-129 0 -219 90z" />
    <glyph glyph-name="Ocircumflex" unicode="&#xd4;" horiz-adv-x="816" 
d="M488 770l-80 95l-81 -95h-57l108 127h59l108 -127h-57zM152 605q105 106 256 106t256 -106q105 -105 105 -255t-105 -256q-105 -105 -256 -105t-256 105q-105 106 -105 256t105 255zM189 130q90 -90 219 -90q130 0 218 90q90 92 90 220q0 129 -90 219q-88 91 -218 91
q-129 0 -219 -91q-89 -91 -89 -219t89 -220z" />
    <glyph glyph-name="Otilde" unicode="&#xd5;" horiz-adv-x="816" 
d="M316 783h-44q0 55 20 82.5t51.5 24.5t66.5 -33q90 -77 90 28h44q0 -82 -43 -101t-95 27q-90 82 -90 -28zM664 94q-105 -105 -256 -105t-256 105q-105 106 -105 256t105 255q105 106 256 106t256 -106q105 -105 105 -255t-105 -256zM189 130q90 -90 219 -90q130 0 218 90
q90 92 90 220q0 129 -90 219q-88 91 -218 91q-129 0 -219 -91q-89 -91 -89 -219t89 -220z" />
    <glyph glyph-name="Odieresis" unicode="&#xd6;" horiz-adv-x="816" 
d="M318 777q-16 0 -26.5 10.5t-10.5 25.5q0 16 10.5 26.5t26.5 10.5q15 0 25.5 -10.5t10.5 -26.5q0 -15 -10.5 -25.5t-25.5 -10.5zM498 777q-16 0 -26.5 10.5t-10.5 25.5q0 16 10.5 26.5t26.5 10.5q15 0 25.5 -10.5t10.5 -26.5q0 -15 -10.5 -25.5t-25.5 -10.5zM664 94
q-105 -105 -256 -105t-256 105q-105 106 -105 256t105 255q105 106 256 106t256 -106q105 -105 105 -255t-105 -256zM189 130q90 -90 219 -90q130 0 218 90q90 92 90 220q0 129 -90 219q-88 91 -218 91q-129 0 -219 -91q-89 -91 -89 -219t89 -220z" />
    <glyph glyph-name="multiply" unicode="&#xd7;" horiz-adv-x="469" 
d="M377 526l35 -32l-144 -144l144 -144l-35 -32l-143 143l-143 -143l-34 32l144 144l-144 144l34 32l143 -143z" />
    <glyph glyph-name="Oslash" unicode="&#xd8;" horiz-adv-x="826" 
d="M727 679l-58 -68q110 -107 110 -261q0 -150 -105 -256q-105 -105 -256 -105q-125 0 -219 73l-53 -62l-37 21l58 68q-110 107 -110 261q0 150 105 255q105 106 256 106q123 0 220 -73l53 62zM201 128l403 470q-82 62 -186 62q-129 0 -219 -91q-89 -91 -89 -219
q0 -130 91 -222zM418 40q130 0 218 90q90 92 90 220q0 130 -91 221l-402 -470q82 -61 185 -61z" />
    <glyph glyph-name="Ugrave" unicode="&#xd9;" horiz-adv-x="667" 
d="M380 770h-48l-92 127h60zM77 234q0 -111 70 -178t186 -67t186 67q71 68 71 178v466h-53v-466q0 -89 -54 -141.5t-150 -52.5t-149.5 52.5t-53.5 141.5v466h-53v-466z" />
    <glyph glyph-name="Uacute" unicode="&#xda;" horiz-adv-x="667" 
d="M290 770l80 127h60l-91 -127h-49zM77 234q0 -111 70 -178t186 -67t186 67q71 68 71 178v466h-53v-466q0 -89 -54 -141.5t-150 -52.5t-149.5 52.5t-53.5 141.5v466h-53v-466z" />
    <glyph glyph-name="Ucircumflex" unicode="&#xdb;" horiz-adv-x="667" 
d="M412 770l-80 95l-81 -95h-57l108 127h59l108 -127h-57zM537 234v466h53v-466q0 -110 -71 -178q-70 -67 -186 -67t-186 67t-70 178v466h53v-466q0 -89 53.5 -141.5t149.5 -52.5t150 52.5t54 141.5z" />
    <glyph glyph-name="Udieresis" unicode="&#xdc;" horiz-adv-x="667" 
d="M242 777q-16 0 -26.5 10.5t-10.5 25.5q0 16 10.5 26.5t26.5 10.5q15 0 25.5 -10.5t10.5 -26.5q0 -15 -10.5 -25.5t-25.5 -10.5zM422 777q-16 0 -26.5 10.5t-10.5 25.5q0 16 10.5 26.5t26.5 10.5q15 0 25.5 -10.5t10.5 -26.5q0 -15 -10.5 -25.5t-25.5 -10.5zM77 234v466
h53v-466q0 -89 53.5 -141.5t149.5 -52.5t150 52.5t54 141.5v466h53v-466q0 -110 -71 -178q-70 -67 -186 -67t-186 67t-70 178z" />
    <glyph glyph-name="Yacute" unicode="&#xdd;" horiz-adv-x="583" 
d="M327 897h60l-91 -127h-49zM513 700h60l-255 -412v-288h-53v288l-255 412h60l222 -361z" />
    <glyph glyph-name="Thorn" unicode="&#xde;" horiz-adv-x="587" 
d="M140 567h185q94 0 156 -62t62 -155t-62 -155t-156 -62h-185v-133h-53v700h53v-133zM140 183h185q71 0 118 47q47 49 47 120q0 73 -47 120t-118 47h-185v-334z" />
    <glyph glyph-name="germandbls" unicode="&#xdf;" horiz-adv-x="516" 
d="M290 -4v46q72 -4 112 22t40 77q0 31 -21.5 67t-52.5 65q-73 73 -73 121q0 21 14 42.5t31.5 37.5t31.5 39t14 45q0 47 -32 76t-86 29q-64 0 -102.5 -38.5t-38.5 -108.5v-516h-50v516q0 90 52.5 142.5t138.5 52.5q78 0 124 -44q45 -43 45 -109q0 -49 -69 -122
q-22 -23 -23 -42t15 -40q9 -13 48.5 -53t62 -78t22.5 -82q0 -71 -54.5 -110.5t-148.5 -34.5z" />
    <glyph glyph-name="agrave" unicode="&#xe0;" horiz-adv-x="645" 
d="M275 697l80 -127h-48l-92 127h60zM517 387v113h51v-500h-51v113q-33 -58 -89 -91t-126 -33q-106 0 -183 75q-76 76 -76 186t76 185q76 76 183 76q70 0 126 -33t89 -91zM155 99q62 -62 151 -62q88 0 150 62q61 61 61 151t-61 151q-62 62 -150 62q-89 0 -151 -62
q-61 -61 -61 -151t61 -151z" />
    <glyph glyph-name="aacute" unicode="&#xe1;" horiz-adv-x="645" 
d="M345 697h60l-91 -127h-49zM517 387v113h51v-500h-51v113q-33 -58 -89 -91t-126 -33q-106 0 -183 75q-76 76 -76 186t76 185q76 76 183 76q70 0 126 -33t89 -91zM155 99q62 -62 151 -62q88 0 150 62q61 61 61 151t-61 151q-62 62 -150 62q-89 0 -151 -62q-61 -61 -61 -151
t61 -151z" />
    <glyph glyph-name="acircumflex" unicode="&#xe2;" horiz-adv-x="645" 
d="M387 570l-80 95l-81 -95h-57l108 127h59l108 -127h-57zM517 387v113h51v-500h-51v113q-33 -58 -89 -91t-126 -33q-106 0 -183 75q-76 76 -76 186t76 185q76 76 183 76q70 0 126 -33t89 -91zM155 99q62 -62 151 -62q88 0 150 62q61 61 61 151t-61 151q-62 62 -150 62
q-89 0 -151 -62q-61 -61 -61 -151t61 -151z" />
    <glyph glyph-name="atilde" unicode="&#xe3;" horiz-adv-x="645" 
d="M305 611q-90 82 -90 -28h-44q0 55 20 82.5t51.5 24.5t66.5 -33q90 -77 90 28h44q0 -82 -43 -101t-95 27zM517 387v113h51v-500h-51v113q-33 -58 -89 -91t-126 -33q-106 0 -183 75q-76 76 -76 186t76 185q76 76 183 76q70 0 126 -33t89 -91zM155 99q62 -62 151 -62
q88 0 150 62q61 61 61 151t-61 151q-62 62 -150 62q-89 0 -151 -62q-61 -61 -61 -151t61 -151z" />
    <glyph glyph-name="adieresis" unicode="&#xe4;" horiz-adv-x="645" 
d="M217 577q-16 0 -26.5 10.5t-10.5 25.5q0 16 10.5 26.5t26.5 10.5q15 0 25.5 -10.5t10.5 -26.5q0 -15 -10.5 -25.5t-25.5 -10.5zM397 577q-16 0 -26.5 10.5t-10.5 25.5q0 16 10.5 26.5t26.5 10.5q15 0 25.5 -10.5t10.5 -26.5q0 -15 -10.5 -25.5t-25.5 -10.5zM517 387v113
h51v-500h-51v113q-33 -58 -89 -91t-126 -33q-106 0 -183 75q-76 76 -76 186t76 185q76 76 183 76q70 0 126 -33t89 -91zM155 99q62 -62 151 -62q88 0 150 62q61 61 61 151t-61 151q-62 62 -150 62q-89 0 -151 -62q-61 -61 -61 -151t61 -151z" />
    <glyph glyph-name="aring" unicode="&#xe5;" horiz-adv-x="645" 
d="M307 553q-45 0 -73.5 27.5t-28.5 69.5t28.5 69.5t73.5 27.5t74 -27.5t29 -69.5t-29 -69.5t-74 -27.5zM307 707q-27 0 -43 -16t-16 -41t16 -41t43 -16q38 -3 53.5 27t0 60t-53.5 27zM517 387v113h51v-500h-51v113q-33 -58 -89 -91t-126 -33q-106 0 -183 75q-76 76 -76 186
t76 185q76 76 183 76q70 0 126 -33t89 -91zM155 99q62 -62 151 -62q88 0 150 62q61 61 61 151t-61 151q-62 62 -150 62q-89 0 -151 -62q-61 -61 -61 -151t61 -151z" />
    <glyph glyph-name="ae" unicode="&#xe6;" horiz-adv-x="1061" 
d="M777 511q113 0 178 -77q66 -76 66 -186q0 -2 -0.5 -12t-0.5 -12h-451q7 -84 65 -136q57 -51 143 -51q61 0 107 24.5t70 66.5l44 -26q-31 -52 -88 -82.5t-127 -30.5q-74 0 -130 32.5t-86 92.5v-114h-50v113q-33 -58 -89 -91t-126 -33q-106 0 -183 75q-76 76 -76 186
t76 185q76 76 183 76q70 0 126 -33t89 -91v113h50v-116q30 60 84 93.5t126 33.5zM155 99q62 -62 151 -62q88 0 150 62q61 61 61 151t-61 151q-62 62 -150 62q-89 0 -151 -62q-61 -61 -61 -151t61 -151zM775 463q-87 0 -143 -53q-55 -52 -63 -137h401q-8 90 -63 139
q-54 51 -132 51z" />
    <glyph glyph-name="ccedilla" unicode="&#xe7;" horiz-adv-x="561" 
d="M486 141l42 -25q-28 -53 -81 -87t-119 -39v-46q41 -5 66 -25t25 -50q0 -95 -195 -80v41q151 -14 151 39q0 43 -92 43v78q-105 8 -172 81q-68 74 -68 179q0 111 75 186t188 75q73 0 132 -34.5t86 -93.5l-41 -24q-22 48 -69.5 76t-107.5 28q-89 0 -151 -62
q-61 -61 -61 -151q0 -91 61 -152t151 -61q60 0 107.5 28t72.5 76z" />
    <glyph glyph-name="egrave" unicode="&#xe8;" horiz-adv-x="589" 
d="M264 697l80 -127h-48l-92 127h60zM302 511q110 0 178 -78q69 -78 69 -185q0 -2 -0.5 -12t-0.5 -12h-453q9 -84 67 -136q58 -51 145 -51q59 0 104 24.5t69 66.5l44 -26q-31 -52 -88.5 -82.5t-129.5 -30.5q-116 0 -189 73q-74 74 -74 188q0 112 72 186q74 75 187 75z
M302 463q-84 0 -142 -53q-57 -53 -65 -137h402q-8 89 -64 139q-56 51 -131 51z" />
    <glyph glyph-name="eacute" unicode="&#xe9;" horiz-adv-x="589" 
d="M334 697h60l-91 -127h-49zM302 511q110 0 178 -78q69 -78 69 -185q0 -2 -0.5 -12t-0.5 -12h-453q9 -84 67 -136q58 -51 145 -51q59 0 104 24.5t69 66.5l44 -26q-31 -52 -88.5 -82.5t-129.5 -30.5q-116 0 -189 73q-74 74 -74 188q0 112 72 186q74 75 187 75zM302 463
q-84 0 -142 -53q-57 -53 -65 -137h402q-8 89 -64 139q-56 51 -131 51z" />
    <glyph glyph-name="ecircumflex" unicode="&#xea;" horiz-adv-x="589" 
d="M376 570l-80 95l-81 -95h-57l108 127h59l108 -127h-57zM302 511q110 0 178 -78q69 -78 69 -185q0 -2 -0.5 -12t-0.5 -12h-453q9 -84 67 -136q58 -51 145 -51q59 0 104 24.5t69 66.5l44 -26q-31 -52 -88.5 -82.5t-129.5 -30.5q-116 0 -189 73q-74 74 -74 188q0 112 72 186
q74 75 187 75zM302 463q-84 0 -142 -53q-57 -53 -65 -137h402q-8 89 -64 139q-56 51 -131 51z" />
    <glyph glyph-name="edieresis" unicode="&#xeb;" horiz-adv-x="589" 
d="M206 577q-16 0 -26.5 10.5t-10.5 25.5q0 16 10.5 26.5t26.5 10.5q15 0 25.5 -10.5t10.5 -26.5q0 -15 -10.5 -25.5t-25.5 -10.5zM386 577q-16 0 -26.5 10.5t-10.5 25.5q0 16 10.5 26.5t26.5 10.5q15 0 25.5 -10.5t10.5 -26.5q0 -15 -10.5 -25.5t-25.5 -10.5zM302 511
q110 0 178 -78q69 -78 69 -185q0 -2 -0.5 -12t-0.5 -12h-453q9 -84 67 -136q58 -51 145 -51q59 0 104 24.5t69 66.5l44 -26q-31 -52 -88.5 -82.5t-129.5 -30.5q-116 0 -189 73q-74 74 -74 188q0 112 72 186q74 75 187 75zM302 463q-84 0 -142 -53q-57 -53 -65 -137h402
q-8 89 -64 139q-56 51 -131 51z" />
    <glyph glyph-name="igrave" unicode="&#xec;" horiz-adv-x="204" 
d="M128 570h-49l-66 127h60zM127 0v500h-50v-500h50z" />
    <glyph glyph-name="iacute" unicode="&#xed;" horiz-adv-x="204" 
d="M75 570l55 127h61l-67 -127h-49zM77 0h50v500h-50v-500z" />
    <glyph glyph-name="icircumflex" unicode="&#xee;" horiz-adv-x="204" 
d="M72 697h60l84 -127h-57l-57 86l-57 -86h-57zM127 0h-50v500h50v-500z" />
    <glyph glyph-name="idieresis" unicode="&#xef;" horiz-adv-x="204" 
d="M35 577q-15 0 -25.5 10.5t-10.5 25.5q0 16 10.5 26.5t25.5 10.5q16 0 26.5 -10.5t10.5 -26.5q0 -15 -10.5 -25.5t-26.5 -10.5zM169 577q-16 0 -26.5 10.5t-10.5 25.5q0 16 10.5 26.5t26.5 10.5q15 0 25.5 -10.5t10.5 -26.5q0 -15 -10.5 -25.5t-25.5 -10.5zM127 0h-50v500
h50v-500z" />
    <glyph glyph-name="eth" unicode="&#xf0;" horiz-adv-x="587" 
d="M323 605l175 -235q46 -61 46 -140q0 -106 -74 -174q-73 -67 -176 -67q-104 0 -177 67q-74 68 -74 174q0 103 72 169q73 66 171 66q56 0 99 -22l-103 137l-119 -73v46l96 59l-66 88h59l47 -63l111 68v-46zM493 230q0 68 -33 112q-57 75 -166 75q-85 0 -143 -53
q-57 -52 -57 -134q0 -85 58 -139t142 -54t141 54q58 54 58 139z" />
    <glyph glyph-name="ntilde" unicode="&#xf1;" 
d="M290 611q-90 82 -90 -28h-44q0 55 20 82.5t51.5 24.5t66.5 -33q90 -77 90 28h44q0 -82 -43 -101t-95 27zM306 511q89 0 141.5 -54.5t52.5 -145.5v-311h-51v311q0 70 -39 111t-108 41q-79 0 -127 -52t-48 -147v-264h-50v500h50v-95q54 106 179 106z" />
    <glyph glyph-name="ograve" unicode="&#xf2;" horiz-adv-x="611" 
d="M351 570h-48l-92 127h60zM306 -11q108 0 185 75q77 77 77 186q0 110 -77 185q-76 76 -185 76q-111 0 -187 -76q-76 -75 -76 -185t76 -186q77 -75 187 -75zM155 99q-61 61 -61 151t61 151q62 62 151 62q88 0 150 -62q61 -61 61 -151t-61 -151q-62 -62 -150 -62
q-89 0 -151 62z" />
    <glyph glyph-name="oacute" unicode="&#xf3;" horiz-adv-x="611" 
d="M261 570l80 127h60l-91 -127h-49zM306 -11q108 0 185 75q77 77 77 186q0 110 -77 185q-76 76 -185 76q-111 0 -187 -76q-76 -75 -76 -185t76 -186q77 -75 187 -75zM155 99q-61 61 -61 151t61 151q62 62 151 62q88 0 150 -62q61 -61 61 -151t-61 -151q-62 -62 -150 -62
q-89 0 -151 62z" />
    <glyph glyph-name="ocircumflex" unicode="&#xf4;" horiz-adv-x="611" 
d="M383 570l-80 95l-81 -95h-57l108 127h59l108 -127h-57zM306 511q109 0 185 -76q77 -75 77 -185q0 -109 -77 -186q-77 -75 -185 -75q-110 0 -187 75q-76 76 -76 186t76 185q76 76 187 76zM155 99q62 -62 151 -62q88 0 150 62q61 61 61 151t-61 151q-62 62 -150 62
q-89 0 -151 -62q-61 -61 -61 -151t61 -151z" />
    <glyph glyph-name="otilde" unicode="&#xf5;" horiz-adv-x="611" 
d="M211 583h-44q0 55 20 82.5t51.5 24.5t66.5 -33q90 -77 90 28h44q0 -82 -43 -101t-95 27q-90 82 -90 -28zM306 -11q-110 0 -187 75q-76 76 -76 186t76 185q76 76 187 76q109 0 185 -76q77 -75 77 -185q0 -109 -77 -186q-77 -75 -185 -75zM155 99q62 -62 151 -62
q88 0 150 62q61 61 61 151t-61 151q-62 62 -150 62q-89 0 -151 -62q-61 -61 -61 -151t61 -151z" />
    <glyph glyph-name="odieresis" unicode="&#xf6;" horiz-adv-x="611" 
d="M213 577q-16 0 -26.5 10.5t-10.5 25.5q0 16 10.5 26.5t26.5 10.5q15 0 25.5 -10.5t10.5 -26.5q0 -15 -10.5 -25.5t-25.5 -10.5zM393 577q-16 0 -26.5 10.5t-10.5 25.5q0 16 10.5 26.5t26.5 10.5q15 0 25.5 -10.5t10.5 -26.5q0 -15 -10.5 -25.5t-25.5 -10.5zM306 -11
q-110 0 -187 75q-76 76 -76 186t76 185q76 76 187 76q109 0 185 -76q77 -75 77 -185q0 -109 -77 -186q-77 -75 -185 -75zM155 99q62 -62 151 -62q88 0 150 62q61 61 61 151t-61 151q-62 62 -150 62q-89 0 -151 -62q-61 -61 -61 -151t61 -151z" />
    <glyph glyph-name="divide" unicode="&#xf7;" horiz-adv-x="580" 
d="M322 505q-13 -13 -32 -13t-32 13t-13 32t13 32t32 13t32 -13t13 -32t-13 -32zM517 326h-454v48h454v-48zM322 131q-13 -13 -32 -13t-32 13t-13 32t13 32t32 13t32 -13t13 -32t-13 -32z" />
    <glyph glyph-name="oslash" unicode="&#xf8;" horiz-adv-x="611" 
d="M542 485l-47 -52q73 -76 73 -183q0 -109 -77 -186q-77 -75 -185 -75q-93 0 -163 55l-42 -47l-31 18l47 52q-74 74 -74 183q0 110 76 185q76 76 187 76q92 0 162 -55l42 47zM94 250q0 -84 56 -146l285 316q-55 43 -129 43q-89 0 -151 -62q-61 -61 -61 -151zM306 37
q88 0 150 62q61 61 61 151q0 84 -56 146l-285 -316q56 -43 130 -43z" />
    <glyph glyph-name="ugrave" unicode="&#xf9;" 
d="M242 697l80 -127h-48l-92 127h60zM437 236v264h50v-500h-50v95q-54 -106 -179 -106q-89 0 -141.5 54.5t-52.5 145.5v311h51v-311q0 -70 39 -111t108 -41q79 0 127 52t48 147z" />
    <glyph glyph-name="uacute" unicode="&#xfa;" 
d="M312 697h60l-91 -127h-49zM437 236v264h50v-500h-50v95q-54 -106 -179 -106q-89 0 -141.5 54.5t-52.5 145.5v311h51v-311q0 -70 39 -111t108 -41q79 0 127 52t48 147z" />
    <glyph glyph-name="ucircumflex" unicode="&#xfb;" 
d="M354 570l-80 95l-81 -95h-57l108 127h59l108 -127h-57zM437 236v264h50v-500h-50v95q-54 -106 -179 -106q-89 0 -141.5 54.5t-52.5 145.5v311h51v-311q0 -70 39 -111t108 -41q79 0 127 52t48 147z" />
    <glyph glyph-name="udieresis" unicode="&#xfc;" 
d="M184 577q-16 0 -26.5 10.5t-10.5 25.5q0 16 10.5 26.5t26.5 10.5q15 0 25.5 -10.5t10.5 -26.5q0 -15 -10.5 -25.5t-25.5 -10.5zM364 577q-16 0 -26.5 10.5t-10.5 25.5q0 16 10.5 26.5t26.5 10.5q15 0 25.5 -10.5t10.5 -26.5q0 -15 -10.5 -25.5t-25.5 -10.5zM437 236v264
h50v-500h-50v95q-54 -106 -179 -106q-89 0 -141.5 54.5t-52.5 145.5v311h51v-311q0 -70 39 -111t108 -41q79 0 127 52t48 147z" />
    <glyph glyph-name="yacute" unicode="&#xfd;" horiz-adv-x="510" 
d="M296 697h60l-91 -127h-49zM269 55l174 445h54l-216 -546q-30 -75 -83 -117t-115 -37v47q47 -4 86 27t63 90l11 27l-230 509h54z" />
    <glyph glyph-name="thorn" unicode="&#xfe;" horiz-adv-x="645" 
d="M342 511q108 0 183 -76q76 -75 76 -185t-76 -186q-75 -75 -183 -75q-71 0 -127.5 33.5t-87.5 93.5v-316h-50v900h50v-316q31 60 87.5 93.5t127.5 33.5zM188 99q62 -62 151 -62q88 0 150 62t62 151t-62 151t-150 62q-89 0 -151 -62q-61 -61 -61 -151t61 -151z" />
    <glyph glyph-name="ydieresis" unicode="&#xff;" horiz-adv-x="510" 
d="M168 577q-16 0 -26.5 10.5t-10.5 25.5q0 16 10.5 26.5t26.5 10.5q15 0 25.5 -10.5t10.5 -26.5q0 -15 -10.5 -25.5t-25.5 -10.5zM348 577q-16 0 -26.5 10.5t-10.5 25.5q0 16 10.5 26.5t26.5 10.5q15 0 25.5 -10.5t10.5 -26.5q0 -15 -10.5 -25.5t-25.5 -10.5zM269 55
l174 445h54l-216 -546q-30 -75 -83 -117t-115 -37v47q47 -4 86 27t63 90l11 27l-230 509h54z" />
    <glyph glyph-name="Amacron" unicode="&#x100;" horiz-adv-x="629" 
d="M188 831h253v-44h-253v44zM614 0h-56l-68 178h-351l-68 -178h-56l272 700h56zM315 635l-156 -407h312z" />
    <glyph glyph-name="amacron" unicode="&#x101;" horiz-adv-x="645" 
d="M180 631h253v-44h-253v44zM517 387v113h51v-500h-51v113q-33 -58 -89 -91t-126 -33q-106 0 -183 75q-76 76 -76 186t76 185q76 76 183 76q70 0 126 -33t89 -91zM155 99q62 -62 151 -62q88 0 150 62q61 61 61 151t-61 151q-62 62 -150 62q-89 0 -151 -62q-61 -61 -61 -151
t61 -151z" />
    <glyph glyph-name="Abreve" unicode="&#x102;" horiz-adv-x="629" 
d="M182 887h48q0 -78 85 -78t85 78h48q0 -57 -36 -89.5t-97 -32.5t-97 32.5t-36 89.5zM614 0h-56l-68 178h-351l-68 -178h-56l272 700h56zM315 635l-156 -407h312z" />
    <glyph glyph-name="abreve" unicode="&#x103;" horiz-adv-x="645" 
d="M174 687h48q0 -78 85 -78t85 78h48q0 -57 -36 -89.5t-97 -32.5t-97 32.5t-36 89.5zM517 387v113h51v-500h-51v113q-33 -58 -89 -91t-126 -33q-106 0 -183 75q-76 76 -76 186t76 185q76 76 183 76q70 0 126 -33t89 -91zM155 99q62 -62 151 -62q88 0 150 62q61 61 61 151
t-61 151q-62 62 -150 62q-89 0 -151 -62q-61 -61 -61 -151t61 -151z" />
    <glyph glyph-name="Aogonek" unicode="&#x104;" horiz-adv-x="629" 
d="M531 -131q0 -37 40 -37q23 0 43 9v-42q-20 -10 -54 -10q-37 0 -57.5 19.5t-20.5 52.5q0 65 77 139h-1l-68 178h-351l-68 -178h-56l272 700h56l271 -700q-83 -75 -83 -131zM315 635l-156 -407h312z" />
    <glyph glyph-name="aogonek" unicode="&#x105;" horiz-adv-x="645" 
d="M568 500v-500q-83 -75 -83 -131q0 -37 40 -37q22 0 43 9v-42q-21 -10 -54 -10q-37 0 -57.5 19.5t-20.5 52.5q0 67 81 149v103q-33 -58 -89 -91t-126 -33q-106 0 -183 75q-76 76 -76 186t76 185q76 76 183 76q70 0 126 -33t89 -91v113h51zM155 99q62 -62 151 -62
q88 0 150 62q61 61 61 151t-61 151q-62 62 -150 62q-89 0 -151 -62q-61 -61 -61 -151t61 -151z" />
    <glyph glyph-name="Cacute" unicode="&#x106;" horiz-adv-x="751" 
d="M369 770l80 127h60l-91 -127h-49zM411 -11q96 0 177.5 46.5t124.5 124.5l-47 27q-35 -67 -104.5 -107t-150.5 -40q-135 0 -224 89q-87 90 -87 221t87 220q89 90 224 90q83 0 150 -40q69 -40 103 -104l47 27q-43 76 -124 122q-79 46 -176 46q-157 0 -261 -105
q-103 -103 -103 -256t103 -257q104 -104 261 -104z" />
    <glyph glyph-name="cacute" unicode="&#x107;" horiz-adv-x="561" 
d="M257 570l80 127h60l-91 -127h-49zM306 -11q72 0 132 34.5t90 92.5l-42 25q-25 -48 -72.5 -76t-107.5 -28q-90 0 -151 61t-61 152q0 90 61 151q62 62 151 62q60 0 107.5 -28t69.5 -76l41 24q-27 59 -86 93.5t-132 34.5q-113 0 -188 -75t-75 -186t75 -186t188 -75z" />
    <glyph glyph-name="Cdotaccent" unicode="&#x10a;" horiz-adv-x="751" 
d="M411 773q-20 0 -33.5 13.5t-13.5 33.5t13.5 33.5t33.5 13.5q19 0 32.5 -13.5t13.5 -33.5t-13.5 -33.5t-32.5 -13.5zM411 -11q-157 0 -261 104q-103 104 -103 257t103 256q104 105 261 105q97 0 176 -46q81 -46 124 -122l-47 -27q-34 64 -103 104q-67 40 -150 40
q-135 0 -224 -90q-87 -89 -87 -220t87 -221q89 -89 224 -89q81 0 150.5 40t104.5 107l47 -27q-43 -78 -124.5 -124.5t-177.5 -46.5z" />
    <glyph glyph-name="cdotaccent" unicode="&#x10b;" horiz-adv-x="561" 
d="M299 573q-20 0 -33.5 13.5t-13.5 33.5t13.5 33.5t33.5 13.5q19 0 32.5 -13.5t13.5 -33.5t-13.5 -33.5t-32.5 -13.5zM306 -11q-113 0 -188 75t-75 186t75 186t188 75q73 0 132 -34.5t86 -93.5l-41 -24q-22 48 -69.5 76t-107.5 28q-89 0 -151 -62q-61 -61 -61 -151
q0 -91 61 -152t151 -61q60 0 107.5 28t72.5 76l42 -25q-30 -58 -90 -92.5t-132 -34.5z" />
    <glyph glyph-name="Ccaron" unicode="&#x10c;" horiz-adv-x="751" 
d="M441 770h-60l-108 127h58l80 -95l80 95h58zM666 187l47 -27q-43 -78 -124.5 -124.5t-177.5 -46.5q-157 0 -261 104q-103 104 -103 257t103 256q104 105 261 105q97 0 176 -46q81 -46 124 -122l-47 -27q-34 64 -103 104q-67 40 -150 40q-135 0 -224 -90q-87 -89 -87 -220
t87 -221q89 -89 224 -89q81 0 150.5 40t104.5 107z" />
    <glyph glyph-name="ccaron" unicode="&#x10d;" horiz-adv-x="561" 
d="M329 570h-60l-108 127h58l80 -95l80 95h58zM486 141l42 -25q-30 -58 -90 -92.5t-132 -34.5q-113 0 -188 75t-75 186t75 186t188 75q73 0 132 -34.5t86 -93.5l-41 -24q-22 48 -69.5 76t-107.5 28q-89 0 -151 -62q-61 -61 -61 -151q0 -91 61 -152t151 -61q60 0 107.5 28
t72.5 76z" />
    <glyph glyph-name="Dcaron" unicode="&#x10e;" horiz-adv-x="727" 
d="M380 770h-60l-108 127h58l80 -95l80 95h58zM87 700h263q143 0 236 -102q94 -100 94 -248t-94 -249q-93 -101 -236 -101h-263v700zM140 50h210q122 0 200 86q78 87 78 214q0 128 -78 213q-78 87 -200 87h-210v-600z" />
    <glyph glyph-name="dcaron" unicode="&#x10f;" horiz-adv-x="697" 
d="M518 384v316h50v-700h-50v116q-31 -60 -87.5 -93.5t-127.5 -33.5q-107 0 -184 75q-75 76 -75 186t75 185q76 76 184 76q71 0 127.5 -33.5t87.5 -93.5zM643 530l10 170h50l-24 -170h-36zM155 99q62 -62 151 -62q88 0 150 62t62 151t-62 151t-150 62q-89 0 -151 -62
q-61 -61 -61 -151t61 -151z" />
    <glyph glyph-name="Dcroat" unicode="&#x110;" horiz-adv-x="747" 
d="M107 700h263q143 0 236 -102q94 -100 94 -248t-94 -249q-93 -101 -236 -101h-263v326h-67v48h67v326zM160 50h210q122 0 200 86q78 87 78 214q0 128 -78 213q-78 87 -200 87h-210v-276h240v-48h-240v-276z" />
    <glyph glyph-name="dslash" unicode="&#x111;" horiz-adv-x="653" 
d="M568 624h68v-42h-68v-582h-51v114q-31 -58 -87.5 -91.5t-127.5 -33.5q-106 0 -183 75q-76 76 -76 186t76 185q76 76 183 76q71 0 127.5 -33.5t87.5 -91.5v196h-201v42h201v76h51v-76zM155 99q62 -62 151 -62q88 0 150 62q61 61 61 151t-61 151q-62 62 -150 62
q-89 0 -151 -62q-61 -61 -61 -151t61 -151z" />
    <glyph glyph-name="Emacron" unicode="&#x112;" horiz-adv-x="533" 
d="M159 831h253v-44h-253v44zM140 328v-278h350v-50h-403v700h398v-50h-345v-272h320v-50h-320z" />
    <glyph glyph-name="emacron" unicode="&#x113;" horiz-adv-x="589" 
d="M169 631h253v-44h-253v44zM302 511q110 0 178 -78q69 -78 69 -185q0 -2 -0.5 -12t-0.5 -12h-453q9 -84 67 -136q58 -51 145 -51q59 0 104 24.5t69 66.5l44 -26q-31 -52 -88.5 -82.5t-129.5 -30.5q-116 0 -189 73q-74 74 -74 188q0 112 72 186q74 75 187 75zM302 463
q-84 0 -142 -53q-57 -53 -65 -137h402q-8 89 -64 139q-56 51 -131 51z" />
    <glyph glyph-name="Edotaccent" unicode="&#x116;" horiz-adv-x="533" 
d="M286 773q-20 0 -33.5 13.5t-13.5 33.5t13.5 33.5t33.5 13.5q19 0 32.5 -13.5t13.5 -33.5t-13.5 -33.5t-32.5 -13.5zM140 328v-278h350v-50h-403v700h398v-50h-345v-272h320v-50h-320z" />
    <glyph glyph-name="edotaccent" unicode="&#x117;" horiz-adv-x="589" 
d="M296 573q-20 0 -33.5 13.5t-13.5 33.5t13.5 33.5t33.5 13.5q19 0 32.5 -13.5t13.5 -33.5t-13.5 -33.5t-32.5 -13.5zM302 511q110 0 178 -78q69 -78 69 -185q0 -2 -0.5 -12t-0.5 -12h-453q9 -84 67 -136q58 -51 145 -51q59 0 104 24.5t69 66.5l44 -26q-31 -52 -88.5 -82.5
t-129.5 -30.5q-116 0 -189 73q-74 74 -74 188q0 112 72 186q74 75 187 75zM302 463q-84 0 -142 -53q-57 -53 -65 -137h402q-8 89 -64 139q-56 51 -131 51z" />
    <glyph glyph-name="Eogonek" unicode="&#x118;" horiz-adv-x="534" 
d="M490 0h-1q-83 -75 -83 -131q0 -37 41 -37q22 0 43 9v-42q-21 -10 -54 -10q-38 0 -58.5 19.5t-20.5 52.5q0 67 79 139h-349v700h398v-50h-345v-272h320v-50h-320v-278h350v-50z" />
    <glyph glyph-name="eogonek" unicode="&#x119;" horiz-adv-x="589" 
d="M302 511q110 0 178 -78q69 -78 69 -185q0 -2 -0.5 -12t-0.5 -12h-453q9 -84 67 -136q58 -51 145 -51q59 0 104 24.5t69 66.5l44 -26q-20 -31 -39 -47q-67 -76 -94.5 -117.5t-27.5 -68.5q0 -37 41 -37q22 0 43 9v-42q-21 -10 -55 -10q-37 0 -57.5 19.5t-20.5 52.5
q0 62 75 140q-37 -12 -83 -12q-116 0 -189 73q-74 74 -74 188q0 112 72 186q74 75 187 75zM302 463q-84 0 -142 -53q-57 -53 -65 -137h402q-8 89 -64 139q-56 51 -131 51z" />
    <glyph glyph-name="Ecaron" unicode="&#x11a;" horiz-adv-x="533" 
d="M316 770h-60l-108 127h58l80 -95l80 95h58zM140 328v-278h350v-50h-403v700h398v-50h-345v-272h320v-50h-320z" />
    <glyph glyph-name="ecaron" unicode="&#x11b;" horiz-adv-x="589" 
d="M326 570h-60l-108 127h58l80 -95l80 95h58zM302 511q110 0 178 -78q69 -78 69 -185q0 -2 -0.5 -12t-0.5 -12h-453q9 -84 67 -136q58 -51 145 -51q59 0 104 24.5t69 66.5l44 -26q-31 -52 -88.5 -82.5t-129.5 -30.5q-116 0 -189 73q-74 74 -74 188q0 112 72 186
q74 75 187 75zM302 463q-84 0 -142 -53q-57 -53 -65 -137h402q-8 89 -64 139q-56 51 -131 51z" />
    <glyph glyph-name="Gbreve" unicode="&#x11e;" horiz-adv-x="799" 
d="M268 887h48q0 -78 85 -78t85 78h48q0 -57 -36 -89.5t-97 -32.5t-97 32.5t-36 89.5zM402 326h351v-27q0 -131 -93 -221q-94 -89 -245 -89q-160 0 -264 104q-104 106 -104 257q0 153 103 256q104 105 261 105q97 0 176 -46q82 -47 125 -123l-47 -28q-34 65 -104 106
q-67 40 -150 40q-135 0 -224 -90q-87 -89 -87 -220q0 -132 88 -221q89 -89 227 -89q123 0 199 67t85 169h-297v50z" />
    <glyph glyph-name="gbreve" unicode="&#x11f;" horiz-adv-x="648" 
d="M182 687h48q0 -78 85 -78t85 78h48q0 -57 -36 -89.5t-97 -32.5t-97 32.5t-36 89.5zM521 384v116h50v-476q0 -109 -71 -172t-178 -63q-85 0 -146.5 31.5t-89.5 88.5l44 25q48 -97 192 -97q93 0 146 50t53 137v92q-31 -60 -87.5 -93.5t-127.5 -33.5q-107 0 -184 75
q-75 76 -75 186t75 185q76 76 184 76q71 0 127.5 -33.5t87.5 -93.5zM158 99q62 -62 151 -62q88 0 150 62t62 151t-62 151t-150 62q-89 0 -151 -62q-61 -61 -61 -151t61 -151z" />
    <glyph glyph-name="Gdotaccent" unicode="&#x120;" horiz-adv-x="799" 
d="M401 773q-20 0 -33.5 13.5t-13.5 33.5t13.5 33.5t33.5 13.5q19 0 32.5 -13.5t13.5 -33.5t-13.5 -33.5t-32.5 -13.5zM402 326h351v-27q0 -131 -93 -221q-94 -89 -245 -89q-160 0 -264 104q-104 106 -104 257q0 153 103 256q104 105 261 105q97 0 176 -46q82 -47 125 -123
l-47 -28q-34 65 -104 106q-67 40 -150 40q-135 0 -224 -90q-87 -89 -87 -220q0 -132 88 -221q89 -89 227 -89q123 0 199 67t85 169h-297v50z" />
    <glyph glyph-name="gdotaccent" unicode="&#x121;" horiz-adv-x="648" 
d="M315 573q-20 0 -33.5 13.5t-13.5 33.5t13.5 33.5t33.5 13.5q19 0 32.5 -13.5t13.5 -33.5t-13.5 -33.5t-32.5 -13.5zM521 384v116h50v-476q0 -109 -71 -172t-178 -63q-85 0 -146.5 31.5t-89.5 88.5l44 25q48 -97 192 -97q93 0 146 50t53 137v92q-31 -60 -87.5 -93.5
t-127.5 -33.5q-107 0 -184 75q-75 76 -75 186t75 185q76 76 184 76q71 0 127.5 -33.5t87.5 -93.5zM158 99q62 -62 151 -62q88 0 150 62t62 151t-62 151t-150 62q-89 0 -151 -62q-61 -61 -61 -151t61 -151z" />
    <glyph glyph-name="Gcommaaccent" unicode="&#x122;" horiz-adv-x="799" 
d="M402 326h351v-27q0 -131 -93 -221q-94 -89 -245 -89q-160 0 -264 104q-104 106 -104 257q0 153 103 256q104 105 261 105q97 0 176 -46q82 -47 125 -123l-47 -28q-34 65 -104 106q-67 40 -150 40q-135 0 -224 -90q-87 -89 -87 -220q0 -132 88 -221q89 -89 227 -89
q123 0 199 67t85 169h-297v50zM430 -240h-36l10 170h51z" />
    <glyph glyph-name="gcommaaccent" unicode="&#x123;" horiz-adv-x="648" 
d="M308 760h36l-10 -170h-51zM521 384v116h50v-476q0 -109 -71 -172t-178 -63q-85 0 -146.5 31.5t-89.5 88.5l44 25q48 -97 192 -97q93 0 146 50t53 137v92q-31 -60 -87.5 -93.5t-127.5 -33.5q-107 0 -184 75q-75 76 -75 186t75 185q76 76 184 76q71 0 127.5 -33.5
t87.5 -93.5zM158 99q62 -62 151 -62q88 0 150 62t62 151t-62 151t-150 62q-89 0 -151 -62q-61 -61 -61 -151t61 -151z" />
    <glyph glyph-name="Hbar" unicode="&#x126;" horiz-adv-x="740" 
d="M627 562h66v-44h-66v-518h-54v335h-406v-335h-54v518h-66v44h66v138h54v-138h406v138h54v-138zM167 385h406v133h-406v-133z" />
    <glyph glyph-name="hbar" unicode="&#x127;" horiz-adv-x="577" 
d="M319 511q89 0 141.5 -54.5t52.5 -145.5v-311h-50v311q0 70 -39.5 111t-108.5 41q-79 0 -126.5 -52t-47.5 -147v-264h-51v582h-73v42h73v76h51v-76h156v-42h-156v-175q56 104 178 104z" />
    <glyph glyph-name="Imacron" unicode="&#x12a;" horiz-adv-x="227" 
d="M239 787h-253v44h253v-44zM87 0v700h53v-700h-53z" />
    <glyph glyph-name="imacron" unicode="&#x12b;" horiz-adv-x="204" 
d="M195 587h-186v44h186v-44zM127 0h-50v500h50v-500z" />
    <glyph glyph-name="Iogonek" unicode="&#x12e;" horiz-adv-x="227" 
d="M133 -168q22 0 43 9v-42q-20 -10 -54 -10q-38 0 -58.5 19.5t-20.5 52.5q0 56 44 141v698h53v-700l-25 -47q-22 -49 -22 -84q0 -37 40 -37z" />
    <glyph glyph-name="iogonek" unicode="&#x12f;" horiz-adv-x="204" 
d="M62 661q-1 24 19.5 33.5t41 0t19.5 -33.5q1 -25 -19.5 -35t-41 0t-19.5 35zM123 -168q22 0 43 9v-42q-20 -10 -54 -10q-36 0 -57.5 22.5t-21.5 57.5q0 54 44 137v494h50v-500q-44 -76 -44 -123q0 -19 11 -32t29 -13z" />
    <glyph glyph-name="Idot" unicode="&#x130;" horiz-adv-x="227" 
d="M113 773q-20 0 -33.5 13.5t-13.5 33.5t13.5 33.5t33.5 13.5q19 0 32.5 -13.5t13.5 -33.5t-13.5 -33.5t-32.5 -13.5zM87 0v700h53v-700h-53z" />
    <glyph glyph-name="dotlessi" unicode="&#x131;" horiz-adv-x="204" 
d="M127 0h-50v500h50v-500z" />
    <glyph glyph-name="Kcommaaccent" unicode="&#x136;" horiz-adv-x="572" 
d="M552 700l-354 -340l364 -360h-71l-351 345v-345h-53v700h53v-326l341 326h71zM312 -240h-36l10 170h51z" />
    <glyph glyph-name="kcommaaccent" unicode="&#x137;" horiz-adv-x="483" 
d="M450 500l-269 -240l279 -260h-68l-265 246v-246h-50v700h50v-427l253 227h70zM264 -240h-36l10 170h51z" />
    <glyph glyph-name="Lacute" unicode="&#x139;" horiz-adv-x="493" 
d="M167 897h60l-91 -127h-49zM140 700v-650h330v-50h-383v700h53z" />
    <glyph glyph-name="lacute" unicode="&#x13a;" horiz-adv-x="204" 
d="M76 770l80 127h60l-91 -127h-49zM77 0h50v730h-50v-730z" />
    <glyph glyph-name="Lcommaaccent" unicode="&#x13b;" horiz-adv-x="493" 
d="M140 700v-650h330v-50h-383v700h53zM287 -240h-36l10 170h51z" />
    <glyph glyph-name="lcommaaccent" unicode="&#x13c;" horiz-adv-x="204" 
d="M127 0h-50v730h50v-730zM104 -240h-36l10 170h51z" />
    <glyph glyph-name="Lcaron" unicode="&#x13d;" horiz-adv-x="493" 
d="M140 700v-650h330v-50h-383v700h53zM273 700h50l-24 -170h-36z" />
    <glyph glyph-name="lcaron" unicode="&#x13e;" horiz-adv-x="257" 
d="M127 0h-50v730h50v-730zM239 560h-36l10 170h50z" />
    <glyph glyph-name="Lslash" unicode="&#x141;" horiz-adv-x="510" 
d="M157 281v-231h330v-50h-383v250l-61 -36v49l61 36v401h53v-370l183 108v-49z" />
    <glyph glyph-name="lslash" unicode="&#x142;" horiz-adv-x="240" 
d="M145 402l75 51v-49l-75 -51v-353h-50v318l-75 -51v49l75 51v363h50v-328z" />
    <glyph glyph-name="Nacute" unicode="&#x143;" horiz-adv-x="687" 
d="M298 770l80 127h60l-91 -127h-49zM547 700v-602l-414 602h-46v-700h53v602l413 -602h47v700h-53z" />
    <glyph glyph-name="nacute" unicode="&#x144;" 
d="M330 697h60l-91 -127h-49zM306 511q89 0 141.5 -54.5t52.5 -145.5v-311h-51v311q0 70 -39 111t-108 41q-79 0 -127 -52t-48 -147v-264h-50v500h50v-95q54 106 179 106z" />
    <glyph glyph-name="Ncommaaccent" unicode="&#x145;" horiz-adv-x="687" 
d="M547 98v602h53v-700h-47l-413 602v-602h-53v700h46zM342 -240h-36l10 170h51z" />
    <glyph glyph-name="ncommaaccent" unicode="&#x146;" 
d="M306 511q89 0 141.5 -54.5t52.5 -145.5v-311h-51v311q0 70 -39 111t-108 41q-79 0 -127 -52t-48 -147v-264h-50v500h50v-95q54 106 179 106zM297 -240h-36l10 170h51z" />
    <glyph glyph-name="Ncaron" unicode="&#x147;" horiz-adv-x="687" 
d="M370 770h-60l-108 127h58l80 -95l80 95h58zM547 98v602h53v-700h-47l-413 602v-602h-53v700h46z" />
    <glyph glyph-name="ncaron" unicode="&#x148;" 
d="M322 570h-60l-108 127h58l80 -95l80 95h58zM306 511q89 0 141.5 -54.5t52.5 -145.5v-311h-51v311q0 70 -39 111t-108 41q-79 0 -127 -52t-48 -147v-264h-50v500h50v-95q54 106 179 106z" />
    <glyph glyph-name="Eng" unicode="&#x14a;" horiz-adv-x="687" 
d="M547 98v602h53v-700q0 -200 -205 -200v51q78 0 115 33.5t37 115.5v9l-407 593v-602h-53v700h46z" />
    <glyph glyph-name="eng" unicode="&#x14b;" 
d="M306 511q89 0 141.5 -54.5t52.5 -145.5v-368q0 -80 -43 -120.5t-123 -33.5v48q59 -6 87 20t28 86v368q0 70 -39 111t-108 41q-79 0 -127 -52t-48 -147v-264h-50v500h50v-95q54 106 179 106z" />
    <glyph glyph-name="Omacron" unicode="&#x14c;" horiz-adv-x="816" 
d="M534 787h-253v44h253v-44zM664 94q-105 -105 -256 -105t-256 105q-105 106 -105 256t105 255q105 106 256 106t256 -106q105 -105 105 -255t-105 -256zM189 130q90 -90 219 -90q130 0 218 90q90 92 90 220q0 129 -90 219q-88 91 -218 91q-129 0 -219 -91
q-89 -91 -89 -219t89 -220z" />
    <glyph glyph-name="omacron" unicode="&#x14d;" horiz-adv-x="611" 
d="M429 587h-253v44h253v-44zM306 -11q-110 0 -187 75q-76 76 -76 186t76 185q76 76 187 76q109 0 185 -76q77 -75 77 -185q0 -109 -77 -186q-77 -75 -185 -75zM155 99q62 -62 151 -62q88 0 150 62q61 61 61 151t-61 151q-62 62 -150 62q-89 0 -151 -62q-61 -61 -61 -151
t61 -151z" />
    <glyph glyph-name="Ohungarumlaut" unicode="&#x150;" horiz-adv-x="816" 
d="M285 770l70 130h56l-75 -130h-51zM427 770l80 130h56l-85 -130h-51zM664 94q105 106 105 256t-105 255q-105 106 -256 106t-256 -106q-105 -105 -105 -255t105 -256q105 -105 256 -105t256 105zM189 130q-89 92 -89 220t89 219q90 91 219 91q130 0 218 -91
q90 -90 90 -219q0 -128 -90 -220q-88 -90 -218 -90q-129 0 -219 90z" />
    <glyph glyph-name="ohungarumlaut" unicode="&#x151;" horiz-adv-x="611" 
d="M180 570l70 130h56l-75 -130h-51zM322 570l80 130h56l-85 -130h-51zM306 -11q108 0 185 75q77 77 77 186q0 110 -77 185q-76 76 -185 76q-111 0 -187 -76q-76 -75 -76 -185t76 -186q77 -75 187 -75zM155 99q-61 61 -61 151t61 151q62 62 151 62q88 0 150 -62
q61 -61 61 -151t-61 -151q-62 -62 -150 -62q-89 0 -151 62z" />
    <glyph glyph-name="OE" unicode="&#x152;" horiz-adv-x="912" 
d="M545 328v-278h324v-50h-377q-46 -11 -94 -11q-153 0 -252 104q-99 105 -99 257t99 256q99 105 252 105q48 0 94 -11h372v-50h-319v-272h300v-50h-300zM492 54v592q-45 14 -94 14q-131 0 -215 -90q-83 -89 -83 -220q0 -130 83 -221q84 -89 215 -89q49 0 94 14z" />
    <glyph glyph-name="oe" unicode="&#x153;" horiz-adv-x="1061" 
d="M775 511q109 0 177 -78q69 -78 69 -185q0 -19 -1 -24h-453q9 -84 67 -136q58 -51 145 -51q59 0 104 24.5t69 66.5l44 -26q-31 -52 -88 -82.5t-128 -30.5q-85 0 -148.5 42.5t-90.5 116.5q-28 -73 -91.5 -116t-143.5 -43q-112 0 -188 75q-75 75 -75 186t75 186
q76 75 188 75q81 0 144 -43.5t91 -116.5q27 74 89.5 117t144.5 43zM306 37q89 0 149 61q61 61 61 152q0 90 -61 151q-60 62 -149 62q-90 0 -152 -62q-60 -61 -60 -151t60 -152q61 -61 152 -61zM774 463q-83 0 -142 -53q-57 -53 -65 -137h402q-8 89 -64 139q-55 51 -131 51z
" />
    <glyph glyph-name="Racute" unicode="&#x154;" horiz-adv-x="613" 
d="M351 897h60l-91 -127h-49zM590 0h-61l-168 287h-221v-287h-53v700h276q85 0 146 -61t61 -146q0 -70 -44 -126q-43 -55 -110 -73zM363 650h-223v-313h223q64 0 109 45q45 46 45 111t-45 111t-109 46z" />
    <glyph glyph-name="racute" unicode="&#x155;" horiz-adv-x="318" 
d="M223 697h60l-91 -127h-49zM127 500v-98q45 105 167 105v-48q-74 0 -120.5 -47t-46.5 -134v-278h-50v500h50z" />
    <glyph glyph-name="Rcommaaccent" unicode="&#x156;" horiz-adv-x="613" 
d="M416 294l174 -294h-61l-168 287h-221v-287h-53v700h276q85 0 146 -61t61 -146q0 -70 -44 -126q-43 -55 -110 -73zM363 650h-223v-313h223q64 0 109 45q45 46 45 111t-45 111t-109 46zM335 -240h-36l10 170h51z" />
    <glyph glyph-name="rcommaaccent" unicode="&#x157;" horiz-adv-x="318" 
d="M127 500v-98q45 105 167 105v-48q-74 0 -120.5 -47t-46.5 -134v-278h-50v500h50zM103 -240h-36l10 170h51z" />
    <glyph glyph-name="Rcaron" unicode="&#x158;" horiz-adv-x="613" 
d="M343 770h-60l-108 127h58l80 -95l80 95h58zM590 0h-61l-168 287h-221v-287h-53v700h276q85 0 146 -61t61 -146q0 -70 -44 -126q-43 -55 -110 -73zM363 650h-223v-313h223q64 0 109 45q45 46 45 111t-45 111t-109 46z" />
    <glyph glyph-name="rcaron" unicode="&#x159;" horiz-adv-x="318" 
d="M215 570h-60l-108 127h58l80 -95l80 95h58zM127 500v-98q45 105 167 105v-48q-74 0 -120.5 -47t-46.5 -134v-278h-50v500h50z" />
    <glyph glyph-name="Sacute" unicode="&#x15a;" horiz-adv-x="574" 
d="M238 770l80 127h60l-91 -127h-49zM301 -11q105 0 167 52q63 53 63 140t-72 131q-36 23 -70 37q-31 13 -90 33q-91 30 -131 58t-40 85q0 60 43.5 97.5t114.5 37.5q131 0 180 -121l45 25q-28 67 -86.5 107t-138.5 40q-91 0 -152 -52q-60 -51 -60 -136q0 -45 23 -85
q14 -24 62 -54q12 -8 43 -21l44 -17l50 -16q95 -31 137 -61q44 -32 44 -89q0 -64 -46.5 -102t-129.5 -38t-137 37.5t-73 103.5l-46 -27q24 -76 92 -120.5t164 -44.5z" />
    <glyph glyph-name="sacute" unicode="&#x15b;" horiz-adv-x="458" 
d="M267 697h60l-91 -127h-49zM111 369q0 -63 107 -90q31 -7 45.5 -10.5t43 -12t43 -18.5t32 -25t25 -35.5t7.5 -46.5q0 -63 -49.5 -102.5t-129.5 -39.5q-71 0 -121 30t-69 81l43 25q14 -42 52.5 -65t94.5 -23q58 0 93.5 25t35.5 69q0 68 -107 91q-100 24 -134 44
q-62 36 -62 103q0 60 47 101q49 41 123 41q59 0 104 -27t66 -73l-42 -24q-15 36 -49.5 56t-78.5 20q-52 0 -86 -26t-34 -68z" />
    <glyph glyph-name="Scedilla" unicode="&#x15e;" horiz-adv-x="574" 
d="M531 181q0 -86 -61 -138q-60 -53 -160 -54v-45q41 -5 66 -25t25 -50q0 -95 -195 -80v41q151 -14 151 39q0 43 -92 43v79q-83 8 -140.5 51t-79.5 112l46 27q19 -66 73 -103.5t137 -37.5t129.5 38t46.5 102q0 57 -44 89q-42 30 -137 61l-50 16l-44 17q-31 13 -43 21
q-48 30 -62 54q-23 40 -23 85q0 85 60 136q61 52 152 52q80 0 138.5 -40t86.5 -107l-45 -25q-49 121 -180 121q-71 0 -114.5 -37.5t-43.5 -97.5q0 -57 40 -85t131 -58q59 -20 90 -33q34 -14 70 -37q72 -44 72 -131z" />
    <glyph glyph-name="scedilla" unicode="&#x15f;" horiz-adv-x="458" 
d="M414 131q0 -58 -43.5 -97t-114.5 -44v-46q41 -5 66 -25t25 -50q0 -95 -195 -80v41q151 -14 151 39q0 43 -92 43v78q-62 5 -105 34.5t-61 75.5l43 25q14 -42 52.5 -65t94.5 -23q58 0 93.5 25t35.5 69q0 68 -107 91q-100 24 -134 44q-62 36 -62 103q0 60 47 101
q49 41 123 41q59 0 104 -27t66 -73l-42 -24q-15 36 -49.5 56t-78.5 20q-52 0 -86 -26t-34 -68q0 -63 107 -90q31 -7 45.5 -10.5t43 -12t43 -18.5t32 -25t25 -35.5t7.5 -46.5z" />
    <glyph glyph-name="Scaron" unicode="&#x160;" horiz-adv-x="574" 
d="M310 770h-60l-108 127h58l80 -95l80 95h58zM299 382q59 -20 90 -33q34 -14 70 -37q72 -44 72 -131t-63 -140q-62 -52 -167 -52q-96 0 -164 44.5t-92 120.5l46 27q19 -66 73 -103.5t137 -37.5t129.5 38t46.5 102q0 57 -44 89q-42 30 -137 61l-50 16l-44 17q-31 13 -43 21
q-48 30 -62 54q-23 40 -23 85q0 85 60 136q61 52 152 52q80 0 138.5 -40t86.5 -107l-45 -25q-49 121 -180 121q-71 0 -114.5 -37.5t-43.5 -97.5q0 -57 40 -85t131 -58z" />
    <glyph glyph-name="scaron" unicode="&#x161;" horiz-adv-x="458" 
d="M259 570h-60l-108 127h58l80 -95l80 95h58zM111 369q0 -63 107 -90q31 -7 45.5 -10.5t43 -12t43 -18.5t32 -25t25 -35.5t7.5 -46.5q0 -63 -49.5 -102.5t-129.5 -39.5q-71 0 -121 30t-69 81l43 25q14 -42 52.5 -65t94.5 -23q58 0 93.5 25t35.5 69q0 68 -107 91
q-100 24 -134 44q-62 36 -62 103q0 60 47 101q49 41 123 41q59 0 104 -27t66 -73l-42 -24q-15 36 -49.5 56t-78.5 20q-52 0 -86 -26t-34 -68z" />
    <glyph glyph-name="uni0162" unicode="&#x162;" horiz-adv-x="540" 
d="M23 700h494v-50h-220v-650h-54v650h-220v50zM272 -240h-36l10 170h51z" />
    <glyph glyph-name="uni0163" unicode="&#x163;" horiz-adv-x="376" 
d="M333 500v-49h-149v-325q0 -61 32.5 -75t116.5 -6v-45q-103 -15 -151.5 14.5t-48.5 111.5v325h-110v49h110v125l51 15v-140h149zM238 -240h-36l10 170h51z" />
    <glyph glyph-name="Tcaron" unicode="&#x164;" horiz-adv-x="540" 
d="M300 770h-60l-108 127h58l80 -95l80 95h58zM23 700h494v-50h-220v-650h-54v650h-220v50z" />
    <glyph glyph-name="tcaron" unicode="&#x165;" horiz-adv-x="376" 
d="M253 714h50l-24 -157h-36zM333 500v-49h-149v-325q0 -61 32.5 -75t116.5 -6v-45q-103 -15 -151.5 14.5t-48.5 111.5v325h-110v49h110v125l51 15v-140h149z" />
    <glyph glyph-name="Tbar" unicode="&#x166;" horiz-adv-x="540" 
d="M517 700v-50h-220v-276h153v-48h-153v-326h-54v326h-153v48h153v276h-220v50h494z" />
    <glyph glyph-name="tbar" unicode="&#x167;" horiz-adv-x="376" 
d="M333 500v-49h-149v-168h100v-42h-100v-115q0 -61 32.5 -75t116.5 -6v-45q-103 -15 -151.5 14.5t-48.5 111.5v115h-69v42h69v168h-110v49h110v125l51 15v-140h149z" />
    <glyph glyph-name="Umacron" unicode="&#x16a;" horiz-adv-x="667" 
d="M458 787h-253v44h253v-44zM77 234v466h53v-466q0 -89 53.5 -141.5t149.5 -52.5t150 52.5t54 141.5v466h53v-466q0 -110 -71 -178q-70 -67 -186 -67t-186 67t-70 178z" />
    <glyph glyph-name="umacron" unicode="&#x16b;" 
d="M147 631h253v-44h-253v44zM437 236v264h50v-500h-50v95q-54 -106 -179 -106q-89 0 -141.5 54.5t-52.5 145.5v311h51v-311q0 -70 39 -111t108 -41q79 0 127 52t48 147z" />
    <glyph glyph-name="Uring" unicode="&#x16e;" horiz-adv-x="667" 
d="M331 720q-45 0 -73.5 27.5t-28.5 69.5t28.5 69.5t73.5 27.5t74 -27.5t29 -69.5t-29 -69.5t-74 -27.5zM331 760q38 -3 53.5 27t0 60t-53.5 27q-27 0 -43 -16t-16 -41t16 -41t43 -16zM77 234v466h53v-466q0 -89 53.5 -141.5t149.5 -52.5t150 52.5t54 141.5v466h53v-466
q0 -110 -71 -178q-70 -67 -186 -67t-186 67t-70 178z" />
    <glyph glyph-name="uring" unicode="&#x16f;" 
d="M274 553q-45 0 -73.5 27.5t-28.5 69.5t28.5 69.5t73.5 27.5t74 -27.5t29 -69.5t-29 -69.5t-74 -27.5zM274 707q-27 0 -43 -16t-16 -41t16 -41t43 -16q38 -3 53.5 27t0 60t-53.5 27zM437 236v264h50v-500h-50v95q-54 -106 -179 -106q-89 0 -141.5 54.5t-52.5 145.5v311h51
v-311q0 -70 39 -111t108 -41q79 0 127 52t48 147z" />
    <glyph glyph-name="Uhungarumlaut" unicode="&#x170;" horiz-adv-x="667" 
d="M209 770l70 130h56l-75 -130h-51zM351 770l80 130h56l-85 -130h-51zM77 234q0 -111 70 -178t186 -67t186 67q71 68 71 178v466h-53v-466q0 -89 -54 -141.5t-150 -52.5t-149.5 52.5t-53.5 141.5v466h-53v-466z" />
    <glyph glyph-name="uhungarumlaut" unicode="&#x171;" 
d="M221 700h56l-75 -130h-51zM373 700h56l-85 -130h-51zM437 236v264h50v-500h-50v95q-54 -106 -179 -106q-89 0 -141.5 54.5t-52.5 145.5v311h51v-311q0 -70 39 -111t108 -41q79 0 127 52t48 147z" />
    <glyph glyph-name="Uogonek" unicode="&#x172;" horiz-adv-x="667" 
d="M537 234v466h53v-466q0 -126 -88 -193q-69 -60 -101 -101q-27 -36 -27 -71q0 -37 40 -37q22 0 43 9v-42q-20 -10 -54 -10q-38 0 -58.5 19.5t-20.5 52.5q0 63 75 134q-31 -6 -66 -6q-116 0 -186 67t-70 178v466h53v-466q0 -89 53.5 -141.5t149.5 -52.5t150 52.5t54 141.5z
" />
    <glyph glyph-name="uogonek" unicode="&#x173;" 
d="M487 500v-500q-83 -75 -83 -131q0 -37 40 -37q22 0 43 9v-42q-21 -10 -54 -10q-37 0 -57.5 19.5t-20.5 52.5q0 61 82 149v85q-54 -106 -179 -106q-89 0 -141.5 54.5t-52.5 145.5v311h51v-311q0 -70 39 -111t108 -41q79 0 127 52t48 147v264h50z" />
    <glyph glyph-name="Wcircumflex" unicode="&#x174;" horiz-adv-x="993" 
d="M554 770l-80 95l-81 -95h-57l108 127h59l108 -127h-57zM724 71l180 629h56l-203 -700h-64l-196 631l-197 -631h-64l-203 700h56l181 -629l195 629h63z" />
    <glyph glyph-name="wcircumflex" unicode="&#x175;" horiz-adv-x="770" 
d="M465 570l-80 95l-81 -95h-57l108 127h59l108 -127h-57zM551 65l133 435h53l-158 -500h-55l-139 426l-139 -426h-55l-158 500h53l133 -435l140 435h52z" />
    <glyph glyph-name="Ycircumflex" unicode="&#x176;" horiz-adv-x="583" 
d="M369 770l-80 95l-81 -95h-57l108 127h59l108 -127h-57zM513 700h60l-255 -412v-288h-53v288l-255 412h60l222 -361z" />
    <glyph glyph-name="ycircumflex" unicode="&#x177;" horiz-adv-x="510" 
d="M338 570l-80 95l-81 -95h-57l108 127h59l108 -127h-57zM269 55l174 445h54l-216 -546q-30 -75 -83 -117t-115 -37v47q47 -4 86 27t63 90l11 27l-230 509h54z" />
    <glyph glyph-name="Ydieresis" unicode="&#x178;" horiz-adv-x="583" 
d="M199 777q-16 0 -26.5 10.5t-10.5 25.5q0 16 10.5 26.5t26.5 10.5q15 0 25.5 -10.5t10.5 -26.5q0 -15 -10.5 -25.5t-25.5 -10.5zM379 777q-16 0 -26.5 10.5t-10.5 25.5q0 16 10.5 26.5t26.5 10.5q15 0 25.5 -10.5t10.5 -26.5q0 -15 -10.5 -25.5t-25.5 -10.5zM513 700h60
l-255 -412v-288h-53v288l-255 412h60l222 -361z" />
    <glyph glyph-name="Zacute" unicode="&#x179;" horiz-adv-x="523" 
d="M305 897h60l-91 -127h-49zM480 650l-378 -600h388v-50h-447v50l378 600h-368v50h427v-50z" />
    <glyph glyph-name="zacute" unicode="&#x17a;" horiz-adv-x="477" 
d="M283 697h60l-91 -127h-49zM423 467l-299 -418h309v-49h-380v33l300 418h-290v49h360v-33z" />
    <glyph glyph-name="Zdotaccent" unicode="&#x17b;" horiz-adv-x="523" 
d="M267 773q-20 0 -33.5 13.5t-13.5 33.5t13.5 33.5t33.5 13.5q19 0 32.5 -13.5t13.5 -33.5t-13.5 -33.5t-32.5 -13.5zM480 650l-378 -600h388v-50h-447v50l378 600h-368v50h427v-50z" />
    <glyph glyph-name="zdotaccent" unicode="&#x17c;" horiz-adv-x="477" 
d="M245 573q-20 0 -33.5 13.5t-13.5 33.5t13.5 33.5t33.5 13.5q19 0 32.5 -13.5t13.5 -33.5t-13.5 -33.5t-32.5 -13.5zM423 467l-299 -418h309v-49h-380v33l300 418h-290v49h360v-33z" />
    <glyph glyph-name="Zcaron" unicode="&#x17d;" horiz-adv-x="523" 
d="M297 770h-60l-108 127h58l80 -95l80 95h58zM480 650l-378 -600h388v-50h-447v50l378 600h-368v50h427v-50z" />
    <glyph glyph-name="zcaron" unicode="&#x17e;" horiz-adv-x="477" 
d="M275 570h-60l-108 127h58l80 -95l80 95h58zM423 467l-299 -418h309v-49h-380v33l300 418h-290v49h360v-33z" />
    <glyph glyph-name="florin" unicode="&#x192;" horiz-adv-x="436" 
d="M214 375l35 202q13 81 64.5 114.5t122.5 11.5v-50q-51 22 -89 0t-48 -77l-34 -201h120v-49h-128l-69 -403q-14 -81 -65.5 -114.5t-122.5 -11.5v50q53 -22 90.5 0t46.5 77l69 402h-115v49h123z" />
    <glyph glyph-name="Scommaaccent" unicode="&#x218;" horiz-adv-x="574" 
d="M301 -11q-96 0 -164 44.5t-92 120.5l46 27q19 -66 73 -103.5t137 -37.5t129.5 38t46.5 102q0 57 -44 89q-42 30 -137 61l-50 16l-44 17q-31 13 -43 21q-48 30 -62 54q-23 40 -23 85q0 85 60 136q61 52 152 52q80 0 138.5 -40t86.5 -107l-45 -25q-49 121 -180 121
q-71 0 -114.5 -37.5t-43.5 -97.5q0 -57 40 -85t131 -58q59 -20 90 -33q34 -14 70 -37q72 -44 72 -131t-63 -140q-62 -52 -167 -52zM300 -240h-36l10 170h51z" />
    <glyph glyph-name="scommaaccent" unicode="&#x219;" horiz-adv-x="458" 
d="M111 369q0 -63 107 -90q31 -7 45.5 -10.5t43 -12t43 -18.5t32 -25t25 -35.5t7.5 -46.5q0 -63 -49.5 -102.5t-129.5 -39.5q-71 0 -121 30t-69 81l43 25q14 -42 52.5 -65t94.5 -23q58 0 93.5 25t35.5 69q0 68 -107 91q-100 24 -134 44q-62 36 -62 103q0 60 47 101
q49 41 123 41q59 0 104 -27t66 -73l-42 -24q-15 36 -49.5 56t-78.5 20q-52 0 -86 -26t-34 -68zM246 -240h-36l10 170h51z" />
    <glyph glyph-name="uni021A" unicode="&#x21a;" horiz-adv-x="540" 
d="M23 700h494v-50h-220v-650h-54v650h-220v50zM272 -240h-36l10 170h51z" />
    <glyph glyph-name="uni021B" unicode="&#x21b;" horiz-adv-x="376" 
d="M333 500v-49h-149v-325q0 -61 32.5 -75t116.5 -6v-45q-103 -15 -151.5 14.5t-48.5 111.5v325h-110v49h110v125l51 15v-140h149zM238 -240h-36l10 170h51z" />
    <glyph glyph-name="circumflex" unicode="&#x2c6;" horiz-adv-x="315" 
d="M187 697l108 -127h-57l-80 95l-81 -95h-57l108 127h59z" />
    <glyph glyph-name="caron" unicode="&#x2c7;" horiz-adv-x="315" 
d="M158 602l80 95h58l-108 -127h-60l-108 127h58z" />
    <glyph glyph-name="breve" unicode="&#x2d8;" horiz-adv-x="307" 
d="M20 687h48q0 -78 85 -78t85 78h48q0 -57 -36 -89.5t-97 -32.5t-97 32.5t-36 89.5z" />
    <glyph glyph-name="dotaccent" unicode="&#x2d9;" horiz-adv-x="133" 
d="M67 573q-20 0 -33.5 13.5t-13.5 33.5t13.5 33.5t33.5 13.5q19 0 32.5 -13.5t13.5 -33.5t-13.5 -33.5t-32.5 -13.5z" />
    <glyph glyph-name="ring" unicode="&#x2da;" horiz-adv-x="245" 
d="M122 553q-45 0 -73.5 27.5t-28.5 69.5t28.5 69.5t73.5 27.5t74 -27.5t29 -69.5t-29 -69.5t-74 -27.5zM122 593q38 -3 53.5 27t0 60t-53.5 27q-27 0 -43 -16t-16 -41t16 -41t43 -16z" />
    <glyph glyph-name="ogonek" unicode="&#x2db;" horiz-adv-x="173" 
d="M99 -211q-38 0 -58.5 19.5t-20.5 52.5q0 67 79 139h53q-83 -75 -83 -131q0 -37 41 -37q22 0 43 9v-42q-21 -10 -54 -10z" />
    <glyph glyph-name="tilde" unicode="&#x2dc;" horiz-adv-x="312" 
d="M64 583h-44q0 55 20 82.5t51.5 24.5t66.5 -33q90 -77 90 28h44q0 -82 -43 -101t-95 27q-90 82 -90 -28z" />
    <glyph glyph-name="hungarumlaut" unicode="&#x2dd;" horiz-adv-x="318" 
d="M20 570l70 130h56l-75 -130h-51zM162 570l80 130h56l-85 -130h-51z" />
    <glyph glyph-name="gravecomb" unicode="&#x300;" horiz-adv-x="0" 
d="M-20 570h-48l-92 127h60z" />
    <glyph glyph-name="acutecomb" unicode="&#x301;" horiz-adv-x="0" 
d="M-160 570l80 127h60l-91 -127h-49z" />
    <glyph glyph-name="uni0302" unicode="&#x302;" horiz-adv-x="0" 
d="M-128 697l108 -127h-57l-80 95l-81 -95h-57l108 127h59z" />
    <glyph glyph-name="tildecomb" unicode="&#x303;" horiz-adv-x="0" 
d="M-248 583h-44q0 55 20 82.5t51.5 24.5t66.5 -33q90 -77 90 28h44q0 -82 -43 -101t-95 27q-90 82 -90 -28z" />
    <glyph glyph-name="uni0304" unicode="&#x304;" horiz-adv-x="0" 
d="M-20 587h-253v44h253v-44z" />
    <glyph glyph-name="uni0306" unicode="&#x306;" horiz-adv-x="0" 
d="M-293 687h48q0 -78 85 -78t85 78h48q0 -57 -36 -89.5t-97 -32.5t-97 32.5t-36 89.5z" />
    <glyph glyph-name="uni0307" unicode="&#x307;" horiz-adv-x="0" 
d="M-66 573q-20 0 -33.5 13.5t-13.5 33.5t13.5 33.5t33.5 13.5q19 0 32.5 -13.5t13.5 -33.5t-13.5 -33.5t-32.5 -13.5z" />
    <glyph glyph-name="uni0308" unicode="&#x308;" horiz-adv-x="0" 
d="M-236 577q-16 0 -26.5 10.5t-10.5 25.5q0 16 10.5 26.5t26.5 10.5q15 0 25.5 -10.5t10.5 -26.5q0 -15 -10.5 -25.5t-25.5 -10.5zM-56 577q-16 0 -26.5 10.5t-10.5 25.5q0 16 10.5 26.5t26.5 10.5q15 0 25.5 -10.5t10.5 -26.5q0 -15 -10.5 -25.5t-25.5 -10.5z" />
    <glyph glyph-name="uni030A" unicode="&#x30a;" horiz-adv-x="0" 
d="M-123 553q-45 0 -73.5 27.5t-28.5 69.5t28.5 69.5t73.5 27.5t74 -27.5t29 -69.5t-29 -69.5t-74 -27.5zM-123 593q38 -3 53.5 27t0 60t-53.5 27q-27 0 -43 -16t-16 -41t16 -41t43 -16z" />
    <glyph glyph-name="uni030B" unicode="&#x30b;" horiz-adv-x="0" 
d="M-295 570l70 130h56l-75 -130h-51zM-153 570l80 130h56l-85 -130h-51z" />
    <glyph glyph-name="uni030C" unicode="&#x30c;" horiz-adv-x="0" 
d="M-157 602l80 95h58l-108 -127h-60l-108 127h58z" />
    <glyph glyph-name="uni0312" unicode="&#x312;" horiz-adv-x="0" 
d="M-56 960h36l-10 -170h-51z" />
    <glyph glyph-name="uni0326" unicode="&#x326;" horiz-adv-x="0" 
d="M-45 -240h-36l10 170h51z" />
    <glyph glyph-name="uni0327" unicode="&#x327;" horiz-adv-x="0" 
d="M-111 0v-56q41 -5 66 -25t25 -50q0 -95 -195 -80v41q151 -14 151 39q0 43 -92 43v88h45z" />
    <glyph glyph-name="uni0328" unicode="&#x328;" horiz-adv-x="0" 
d="M-74 -211q-38 0 -58.5 19.5t-20.5 52.5q0 67 79 139h53q-83 -75 -83 -131q0 -37 41 -37q22 0 43 9v-42q-21 -10 -54 -10z" />
    <glyph glyph-name="uni0394" unicode="&#x394;" horiz-adv-x="626" 
d="M285 700h56l272 -700h-600zM313 635l-224 -585h448z" />
    <glyph glyph-name="uni03A9" unicode="&#x3a9;" horiz-adv-x="816" 
d="M769 350q0 -96 -46.5 -175.5t-126.5 -124.5h162v-50h-271v50q100 25 165 109q64 82 64 191q0 129 -90 219q-88 91 -218 91q-129 0 -219 -91q-89 -91 -89 -219q0 -109 64 -191q65 -84 165 -109v-50h-271v50h162q-80 45 -126.5 124.5t-46.5 175.5q0 150 105 255
q105 106 256 106t256 -106q105 -105 105 -255z" />
    <glyph glyph-name="pi" unicode="&#x3c0;" horiz-adv-x="650" 
d="M33 500h584v-49h-83v-451h-51v451h-312v-451h-51v451h-87v49z" />
    <glyph glyph-name="uni0401" unicode="&#x401;" horiz-adv-x="533" 
d="M196 777q-16 0 -26.5 10.5t-10.5 25.5q0 16 10.5 26.5t26.5 10.5q15 0 25.5 -10.5t10.5 -26.5q0 -15 -10.5 -25.5t-25.5 -10.5zM376 777q-16 0 -26.5 10.5t-10.5 25.5q0 16 10.5 26.5t26.5 10.5q15 0 25.5 -10.5t10.5 -26.5q0 -15 -10.5 -25.5t-25.5 -10.5zM140 328v-278
h350v-50h-403v700h398v-50h-345v-272h320v-50h-320z" />
    <glyph glyph-name="uni0402" unicode="&#x402;" horiz-adv-x="699" 
d="M448 471q83 0 133.5 -48.5t50.5 -135.5v-139q0 -81 -43 -121.5t-123 -33.5v49q59 -7 86 19t27 87v139q0 66 -35 101t-96 35q-82 0 -171 -39v-384h-54v650h-200v50h487v-50h-233v-218q81 39 171 39z" />
    <glyph glyph-name="uni0403" unicode="&#x403;" horiz-adv-x="493" 
d="M314 896h60l-91 -127h-49zM87 700h383v-50h-330v-650h-53v700z" />
    <glyph glyph-name="uni0404" unicode="&#x404;" horiz-adv-x="748" 
d="M662 187l48 -27q-43 -78 -124.5 -124.5t-177.5 -46.5q-158 0 -260 104q-101 106 -101 257q0 152 101 256q102 105 260 105q96 0 175 -46q81 -45 125 -122l-47 -27q-36 66 -104.5 105t-148.5 39q-129 0 -214 -82q-85 -81 -93 -203h395v-50h-395q7 -121 93 -204
q86 -81 214 -81q81 0 150 40t104 107z" />
    <glyph glyph-name="uni0405" unicode="&#x405;" horiz-adv-x="574" 
d="M301 -11q-96 0 -164 44.5t-92 120.5l46 27q19 -66 73 -103.5t137 -37.5t129.5 38t46.5 102q0 57 -44 89q-42 30 -137 61l-50 16l-44 17q-31 13 -43 21q-48 30 -62 54q-23 40 -23 85q0 85 60 136q61 52 152 52q80 0 138.5 -40t86.5 -107l-45 -25q-49 121 -180 121
q-71 0 -114.5 -37.5t-43.5 -97.5q0 -57 40 -85t131 -58q59 -20 90 -33q34 -14 70 -37q72 -44 72 -131t-63 -140q-62 -52 -167 -52z" />
    <glyph glyph-name="uni0406" unicode="&#x406;" horiz-adv-x="227" 
d="M87 0v700h53v-700h-53z" />
    <glyph glyph-name="uni0407" unicode="&#x407;" horiz-adv-x="227" 
d="M23 777q-16 0 -26.5 10.5t-10.5 25.5q0 16 10.5 26.5t26.5 10.5q15 0 25.5 -10.5t10.5 -26.5q0 -15 -10.5 -25.5t-25.5 -10.5zM203 777q-16 0 -26.5 10.5t-10.5 25.5q0 16 10.5 26.5t26.5 10.5q15 0 25.5 -10.5t10.5 -26.5q0 -15 -10.5 -25.5t-25.5 -10.5zM87 0v700h53
v-700h-53z" />
    <glyph glyph-name="uni0408" unicode="&#x408;" horiz-adv-x="553" 
d="M252 -11q-74 0 -129.5 30.5t-79.5 86.5l45 27q38 -93 164 -93q79 0 125 40t46 112v508h54v-508q0 -98 -64 -150q-64 -53 -161 -53z" />
    <glyph glyph-name="uni0409" unicode="&#x409;" horiz-adv-x="995" 
d="M578 393h167q85 0 146 -56q61 -55 61 -140t-60 -141q-61 -56 -147 -56h-220v650h-303v-354q0 -165 -50.5 -235.5t-153.5 -61.5v47q74 -8 112 48q39 57 39 203v403h409v-307zM578 50h167q64 0 108 41q45 42 45 106q0 63 -45 104q-43 42 -108 42h-167v-293z" />
    <glyph glyph-name="uni040A" unicode="&#x40a;" horiz-adv-x="983" 
d="M567 393h166q85 0 146 -56q61 -55 61 -140t-60 -141q-61 -56 -147 -56h-220v343h-373v-343h-53v700h53v-307h373v307h54v-307zM567 50h166q65 0 109 41q45 42 45 106q0 65 -45 105q-44 41 -109 41h-166v-293z" />
    <glyph glyph-name="uni040B" unicode="&#x40b;" horiz-adv-x="705" 
d="M448 471q83 0 133.5 -48.5t50.5 -135.5v-287h-53v287q0 66 -35 101t-96 35q-82 0 -171 -39v-384h-54v650h-200v50h487v-50h-233v-218q81 39 171 39z" />
    <glyph glyph-name="uni040C" unicode="&#x40c;" horiz-adv-x="572" 
d="M324 896h60l-91 -127h-49zM198 360l364 -360h-71l-351 345v-345h-53v700h53v-326l341 326h71z" />
    <glyph glyph-name="uni040E" unicode="&#x40e;" horiz-adv-x="566" 
d="M162 830h253v-44h-253v44zM304 247l194 453h55l-233 -547q-70 -163 -213 -153v49q107 -12 160 110l12 28l-246 513h55z" />
    <glyph glyph-name="uni040F" unicode="&#x40f;" horiz-adv-x="673" 
d="M533 50v650h54v-700h-224v-134h-53v134h-223v700h53v-650h393z" />
    <glyph glyph-name="uni0410" unicode="&#x410;" horiz-adv-x="629" 
d="M614 0h-56l-68 178h-351l-68 -178h-56l272 700h56zM315 635l-156 -407h312z" />
    <glyph glyph-name="uni0411" unicode="&#x411;" horiz-adv-x="585" 
d="M140 413h200q85 0 146 -61q61 -60 61 -145t-61 -146q-60 -61 -146 -61h-253v700h403v-50h-350v-237zM140 50h200q63 0 108 46t45 111q0 63 -45 110q-45 46 -108 46h-200v-313z" />
    <glyph glyph-name="uni0412" unicode="&#x412;" horiz-adv-x="623" 
d="M460 363q55 -21 87.5 -67t32.5 -105q0 -79 -56 -135t-135 -56h-302v700h279q76 0 130 -54t54 -130q0 -50 -24 -90.5t-66 -62.5zM366 650h-226v-268h226q54 0 92 39q39 41 39 95q0 55 -39 94q-37 40 -92 40zM140 50h249q56 0 97 41q41 43 41 100q0 58 -41 99
q-40 42 -97 42h-249v-282z" />
    <glyph glyph-name="uni0413" unicode="&#x413;" horiz-adv-x="493" 
d="M87 700h383v-50h-330v-650h-53v700z" />
    <glyph glyph-name="uni0414" unicode="&#x414;" horiz-adv-x="690" 
d="M578 700v-650h74v-184h-54v134h-526v-134h-54v184h56q72 81 72 251v399h432zM199 650v-350q0 -161 -62 -250h388v600h-326z" />
    <glyph glyph-name="uni0415" unicode="&#x415;" horiz-adv-x="533" 
d="M140 328v-278h350v-50h-403v700h398v-50h-345v-272h320v-50h-320z" />
    <glyph glyph-name="uni0416" unicode="&#x416;" horiz-adv-x="836" 
d="M498 360l318 -360h-63l-308 347v-347h-54v347l-308 -347h-63l318 360l-308 340h63l298 -327v327h54v-327l298 327h63z" />
    <glyph glyph-name="uni0417" unicode="&#x417;" horiz-adv-x="557" 
d="M387 362q61 -21 95.5 -67.5t34.5 -108.5q0 -86 -65 -142q-64 -55 -171 -55q-187 0 -241 154l46 25q36 -129 195 -129q84 0 133 40.5t49 106.5q0 64 -44.5 105t-119.5 41h-79v50h56q73 0 117.5 39t44.5 100t-45 100.5t-116 39.5q-135 0 -180 -115l-44 25q59 140 224 140
q96 0 154 -55q60 -54 60 -135q0 -109 -104 -159z" />
    <glyph glyph-name="uni0418" unicode="&#x418;" horiz-adv-x="687" 
d="M600 0h-53v602l-414 -602h-46v700h53v-602l413 602h47v-700z" />
    <glyph glyph-name="uni0419" unicode="&#x419;" horiz-adv-x="687" 
d="M469 787h-253v44h253v-44zM600 0h-53v602l-414 -602h-46v700h53v-602l413 602h47v-700z" />
    <glyph glyph-name="uni041A" unicode="&#x41a;" horiz-adv-x="572" 
d="M198 360l364 -360h-71l-351 345v-345h-53v700h53v-326l341 326h71z" />
    <glyph glyph-name="uni041B" unicode="&#x41b;" horiz-adv-x="698" 
d="M18 0v47q76 -9 113.5 49t37.5 201v403h443v-700h-54v650h-336v-354q0 -165 -50.5 -235t-153.5 -61z" />
    <glyph glyph-name="uni041C" unicode="&#x41c;" horiz-adv-x="807" 
d="M653 700h67v-700h-53v622l-259 -430h-9l-259 430v-622h-53v700h66l250 -414z" />
    <glyph glyph-name="uni041D" unicode="&#x41d;" horiz-adv-x="687" 
d="M547 385v315h53v-700h-53v335h-407v-335h-53v700h53v-315h407z" />
    <glyph glyph-name="uni041E" unicode="&#x41e;" horiz-adv-x="816" 
d="M664 94q-105 -105 -256 -105t-256 105q-105 106 -105 256t105 255q105 106 256 106t256 -106q105 -105 105 -255t-105 -256zM189 130q90 -90 219 -90q130 0 218 90q90 92 90 220q0 129 -90 219q-88 91 -218 91q-129 0 -219 -91q-89 -91 -89 -219t89 -220z" />
    <glyph glyph-name="uni041F" unicode="&#x41f;" horiz-adv-x="673" 
d="M87 700h500v-700h-54v650h-393v-650h-53v700z" />
    <glyph glyph-name="uni0420" unicode="&#x420;" horiz-adv-x="587" 
d="M87 700h238q94 0 156 -62t62 -155t-62 -155q-61 -61 -156 -61h-185v-267h-53v700zM140 317h185q71 0 118 47t47 119q0 73 -47 120t-118 47h-185v-333z" />
    <glyph glyph-name="uni0421" unicode="&#x421;" horiz-adv-x="751" 
d="M411 -11q-157 0 -261 104q-103 104 -103 257t103 256q104 105 261 105q97 0 176 -46q81 -46 124 -122l-47 -27q-34 64 -103 104q-67 40 -150 40q-135 0 -224 -90q-87 -89 -87 -220t87 -221q89 -89 224 -89q81 0 150.5 40t104.5 107l47 -27q-43 -78 -124.5 -124.5
t-177.5 -46.5z" />
    <glyph glyph-name="uni0422" unicode="&#x422;" horiz-adv-x="540" 
d="M23 700h494v-50h-220v-650h-54v650h-220v50z" />
    <glyph glyph-name="uni0423" unicode="&#x423;" horiz-adv-x="566" 
d="M304 247l194 453h55l-233 -547q-70 -163 -213 -153v49q107 -12 160 110l12 28l-246 513h55z" />
    <glyph glyph-name="uni0424" unicode="&#x424;" horiz-adv-x="804" 
d="M429 79v-79h-54v79q-154 5 -248 75t-94 196q0 125 94 195q96 72 248 76v79h54v-79q151 -4 247 -76q95 -71 95 -195q0 -125 -95 -196t-247 -75zM375 128v444q-135 -5 -211.5 -63t-76.5 -159t76.5 -159t211.5 -63zM429 572v-444q135 5 211.5 63t76.5 159t-76.5 159
t-211.5 63z" />
    <glyph glyph-name="uni0425" unicode="&#x425;" horiz-adv-x="573" 
d="M317 360l233 -360h-61l-202 312l-202 -312h-62l233 360l-220 340h61l190 -293l189 293h61z" />
    <glyph glyph-name="uni0426" unicode="&#x426;" horiz-adv-x="690" 
d="M580 700v-650h73v-184h-53v134h-513v700h53v-650h387v650h53z" />
    <glyph glyph-name="uni0427" unicode="&#x427;" horiz-adv-x="627" 
d="M487 353v347h53v-700h-53v303q-93 -46 -197 -46q-103 0 -161 55q-59 56 -59 141v247h53v-247q0 -67 44.5 -106.5t122.5 -39.5q104 0 197 46z" />
    <glyph glyph-name="uni0428" unicode="&#x428;" horiz-adv-x="957" 
d="M817 50v650h53v-700h-783v700h53v-650h312v650h53v-650h312z" />
    <glyph glyph-name="uni0429" unicode="&#x429;" horiz-adv-x="980" 
d="M870 700v-650h73v-184h-53v134h-803v700h53v-650h312v650h53v-650h312v650h53z" />
    <glyph glyph-name="uni042A" unicode="&#x42a;" horiz-adv-x="693" 
d="M432 0h-239v650h-193v50h247v-267h185q94 0 156 -62t62 -154q0 -93 -62 -155t-156 -62zM247 383v-333h185q71 0 118 47t47 120q0 72 -47 119t-118 47h-185z" />
    <glyph glyph-name="uni042B" unicode="&#x42b;" horiz-adv-x="763" 
d="M325 0h-238v700h53v-267h185q94 0 156 -62t62 -154q0 -93 -62 -155t-156 -62zM677 0h-54v700h54v-700zM140 383v-333h185q71 0 118 47t47 120q0 72 -47 119t-118 47h-185z" />
    <glyph glyph-name="uni042C" unicode="&#x42c;" horiz-adv-x="587" 
d="M140 433h185q94 0 156 -62t62 -154q0 -93 -62 -155t-156 -62h-238v700h53v-267zM140 50h185q71 0 118 47t47 120q0 72 -47 119t-118 47h-185v-333z" />
    <glyph glyph-name="uni042D" unicode="&#x42d;" horiz-adv-x="748" 
d="M340 711q158 0 259 -105q102 -103 102 -256q0 -152 -102 -257q-101 -104 -259 -104q-96 0 -177.5 46.5t-124.5 124.5l48 27q35 -67 104 -107t150 -40q129 0 214 81q86 83 93 204h-395v50h395q-8 122 -93 203q-85 82 -214 82q-80 0 -148.5 -39t-104.5 -105l-47 27
q43 76 124 122q80 46 176 46z" />
    <glyph glyph-name="uni042E" unicode="&#x42e;" horiz-adv-x="1047" 
d="M639 711q151 0 256 -106q105 -105 105 -255t-105 -256q-105 -105 -256 -105q-148 0 -251 100q-102 101 -108 246h-140v-335h-53v700h53v-315h142q13 139 114 232q100 94 243 94zM639 40q129 0 218 90q90 91 90 220t-90 219q-88 91 -218 91q-131 0 -219 -90
q-89 -91 -89 -220t89 -220q88 -90 219 -90z" />
    <glyph glyph-name="uni042F" unicode="&#x42f;" horiz-adv-x="627" 
d="M263 700h277v-700h-53v287h-192l-198 -287h-60l199 289q-76 10 -128 68q-51 59 -51 136q0 86 60 146q61 61 146 61zM263 337h224v313h-224q-63 0 -108 -46t-45 -111q0 -63 45 -110q45 -46 108 -46z" />
    <glyph glyph-name="uni0430" unicode="&#x430;" horiz-adv-x="645" 
d="M517 387v113h51v-500h-51v113q-33 -58 -89 -91t-126 -33q-106 0 -183 75q-76 76 -76 186t76 185q76 76 183 76q70 0 126 -33t89 -91zM155 99q62 -62 151 -62q88 0 150 62q61 61 61 151t-61 151q-62 62 -150 62q-89 0 -151 -62q-61 -61 -61 -151t61 -151z" />
    <glyph glyph-name="uni0431" unicode="&#x431;" horiz-adv-x="571" 
d="M295 -12q-107 0 -180 71q-72 72 -72 186q0 125 36 193q38 70 151 125l52 23q74 31 88 39q33 18 50 37.5t21 50.5l40 -23q-11 -56 -59 -88q-21 -13 -46 -27q-20 -11 -60 -27l-59 -25q-75 -34 -109 -72t-46 -105q34 53 89 81t115 28q100 0 166 -66t66 -168q0 -101 -69 -167
q-67 -66 -174 -66zM295 38q84 0 138 51q54 53 54 132q0 81 -52 133t-135 52q-76 0 -137 -48q-60 -48 -66 -124q0 -85 56 -141q55 -55 142 -55z" />
    <glyph glyph-name="uni0432" unicode="&#x432;" horiz-adv-x="507" 
d="M385 258q88 -28 88 -120q0 -62 -40.5 -100t-113.5 -38h-242v500h223q70 0 109.5 -36.5t39.5 -94.5q0 -80 -64 -111zM300 451h-173v-173h173q48 0 73 23t25 65q0 40 -25.5 62.5t-72.5 22.5zM127 49h192q50 0 77 24t27 67q0 42 -27.5 65.5t-76.5 23.5h-192v-180z" />
    <glyph glyph-name="uni0433" unicode="&#x433;" horiz-adv-x="402" 
d="M77 500h313v-49h-263v-451h-50v500z" />
    <glyph glyph-name="uni0434" unicode="&#x434;" horiz-adv-x="590" 
d="M487 500v-451h70v-183h-51v134h-432v-134h-51v183h58q55 74 55 201v250h351zM143 49h293v402h-250v-201q0 -124 -43 -201z" />
    <glyph glyph-name="uni0435" unicode="&#x435;" horiz-adv-x="589" 
d="M302 511q110 0 178 -78q69 -78 69 -185q0 -2 -0.5 -12t-0.5 -12h-453q9 -84 67 -136q58 -51 145 -51q59 0 104 24.5t69 66.5l44 -26q-31 -52 -88.5 -82.5t-129.5 -30.5q-116 0 -189 73q-74 74 -74 188q0 112 72 186q74 75 187 75zM302 463q-84 0 -142 -53
q-57 -53 -65 -137h402q-8 89 -64 139q-56 51 -131 51z" />
    <glyph glyph-name="uni0436" unicode="&#x436;" horiz-adv-x="663" 
d="M404 260l236 -260h-62l-221 246v-246h-51v246l-221 -246h-62l237 260l-227 240h62l211 -226v226h51v-226l211 226h62z" />
    <glyph glyph-name="uni0437" unicode="&#x437;" horiz-adv-x="445" 
d="M317 258q45 -15 70 -48t25 -76q0 -63 -49.5 -104t-134.5 -41q-150 0 -195 118l43 25q32 -95 152 -95q62 0 97.5 27.5t35.5 72.5q0 41 -30 66.5t-80 25.5h-69v49h50q49 0 77 25t28 67q0 40 -32.5 66.5t-85.5 26.5q-102 0 -135 -81l-42 24q22 49 67 77t110 28q76 0 122 -41
q46 -40 46 -98q0 -81 -70 -114z" />
    <glyph glyph-name="uni0438" unicode="&#x438;" horiz-adv-x="567" 
d="M127 87l319 413h44v-500h-51v413l-318 -413h-44v500h50v-413z" />
    <glyph glyph-name="uni0439" unicode="&#x439;" horiz-adv-x="567" 
d="M409 587h-253v44h253v-44zM127 87l319 413h44v-500h-51v413l-318 -413h-44v500h50v-413z" />
    <glyph glyph-name="uni043A" unicode="&#x43a;" horiz-adv-x="483" 
d="M181 260l279 -260h-68l-265 246v-246h-50v500h50v-227l253 227h70z" />
    <glyph glyph-name="uni043B" unicode="&#x43b;" horiz-adv-x="560" 
d="M131 500h352v-500h-50v451h-252v-241q0 -118 -43 -167t-125 -43v47q61 -5 89.5 33t28.5 130v290z" />
    <glyph glyph-name="uni043C" unicode="&#x43c;" horiz-adv-x="637" 
d="M500 500h60v-500h-51v424l-187 -295h-7l-188 297v-426h-50v500h59l182 -287z" />
    <glyph glyph-name="uni043D" unicode="&#x43d;" horiz-adv-x="567" 
d="M439 274v226h51v-500h-51v226h-312v-226h-50v500h50v-226h312z" />
    <glyph glyph-name="uni043E" unicode="&#x43e;" horiz-adv-x="611" 
d="M306 -11q-110 0 -187 75q-76 76 -76 186t76 185q76 76 187 76q109 0 185 -76q77 -75 77 -185q0 -109 -77 -186q-77 -75 -185 -75zM155 99q62 -62 151 -62q88 0 150 62q61 61 61 151t-61 151q-62 62 -150 62q-89 0 -151 -62q-61 -61 -61 -151t61 -151z" />
    <glyph glyph-name="uni043F" unicode="&#x43f;" horiz-adv-x="567" 
d="M77 500h413v-500h-51v451h-312v-451h-50v500z" />
    <glyph glyph-name="uni0440" unicode="&#x440;" horiz-adv-x="645" 
d="M342 511q108 0 183 -76q76 -75 76 -185t-76 -186q-75 -75 -183 -75q-71 0 -127.5 33.5t-87.5 93.5v-316h-50v700h50v-116q31 60 87.5 93.5t127.5 33.5zM188 99q62 -62 151 -62q88 0 150 62t62 151t-62 151t-150 62q-89 0 -151 -62q-61 -61 -61 -151t61 -151z" />
    <glyph glyph-name="uni0441" unicode="&#x441;" horiz-adv-x="561" 
d="M306 -11q-113 0 -188 75t-75 186t75 186t188 75q73 0 132 -34.5t86 -93.5l-41 -24q-22 48 -69.5 76t-107.5 28q-89 0 -151 -62q-61 -61 -61 -151q0 -91 61 -152t151 -61q60 0 107.5 28t72.5 76l42 -25q-30 -58 -90 -92.5t-132 -34.5z" />
    <glyph glyph-name="uni0442" unicode="&#x442;" horiz-adv-x="440" 
d="M13 500h414v-49h-182v-451h-50v451h-182v49z" />
    <glyph glyph-name="uni0443" unicode="&#x443;" horiz-adv-x="510" 
d="M269 55l174 445h54l-216 -546q-30 -75 -83 -117t-115 -37v47q47 -4 86 27t63 90l11 27l-230 509h54z" />
    <glyph glyph-name="uni0444" unicode="&#x444;" horiz-adv-x="670" 
d="M360 -11v-189h-50v189q-122 8 -194 80q-73 73 -73 181q0 107 73 180t194 81v189h50v-189q119 -7 193 -81t74 -180q0 -107 -74 -181q-72 -72 -193 -80zM310 38v424q-99 -8 -157 -66q-59 -59 -59 -146t59 -146q58 -58 157 -66zM360 462v-424q99 8 157 66q59 59 59 146
t-59 146q-58 58 -157 66z" />
    <glyph glyph-name="uni0445" unicode="&#x445;" horiz-adv-x="507" 
d="M284 258l199 -258h-61l-169 218l-169 -218h-61l200 257l-188 243h61l157 -203l158 203h60z" />
    <glyph glyph-name="uni0446" unicode="&#x446;" horiz-adv-x="593" 
d="M480 500v-451h80v-183h-51v134h-432v500h50v-451h302v451h51z" />
    <glyph glyph-name="uni0447" unicode="&#x447;" horiz-adv-x="537" 
d="M409 243v257h51v-500h-51v196q-66 -33 -152 -33q-96 0 -148 45t-52 129v163h50v-163q0 -126 148 -126q81 0 154 32z" />
    <glyph glyph-name="uni0448" unicode="&#x448;" horiz-adv-x="817" 
d="M689 49v451h51v-500h-663v500h50v-451h256v451h51v-451h255z" />
    <glyph glyph-name="uni0449" unicode="&#x449;" horiz-adv-x="843" 
d="M740 500v-451h70v-183h-51v134h-682v500h50v-451h256v451h51v-451h255v451h51z" />
    <glyph glyph-name="uni044A" unicode="&#x44a;" horiz-adv-x="540" 
d="M194 306h147q70 0 117 -43q49 -43 49 -110t-49 -110q-47 -43 -117 -43h-198v451h-143v49h194v-194zM194 49h147q49 0 82 29.5t33 74.5q0 47 -32.5 75.5t-82.5 28.5h-147v-208z" />
    <glyph glyph-name="uni044B" unicode="&#x44b;" horiz-adv-x="644" 
d="M127 306h148q70 0 117 -43q48 -43 48 -110t-48 -110q-47 -43 -117 -43h-198v500h50v-194zM517 0v500h50v-500h-50zM127 49h148q49 0 81.5 29.5t32.5 74.5q0 47 -32.5 75.5t-81.5 28.5h-148v-208z" />
    <glyph glyph-name="uni044C" unicode="&#x44c;" horiz-adv-x="473" 
d="M127 306h148q70 0 117 -43q48 -43 48 -110t-48 -110q-47 -43 -117 -43h-198v500h50v-194zM127 49h148q49 0 81.5 29.5t32.5 74.5q0 47 -32.5 75.5t-81.5 28.5h-148v-208z" />
    <glyph glyph-name="uni044D" unicode="&#x44d;" horiz-adv-x="549" 
d="M253 511q114 0 183 -74q70 -73 70 -187t-70 -187q-71 -74 -184 -74q-80 0 -139 34t-86 94l43 26q21 -49 68.5 -77.5t113.5 -28.5q84 0 139 53q56 54 63 136h-259v48h259q-8 83 -62 136q-55 53 -139 53q-62 0 -109.5 -28t-70.5 -77l-44 25q30 60 89.5 94t134.5 34z" />
    <glyph glyph-name="uni044E" unicode="&#x44e;" horiz-adv-x="803" 
d="M498 511q109 0 185 -76q77 -75 77 -185q0 -109 -77 -186q-77 -75 -185 -75q-104 0 -177 67t-82 170h-112v-226h-50v500h50v-226h112q9 102 82 169q74 68 177 68zM347 99q62 -62 151 -62q88 0 150 62q61 61 61 151t-61 151q-62 62 -150 62q-89 0 -151 -62
q-61 -61 -61 -151t61 -151z" />
    <glyph glyph-name="uni044F" unicode="&#x44f;" horiz-adv-x="500" 
d="M225 500h198v-500h-50v195h-108l-157 -195h-65l160 196q-62 7 -102.5 49t-40.5 102q0 67 48 110q47 43 117 43zM225 243h148v208h-148q-49 0 -81.5 -29.5t-32.5 -74.5q0 -47 32.5 -75.5t81.5 -28.5z" />
    <glyph glyph-name="uni0451" unicode="&#x451;" horiz-adv-x="589" 
d="M206 577q-16 0 -26.5 10.5t-10.5 25.5q0 16 10.5 26.5t26.5 10.5q15 0 25.5 -10.5t10.5 -26.5q0 -15 -10.5 -25.5t-25.5 -10.5zM386 577q-16 0 -26.5 10.5t-10.5 25.5q0 16 10.5 26.5t26.5 10.5q15 0 25.5 -10.5t10.5 -26.5q0 -15 -10.5 -25.5t-25.5 -10.5zM302 511
q110 0 178 -78q69 -78 69 -185q0 -2 -0.5 -12t-0.5 -12h-453q9 -84 67 -136q58 -51 145 -51q59 0 104 24.5t69 66.5l44 -26q-31 -52 -88.5 -82.5t-129.5 -30.5q-116 0 -189 73q-74 74 -74 188q0 112 72 186q74 75 187 75zM302 463q-84 0 -142 -53q-57 -53 -65 -137h402
q-8 89 -64 139q-56 51 -131 51z" />
    <glyph glyph-name="uni0452" unicode="&#x452;" horiz-adv-x="577" 
d="M319 511q89 0 141.5 -54.5t52.5 -145.5v-368q0 -80 -43 -120.5t-123 -33.5v48q116 -12 116 106v368q0 70 -39.5 111t-108.5 41q-79 0 -126.5 -52t-47.5 -147v-264h-51v582h-73v42h73v76h51v-76h156v-42h-156v-175q56 104 178 104z" />
    <glyph glyph-name="uni0453" unicode="&#x453;" horiz-adv-x="402" 
d="M247 697h60l-91 -127h-49zM77 500h313v-49h-263v-451h-50v500z" />
    <glyph glyph-name="uni0454" unicode="&#x454;" horiz-adv-x="549" 
d="M479 143l43 -26q-27 -60 -86 -94t-139 -34q-113 0 -184 74q-70 73 -70 187t69 187q71 74 184 74q75 0 134.5 -34t89.5 -94l-44 -25q-23 49 -70.5 77t-109.5 28q-84 0 -139 -53q-54 -53 -62 -136h259v-48h-259q7 -81 62 -136q56 -53 140 -53q66 0 113.5 28.5t68.5 77.5z
" />
    <glyph glyph-name="uni0455" unicode="&#x455;" horiz-adv-x="458" 
d="M111 369q0 -63 107 -90q31 -7 45.5 -10.5t43 -12t43 -18.5t32 -25t25 -35.5t7.5 -46.5q0 -63 -49.5 -102.5t-129.5 -39.5q-71 0 -121 30t-69 81l43 25q14 -42 52.5 -65t94.5 -23q58 0 93.5 25t35.5 69q0 68 -107 91q-100 24 -134 44q-62 36 -62 103q0 60 47 101
q49 41 123 41q59 0 104 -27t66 -73l-42 -24q-15 36 -49.5 56t-78.5 20q-52 0 -86 -26t-34 -68z" />
    <glyph glyph-name="uni0456" unicode="&#x456;" horiz-adv-x="204" 
d="M62 661q-1 24 19.5 33.5t41 0t19.5 -33.5q1 -25 -19.5 -35t-41 0t-19.5 35zM127 0h-50v500h50v-500z" />
    <glyph glyph-name="uni0457" unicode="&#x457;" horiz-adv-x="204" 
d="M12 577q-16 0 -26.5 10.5t-10.5 25.5q0 16 10.5 26.5t26.5 10.5q15 0 25.5 -10.5t10.5 -26.5q0 -15 -10.5 -25.5t-25.5 -10.5zM192 577q-16 0 -26.5 10.5t-10.5 25.5q0 16 10.5 26.5t26.5 10.5q15 0 25.5 -10.5t10.5 -26.5q0 -15 -10.5 -25.5t-25.5 -10.5zM127 0h-50v500
h50v-500z" />
    <glyph glyph-name="uni0458" unicode="&#x458;" horiz-adv-x="223" 
d="M161 661q2 -24 -19 -34.5t-42 0t-19 34.5q-1 24 19.5 33.5t41 0t19.5 -33.5zM96 -57v557h50v-557q0 -80 -43 -120.5t-123 -33.5v48q116 -12 116 106z" />
    <glyph glyph-name="uni0459" unicode="&#x459;" horiz-adv-x="803" 
d="M473 286h141q68 0 111.5 -39t43.5 -104t-43.5 -104t-111.5 -39h-191v451h-242v-241q0 -118 -43 -167t-125 -43v47q61 -5 89.5 33t28.5 130v290h342v-214zM473 49h141q47 0 76 25t29 69q0 45 -29 69.5t-76 24.5h-141v-188z" />
    <glyph glyph-name="uni045A" unicode="&#x45a;" horiz-adv-x="796" 
d="M467 286h140q68 0 112 -39t44 -104t-44 -104t-112 -39h-191v237h-292v-237h-51v500h51v-214h292v214h51v-214zM467 49h140q47 0 76 25t29 69q0 45 -28.5 69.5t-76.5 24.5h-140v-188z" />
    <glyph glyph-name="uni045B" unicode="&#x45b;" horiz-adv-x="577" 
d="M319 511q89 0 141.5 -54.5t52.5 -145.5v-311h-50v311q0 70 -39.5 111t-108.5 41q-79 0 -126.5 -52t-47.5 -147v-264h-51v582h-73v42h73v76h51v-76h156v-42h-156v-175q56 104 178 104z" />
    <glyph glyph-name="uni045C" unicode="&#x45c;" horiz-adv-x="483" 
d="M281 697h60l-91 -127h-49zM181 260l279 -260h-68l-265 246v-246h-50v500h50v-227l253 227h70z" />
    <glyph glyph-name="uni045E" unicode="&#x45e;" horiz-adv-x="510" 
d="M131 631h253v-44h-253v44zM269 55l174 445h54l-216 -546q-30 -75 -83 -117t-115 -37v47q47 -4 86 27t63 90l11 27l-230 509h54z" />
    <glyph glyph-name="uni045F" unicode="&#x45f;" horiz-adv-x="567" 
d="M439 49v451h51v-500h-181v-134h-51v134h-181v500h50v-451h312z" />
    <glyph glyph-name="uni0490" unicode="&#x490;" horiz-adv-x="493" 
d="M417 700v120h53v-170h-330v-650h-53v700h330z" />
    <glyph glyph-name="uni0491" unicode="&#x491;" horiz-adv-x="402" 
d="M339 500v104h51v-153h-263v-451h-50v500h262z" />
    <glyph glyph-name="Wgrave" unicode="&#x1e80;" horiz-adv-x="993" 
d="M522 770h-48l-92 127h60zM236 0h64l197 631l196 -631h64l203 700h-56l-180 -629l-196 629h-63l-195 -629l-181 629h-56z" />
    <glyph glyph-name="wgrave" unicode="&#x1e81;" horiz-adv-x="770" 
d="M353 697l80 -127h-48l-92 127h60zM551 65l133 435h53l-158 -500h-55l-139 426l-139 -426h-55l-158 500h53l133 -435l140 435h52z" />
    <glyph glyph-name="Wacute" unicode="&#x1e82;" horiz-adv-x="993" 
d="M432 770l80 127h60l-91 -127h-49zM236 0h64l197 631l196 -631h64l203 700h-56l-180 -629l-196 629h-63l-195 -629l-181 629h-56z" />
    <glyph glyph-name="wacute" unicode="&#x1e83;" horiz-adv-x="770" 
d="M423 697h60l-91 -127h-49zM551 65l133 435h53l-158 -500h-55l-139 426l-139 -426h-55l-158 500h53l133 -435l140 435h52z" />
    <glyph glyph-name="Wdieresis" unicode="&#x1e84;" horiz-adv-x="993" 
d="M384 777q-16 0 -26.5 10.5t-10.5 25.5q0 16 10.5 26.5t26.5 10.5q15 0 25.5 -10.5t10.5 -26.5q0 -15 -10.5 -25.5t-25.5 -10.5zM564 777q-16 0 -26.5 10.5t-10.5 25.5q0 16 10.5 26.5t26.5 10.5q15 0 25.5 -10.5t10.5 -26.5q0 -15 -10.5 -25.5t-25.5 -10.5zM300 0h-64
l-203 700h56l181 -629l195 629h63l196 -629l180 629h56l-203 -700h-64l-196 631z" />
    <glyph glyph-name="wdieresis" unicode="&#x1e85;" horiz-adv-x="770" 
d="M295 577q-16 0 -26.5 10.5t-10.5 25.5q0 16 10.5 26.5t26.5 10.5q15 0 25.5 -10.5t10.5 -26.5q0 -15 -10.5 -25.5t-25.5 -10.5zM475 577q-16 0 -26.5 10.5t-10.5 25.5q0 16 10.5 26.5t26.5 10.5q15 0 25.5 -10.5t10.5 -26.5q0 -15 -10.5 -25.5t-25.5 -10.5zM551 65
l133 435h53l-158 -500h-55l-139 426l-139 -426h-55l-158 500h53l133 -435l140 435h52z" />
    <glyph glyph-name="Ygrave" unicode="&#x1ef2;" horiz-adv-x="583" 
d="M257 897l80 -127h-48l-92 127h60zM513 700h60l-255 -412v-288h-53v288l-255 412h60l222 -361z" />
    <glyph glyph-name="ygrave" unicode="&#x1ef3;" horiz-adv-x="510" 
d="M226 697l80 -127h-48l-92 127h60zM269 55l174 445h54l-216 -546q-30 -75 -83 -117t-115 -37v47q47 -4 86 27t63 90l11 27l-230 509h54z" />
    <glyph glyph-name="endash" unicode="&#x2013;" horiz-adv-x="673" 
d="M587 285h-500v48h500v-48z" />
    <glyph glyph-name="emdash" unicode="&#x2014;" horiz-adv-x="773" 
d="M687 285h-600v48h600v-48z" />
    <glyph glyph-name="quoteleft" unicode="&#x2018;" horiz-adv-x="223" 
d="M123 492h-62l54 208h46z" />
    <glyph glyph-name="quoteright" unicode="&#x2019;" horiz-adv-x="223" 
d="M100 700h62l-54 -208h-46z" />
    <glyph glyph-name="quotesinglbase" unicode="&#x201a;" horiz-adv-x="223" 
d="M100 68h62l-54 -208h-46z" />
    <glyph glyph-name="quotedblleft" unicode="&#x201c;" horiz-adv-x="350" 
d="M123 492h-62l54 208h46zM250 492h-62l54 208h46z" />
    <glyph glyph-name="quotedblright" unicode="&#x201d;" horiz-adv-x="350" 
d="M100 700h62l-54 -208h-46zM227 700h62l-54 -208h-46z" />
    <glyph glyph-name="quotedblbase" unicode="&#x201e;" horiz-adv-x="350" 
d="M100 68h62l-54 -208h-46zM227 68h62l-54 -208h-46z" />
    <glyph glyph-name="dagger" unicode="&#x2020;" horiz-adv-x="473" 
d="M262 527h148v-48h-148v-479h-51v479h-148v48h148v173h51v-173z" />
    <glyph glyph-name="daggerdbl" unicode="&#x2021;" horiz-adv-x="473" 
d="M410 527v-48h-148v-258h148v-48h-148v-173h-51v173h-148v48h148v258h-148v48h148v173h51v-173h148z" />
    <glyph glyph-name="bullet" unicode="&#x2022;" horiz-adv-x="280" 
d="M141 263q-37 0 -62.5 25.5t-25.5 62.5q0 36 25.5 61t62.5 25q36 0 61 -25t25 -61q0 -37 -25 -62.5t-61 -25.5z" />
    <glyph glyph-name="ellipsis" unicode="&#x2026;" horiz-adv-x="593" 
d="M139 3q-13 -13 -32 -13t-32 13t-13 32t13 32t32 13t32 -13t13 -32t-13 -32zM329 3q-13 -13 -32 -13t-32 13t-13 32t13 32t32 13t32 -13t13 -32t-13 -32zM519 3q-13 -13 -32 -13t-32 13t-13 32t13 32t32 13t32 -13t13 -32t-13 -32z" />
    <glyph glyph-name="perthousand" unicode="&#x2030;" horiz-adv-x="1076" 
d="M216 413q-67 0 -110 43t-43 106t43 106t110 43q66 0 109 -43q44 -44 44 -106q0 -63 -43 -106t-110 -43zM142 488q29 -29 74 -29t74 29q30 30 30 74t-30 73q-28 30 -74 30t-74 -30q-29 -29 -29 -73q0 -43 29 -74zM134 71l-33 19l475 534l34 -19zM608 32q-43 -43 -109 -43
q-67 0 -110 43t-43 106t43 106t110 43q66 0 109 -43q44 -44 44 -106t-44 -106zM968 32q-43 -43 -109 -43q-67 0 -110 43t-43 106t43 106t110 43q66 0 109 -43q44 -44 44 -106t-44 -106zM425 64q29 -29 74 -29t74 29q30 30 30 74t-30 73q-29 30 -74 30t-74 -30
q-29 -29 -29 -73q0 -43 29 -74zM785 64q29 -29 74 -29t74 29q30 30 30 74t-30 73q-29 30 -74 30t-74 -30q-29 -29 -29 -73q0 -43 29 -74z" />
    <glyph glyph-name="guilsinglleft" unicode="&#x2039;" horiz-adv-x="329" 
d="M187 482h62l-107 -173l107 -173h-62l-107 173z" />
    <glyph glyph-name="guilsinglright" unicode="&#x203a;" horiz-adv-x="329" 
d="M80 482h62l107 -173l-107 -173h-62l107 173z" />
    <glyph glyph-name="fraction" unicode="&#x2044;" horiz-adv-x="227" 
d="M340 700l-407 -700h-46l406 700h47z" />
    <glyph glyph-name="Euro" unicode="&#x20ac;" horiz-adv-x="602" 
d="M367 40q118 0 161 109l44 -25q-26 -64 -79.5 -99.5t-125.5 -35.5q-107 0 -176 74.5t-86 204.5h-82v45h78q-1 8 -1 37q0 34 1 43h-78v44h83q17 128 86 201t175 73q72 0 125.5 -35t79.5 -99l-44 -25q-21 52 -63 80t-98 28q-82 0 -137 -59t-71 -164h268v-44h-273
q-1 -9 -1 -43q0 -29 1 -37h273v-45h-269q16 -109 71 -168.5t138 -59.5z" />
    <glyph glyph-name="uni20BD" unicode="&#x20bd;" horiz-adv-x="577" 
d="M343 287h-186v-104h266v-44h-266v-139h-54v139h-90v44h90v104h-90v50h90v363h240q85 0 146 -61t61 -146t-61 -146q-61 -60 -146 -60zM343 650h-186v-313h186q64 0 109 45q45 46 45 111t-45 111t-109 46z" />
    <glyph glyph-name="uni2116" unicode="&#x2116;" horiz-adv-x="1019" 
d="M826 418q-64 0 -107 42q-43 43 -43 104t43 104t107 43t107 -43t43 -104q0 -62 -43 -104q-42 -42 -107 -42zM547 98v602h53v-700h-47l-413 602v-602h-53v700h46zM826 464q44 0 72 28t28 72q0 43 -29 72t-71 29q-43 0 -71.5 -29t-28.5 -72q0 -42 28.5 -71t71.5 -29z
M965 290h-277v49h277v-49z" />
    <glyph glyph-name="trademark" unicode="&#x2122;" horiz-adv-x="478" 
d="M50 700h151v-31h-59v-169h-33v169h-59v31zM328 593l67 107h33v-200h-33v143l-65 -104h-4l-65 104v-143h-33v200h33z" />
    <glyph glyph-name="estimated" unicode="&#x212e;" horiz-adv-x="833" 
d="M787 350q0 -15 -15 -15h-560q-15 0 -15 -15v-192q0 -12 7 -19q84 -89 233 -89q146 0 231 97q8 9 18 9h37q10 0 13 -6t-4 -13q-110 -117 -295 -117q-177 0 -283 103q-107 104 -107 257t103 256q104 104 267 104q162 0 266 -104t104 -256zM637 380v192q0 12 -7 19
q-84 89 -213 89t-213 -89q-7 -7 -7 -19v-192q0 -15 15 -15h410q15 0 15 15z" />
    <glyph glyph-name="oneeighth" unicode="&#x215b;" horiz-adv-x="815" 
d="M174 700v-400h-48v346l-100 -33l-13 42l123 45h38zM133 0l406 700h47l-407 -700h-46zM715 210q70 -31 70 -106q0 -53 -39 -84.5t-102 -31.5q-64 0 -103 31.5t-39 84.5q0 74 71 106q-58 31 -58 90q0 51 36.5 81.5t92.5 30.5q55 0 91.5 -30.5t36.5 -81.5q0 -58 -57 -90z
M644 367q-37 0 -59 -18t-22 -49t22.5 -49.5t58.5 -18.5q35 0 57.5 18.5t22.5 49.5t-22 49t-58 18zM644 186q-43 0 -68.5 -20.5t-25.5 -55.5t25.5 -55.5t68.5 -20.5t68 20.5t25 55.5t-25.5 55.5t-67.5 20.5z" />
    <glyph glyph-name="threeeighths" unicode="&#x215c;" horiz-adv-x="918" 
d="M308 415q0 -57 -38.5 -92t-103.5 -35q-100 0 -138 81l40 23q25 -58 98 -58q45 0 69.5 22t24.5 59t-25 59.5t-69 22.5h-4l-23 35l97 122h-196v46h252v-46l-96 -119q53 -7 82.5 -39t29.5 -81zM236 0l406 700h47l-407 -700h-46zM818 210q70 -31 70 -106q0 -53 -39 -84.5
t-102 -31.5q-64 0 -103 31.5t-39 84.5q0 74 71 106q-58 31 -58 90q0 51 36.5 81.5t92.5 30.5q55 0 91.5 -30.5t36.5 -81.5q0 -58 -57 -90zM747 367q-37 0 -59 -18t-22 -49t22.5 -49.5t58.5 -18.5q35 0 57.5 18.5t22.5 49.5t-22 49t-58 18zM747 186q-43 0 -68.5 -20.5
t-25.5 -55.5t25.5 -55.5t68.5 -20.5t68 20.5t25 55.5t-25.5 55.5t-67.5 20.5z" />
    <glyph glyph-name="fiveeighths" unicode="&#x215d;" horiz-adv-x="908" 
d="M301 415q0 -57 -38 -92t-102 -35q-98 0 -136 80l41 23q25 -57 95 -57q43 0 67.5 22t24.5 59q0 39 -24.5 61.5t-67.5 22.5h-118l15 201h227v-45h-186l-7 -110h70q62 0 100.5 -36t38.5 -94zM226 0l406 700h47l-407 -700h-46zM808 210q70 -31 70 -106q0 -53 -39 -84.5
t-102 -31.5q-64 0 -103 31.5t-39 84.5q0 74 71 106q-58 31 -58 90q0 51 36.5 81.5t92.5 30.5q55 0 91.5 -30.5t36.5 -81.5q0 -58 -57 -90zM737 367q-37 0 -59 -18t-22 -49t22.5 -49.5t58.5 -18.5q35 0 57.5 18.5t22.5 49.5t-22 49t-58 18zM737 186q-43 0 -68.5 -20.5
t-25.5 -55.5t25.5 -55.5t68.5 -20.5t68 20.5t25 55.5t-25.5 55.5t-67.5 20.5z" />
    <glyph glyph-name="seveneighths" unicode="&#x215e;" horiz-adv-x="878" 
d="M17 700h266v-39l-155 -361h-51l153 354h-213v46zM196 0l406 700h47l-407 -700h-46zM778 210q70 -31 70 -106q0 -53 -39 -84.5t-102 -31.5q-64 0 -103 31.5t-39 84.5q0 74 71 106q-58 31 -58 90q0 51 36.5 81.5t92.5 30.5q55 0 91.5 -30.5t36.5 -81.5q0 -58 -57 -90z
M707 367q-37 0 -59 -18t-22 -49t22.5 -49.5t58.5 -18.5q35 0 57.5 18.5t22.5 49.5t-22 49t-58 18zM707 186q-43 0 -68.5 -20.5t-25.5 -55.5t25.5 -55.5t68.5 -20.5t68 20.5t25 55.5t-25.5 55.5t-67.5 20.5z" />
    <glyph glyph-name="arrowleft" unicode="&#x2190;" horiz-adv-x="827" 
d="M156 374h607v-48h-607l276 -276h-69l-300 300l300 300h69z" />
    <glyph glyph-name="arrowup" unicode="&#x2191;" horiz-adv-x="727" 
d="M363 700l300 -300v-69l-274 274v-605h-51v606l-275 -275v69z" />
    <glyph glyph-name="arrowright" unicode="&#x2192;" horiz-adv-x="827" 
d="M394 650h69l300 -300l-300 -300h-69l276 276h-607v48h607z" />
    <glyph glyph-name="arrowdown" unicode="&#x2193;" horiz-adv-x="727" 
d="M389 700v-605l274 274v-69l-300 -300l-300 300v69l275 -275v606h51z" />
    <glyph glyph-name="arrowboth" unicode="&#x2194;" horiz-adv-x="1033" 
d="M655 597h69l246 -247l-246 -247h-69l222 223h-721l222 -223h-69l-246 247l246 247h69l-222 -223h721z" />
    <glyph glyph-name="arrowupdn" unicode="&#x2195;" horiz-adv-x="627" 
d="M560 557v-69l-221 220v-716l221 220v-69l-247 -246l-246 246v69l221 -221v718l-221 -221v69l246 246z" />
    <glyph glyph-name="uni2196" unicode="&#x2196;" horiz-adv-x="639" 
d="M147 539l429 -428l-36 -37l-428 428v-387l-49 48v424h424l49 -48h-389z" />
    <glyph glyph-name="uni2197" unicode="&#x2197;" horiz-adv-x="639" 
d="M104 539l48 48h424v-424l-48 -48v388l-428 -429l-37 37l429 428h-388z" />
    <glyph glyph-name="uni2198" unicode="&#x2198;" horiz-adv-x="639" 
d="M528 173v388l48 -48v-424h-424l-48 48h388l-429 428l37 37z" />
    <glyph glyph-name="uni2199" unicode="&#x2199;" horiz-adv-x="639" 
d="M540 602l36 -37l-429 -428h389l-49 -48h-424v424l49 48v-387z" />
    <glyph glyph-name="partialdiff" unicode="&#x2202;" horiz-adv-x="577" 
d="M233 711q121 0 200 -100q81 -99 81 -261q0 -170 -72 -266q-71 -95 -184 -95q-94 0 -150 60q-55 59 -55 151q0 103 60 166q61 64 167 64q103 0 183 -56q-4 121 -67 205q-62 83 -163 83q-71 0 -127 -34v49q53 34 127 34zM258 37q90 0 144.5 76t59.5 209q-80 59 -182 59
q-82 0 -129 -47.5t-47 -133.5q0 -73 41 -118t113 -45z" />
    <glyph glyph-name="emptyset" unicode="&#x2205;" horiz-adv-x="817" 
d="M743 720l-87 -105q115 -106 115 -265q0 -150 -106 -256q-107 -105 -256 -105q-120 0 -214 70l-66 -79h-55l88 106q-115 106 -115 264q0 150 106 255q106 106 256 106q120 0 214 -70l65 79h55zM93 350q0 -137 98 -230l403 487q-82 60 -185 60q-131 0 -224 -93
q-92 -92 -92 -224zM409 33q131 0 223 92q92 94 92 225q0 136 -97 230l-404 -487q83 -60 186 -60z" />
    <glyph glyph-name="product" unicode="&#x220f;" horiz-adv-x="640" 
d="M137 -200h-50v900h466v-900h-50v851h-366v-851z" />
    <glyph glyph-name="summation" unicode="&#x2211;" horiz-adv-x="541" 
d="M507 -200h-450v49l253 411l-239 390v50h421v-49h-364l240 -391l-253 -411h392v-49z" />
    <glyph glyph-name="minus" unicode="&#x2212;" horiz-adv-x="540" 
d="M477 326h-414v48h414v-48z" />
    <glyph glyph-name="radical" unicode="&#x221a;" horiz-adv-x="639" 
d="M349 0h-54l-148 251h-84v49h113l140 -240l246 740h54z" />
    <glyph glyph-name="infinity" unicode="&#x221e;" horiz-adv-x="806" 
d="M590 507q68 0 111 -45q45 -44 45 -112t-45 -113q-44 -44 -111 -44q-54 0 -97.5 29.5t-89.5 88.5q-46 -59 -89 -88.5t-98 -29.5q-66 0 -112 44q-44 46 -44 113q0 68 44 112q45 45 112 45q55 0 98 -29.5t89 -88.5q46 59 89.5 88.5t97.5 29.5zM217 239q43 0 80 28t77 83
q-40 55 -77 83t-80 28q-47 0 -77 -31t-30 -80t30 -80t77 -31zM590 239q47 0 77 31t30 80t-30 80t-77 31q-43 0 -79.5 -27.5t-77.5 -83.5q41 -56 77.5 -83.5t79.5 -27.5z" />
    <glyph glyph-name="integral" unicode="&#x222b;" horiz-adv-x="436" 
d="M0 -203v50q52 -21 86.5 0t44.5 77l112 653q14 83 64.5 115.5t128.5 9.5v-49q-123 40 -143 -77l-111 -653q-14 -82 -63 -115t-119 -11z" />
    <glyph glyph-name="approxequal" unicode="&#x2248;" horiz-adv-x="587" 
d="M282 409q-139 90 -173 -40l-46 22q10 34 29.5 58.5t48.5 38t71.5 5t92.5 -41.5q139 -91 172 40l46 -22q-10 -34 -28.5 -58.5t-47.5 -38t-71.5 -5t-93.5 41.5zM109 209l-46 22q10 34 29.5 58.5t48.5 38t71.5 5t92.5 -41.5q139 -91 172 40l46 -22q-10 -34 -28.5 -58.5
t-47.5 -38t-71.5 -5t-93.5 41.5q-139 90 -173 -40z" />
    <glyph glyph-name="notequal" unicode="&#x2260;" horiz-adv-x="537" 
d="M473 474v-48h-149l-68 -152h217v-48h-239l-70 -154h-40l70 154h-131v48h153l68 152h-221v48h243l70 154h40l-70 -154h127z" />
    <glyph glyph-name="lessequal" unicode="&#x2264;" horiz-adv-x="527" 
d="M64 435l400 158v-56l-338 -127l338 -127v-56l-400 158v50zM464 107h-400v48h400v-48z" />
    <glyph glyph-name="greaterequal" unicode="&#x2265;" horiz-adv-x="527" 
d="M63 537v56l400 -158v-50l-400 -158v56l338 127zM463 107h-400v48h400v-48z" />
    <glyph glyph-name="lozenge" unicode="&#x25ca;" horiz-adv-x="538" 
d="M295 0h-52l-186 350l186 350h52l186 -350zM111 350l158 -295l158 295l-158 295z" />
    <glyph glyph-name="NULL" horiz-adv-x="0" 
 />
    <glyph glyph-name="CR" horiz-adv-x="333" 
 />
    <glyph glyph-name="i.loclTRK" horiz-adv-x="204" 
d="M102 573q-20 0 -33.5 13.5t-13.5 33.5t13.5 33.5t33.5 13.5q19 0 32.5 -13.5t13.5 -33.5t-13.5 -33.5t-32.5 -13.5zM127 0h-50v500h50v-500z" />
    <glyph glyph-name="f_f_j" horiz-adv-x="780" 
d="M434 500h269v-557q0 -80 -43 -120.5t-123 -33.5v48q116 -12 116 106v508h-219v-451h-51v451h-219v-451h-51v451h-86v49h86v27q0 94 52 142.5t148 41.5v-48q-149 12 -149 -136v-27h219v37q0 184 200 184q42 0 97 -11v-46q-50 9 -97 9q-78 0 -113.5 -32t-35.5 -104v-37z
" />
    <glyph glyph-name="f_j" horiz-adv-x="510" 
d="M164 500h270v-557q0 -80 -43.5 -120.5t-123.5 -33.5v48q116 -12 116 106v508h-219v-451h-51v451h-86v49h86v27q0 184 200 184q42 0 97 -11v-46q-50 9 -97 9q-78 0 -113.5 -32t-35.5 -104v-27z" />
    <glyph glyph-name="uni0414.loclBGR" horiz-adv-x="703" 
d="M380 700l233 -650h64v-184h-54v134h-543v-134h-53v184h64l233 650h56zM352 635l-205 -585h410z" />
    <glyph glyph-name="uni041B.loclBGR" horiz-adv-x="605" 
d="M13 0l261 700h56l261 -700h-57l-232 631l-231 -631h-58z" />
    <glyph glyph-name="uni0424.loclBGR" horiz-adv-x="851" 
d="M452 -10v-90h-53v90q-155 7 -254 106q-98 98 -98 254t98 254q99 99 254 106v90h53v-90q155 -7 254 -106q98 -98 98 -254t-98 -254q-99 -99 -254 -106zM399 38v624q-137 -8 -218 -93q-81 -84 -81 -219q0 -134 81 -220q81 -84 218 -92zM452 662v-624q137 8 218 93t81 219
t-81 219t-218 93z" />
    <glyph glyph-name="uni0414.ss01" horiz-adv-x="690" 
d="M578 700v-650h74v-50h-634v50h56q72 81 72 251v399h432zM199 650v-350q0 -161 -62 -250h388v600h-326z" />
    <glyph glyph-name="uni0426.ss01" horiz-adv-x="690" 
d="M580 700v-650h73v-50h-566v700h53v-650h387v650h53z" />
    <glyph glyph-name="uni0429.ss01" horiz-adv-x="980" 
d="M870 700v-650h73v-50h-856v700h53v-650h312v650h53v-650h312v650h53z" />
    <glyph glyph-name="uni0414.loclBGR.ss01" horiz-adv-x="703" 
d="M380 700l233 -650h64v-50h-650v50h64l233 650h56zM352 635l-205 -585h410z" />
    <glyph glyph-name="uni0432.loclBGR" horiz-adv-x="573" 
d="M389 402q68 -18 104.5 -70.5t36.5 -131.5q0 -100 -60 -155.5t-167 -55.5t-166.5 63.5t-59.5 177.5v238q0 114 56.5 178.5t156.5 64.5q82 0 129 -46q48 -46 48 -116q0 -84 -78 -147zM290 663q-76 0 -119.5 -52.5t-43.5 -142.5v-88l115 23q43 8 84 8q90 59 90 138
q0 49 -34.5 81.5t-91.5 32.5zM479 200q0 92 -63.5 134t-173.5 20l-115 -23v-101q0 -91 46.5 -142t129.5 -51t129.5 43t46.5 120z" />
    <glyph glyph-name="uni0433.loclBGR" horiz-adv-x="458" 
d="M375 130l43 -25q-21 -53 -71 -84.5t-120 -31.5q-79 0 -129 39q-50 41 -50 102q0 49 29 80.5t76 45.5q15 4 43.5 11.5t45.5 12t39.5 13.5t34.5 18.5t21 25t9 34.5q0 42 -32.5 67t-79.5 25t-83 -21.5t-52 -59.5l-42 24q21 49 67.5 77t109.5 28q71 0 117 -40t46 -100
q0 -43 -22 -71.5t-55 -41.5t-72 -24.5t-72 -20.5t-55 -30t-22 -53q0 -44 35.5 -68.5t92.5 -24.5q54 0 93.5 25t54.5 68z" />
    <glyph glyph-name="uni0434.loclBGR" horiz-adv-x="648" 
d="M521 384v116h50v-476q0 -109 -71 -172t-178 -63q-85 0 -146.5 31.5t-89.5 88.5l44 25q48 -97 192 -97q93 0 146 50t53 137v92q-31 -60 -87.5 -93.5t-127.5 -33.5q-107 0 -184 75q-75 76 -75 186t75 185q76 76 184 76q71 0 127.5 -33.5t87.5 -93.5zM158 99q62 -62 151 -62
q88 0 150 62t62 151t-62 151t-150 62q-89 0 -151 -62q-61 -61 -61 -151t61 -151z" />
    <glyph glyph-name="uni0436.loclBGR" horiz-adv-x="663" 
d="M404 260l236 -260h-62l-221 245v-245h-51v245l-221 -245h-62l237 260l-227 240h62l211 -226v426h51v-426l211 226h62z" />
    <glyph glyph-name="uni0438.loclBGR" 
d="M437 236v264h50v-500h-50v95q-54 -106 -179 -106q-89 0 -141.5 54.5t-52.5 145.5v311h51v-311q0 -70 39 -111t108 -41q79 0 127 52t48 147z" />
    <glyph glyph-name="uni0439.loclBGR" 
d="M147 631h253v-44h-253v44zM437 236v264h50v-500h-50v95q-54 -106 -179 -106q-89 0 -141.5 54.5t-52.5 145.5v311h51v-311q0 -70 39 -111t108 -41q79 0 127 52t48 147z" />
    <glyph glyph-name="uni043A.loclBGR" horiz-adv-x="483" 
d="M181 260l279 -260h-68l-265 246v-246h-50v700h50v-427l253 227h70z" />
    <glyph glyph-name="uni043B.loclBGR" horiz-adv-x="511" 
d="M286 500l211 -500h-53l-189 448l-188 -448h-54l212 500h61z" />
    <glyph glyph-name="uni043F.loclBGR" 
d="M306 511q89 0 141.5 -54.5t52.5 -145.5v-311h-51v311q0 70 -39 111t-108 41q-79 0 -127 -52t-48 -147v-264h-50v500h50v-95q54 106 179 106z" />
    <glyph glyph-name="uni0442.loclBGR" horiz-adv-x="857" 
d="M611 511q83 0 132.5 -51.5t49.5 -142.5v-317h-50v317q0 69 -36 107.5t-97 38.5q-69 0 -109.5 -47t-40.5 -137v-279h-50v317q0 69 -34 107.5t-94 38.5q-69 0 -112 -48t-43 -136v-279h-50v500h50v-86q52 97 161 97q55 0 96 -26.5t60 -75.5q26 50 70 76t97 26z" />
    <glyph glyph-name="uni0446.loclBGR" horiz-adv-x="594" 
d="M528 49h33v-183h-51v135q-34 4 -54 28t-20 61v3q-56 -104 -178 -104q-89 0 -141.5 54.5t-52.5 145.5v311h50v-311q0 -70 39.5 -111t108.5 -41q79 0 126.5 52t47.5 147v264h51v-410q0 -19 11 -30t30 -11z" />
    <glyph glyph-name="uni0448.loclBGR" horiz-adv-x="857" 
d="M730 221v279h50v-500h-50v86q-52 -97 -161 -97q-55 0 -96 26.5t-60 75.5q-26 -50 -70 -76t-97 -26q-83 0 -132.5 51.5t-49.5 142.5v317h50v-317q0 -69 36 -107.5t97 -38.5q69 0 109.5 47t40.5 137v279h50v-317q0 -69 34 -107.5t94 -38.5q69 0 112 48t43 136z" />
    <glyph glyph-name="uni0449.loclBGR" horiz-adv-x="888" 
d="M822 49h32v-183h-50v135q-33 4 -53 26.5t-21 58.5q-52 -97 -161 -97q-55 0 -96 26.5t-60 75.5q-26 -50 -70 -76t-97 -26q-83 0 -132.5 51.5t-49.5 142.5v317h50v-317q0 -69 36 -107.5t97 -38.5q69 0 109.5 47t40.5 137v279h50v-317q0 -69 34 -107.5t94 -38.5q69 0 112 48
t43 136v279h50v-410q0 -19 11.5 -30t30.5 -11z" />
    <glyph glyph-name="uni044C.loclBGR" horiz-adv-x="480" 
d="M114 332h141q89 0 140.5 -44.5t51.5 -122.5q0 -74 -54 -125t-138 -51q-89 0 -140 48.5t-51 127.5v335h50v-168zM255 37q61 0 101 38q40 37 40 90q0 55 -38 86.5t-103 31.5h-141v-118q0 -55 38.5 -91.5t102.5 -36.5z" />
    <glyph glyph-name="uni044A.loclBGR" horiz-adv-x="565" 
d="M197 332h141q89 0 140.5 -44.5t51.5 -122.5q0 -74 -54 -125t-138 -51q-89 0 -140 48.5t-51 127.5v286h-147v49h197v-168zM338 37q61 0 101 38q40 37 40 90q0 55 -38 86.5t-103 31.5h-141v-118q0 -55 38.5 -91.5t102.5 -36.5z" />
    <glyph glyph-name="uni044E.loclBGR" horiz-adv-x="803" 
d="M498 511q109 0 185 -76q77 -75 77 -185q0 -109 -77 -186q-77 -75 -185 -75q-104 0 -177 67t-82 170h-112v-226h-50v700h50v-426h112q9 102 82 169q74 68 177 68zM347 99q62 -62 151 -62q88 0 150 62q61 61 61 151t-61 151q-62 62 -150 62q-89 0 -151 -62
q-61 -61 -61 -151t61 -151z" />
    <glyph glyph-name="zero.sinf" horiz-adv-x="410" 
d="M331 -114q-46 -58 -126 -58t-126 58t-46 154t46 154t126 58t126 -58t46 -154t-46 -154zM114 -82q33 -44 91 -44t91 44t33 122t-33 122t-91 44t-91 -44t-33 -122t33 -122z" />
    <glyph glyph-name="one.sinf" horiz-adv-x="238" 
d="M13 195l123 45h38v-400h-48v346l-100 -33z" />
    <glyph glyph-name="two.sinf" horiz-adv-x="343" 
d="M309 -160h-275v39l175 163q44 39 44 90q0 33 -22.5 53.5t-60.5 20.5q-70 0 -95 -66l-40 22q16 42 51.5 66t83.5 24q58 0 94.5 -34t36.5 -86q0 -65 -59 -121l-137 -125h204v-46z" />
    <glyph glyph-name="three.sinf" horiz-adv-x="345" 
d="M292 194l-96 -119q53 -7 82.5 -39t29.5 -81q0 -57 -38.5 -92t-103.5 -35q-100 0 -138 81l40 23q25 -58 98 -58q45 0 69.5 22t24.5 59t-25 59.5t-69 22.5h-4l-23 35l97 122h-196v46h252v-46z" />
    <glyph glyph-name="four.sinf" horiz-adv-x="356" 
d="M278 -35h54v-45h-54v-80h-48v80h-213v45l150 275h52l-150 -275h161v104h48v-104z" />
    <glyph glyph-name="five.sinf" horiz-adv-x="325" 
d="M95 85h70q62 0 100.5 -36t38.5 -94q0 -57 -38 -92t-102 -35q-98 0 -136 80l41 23q25 -57 95 -57q43 0 67.5 22t24.5 59q0 39 -24.5 61.5t-67.5 22.5h-118l15 201h227v-45h-186z" />
    <glyph glyph-name="six.sinf" horiz-adv-x="335" 
d="M167 100q63 0 103 -39q42 -37 42 -96t-42 -98q-40 -39 -103 -39q-61 0 -103 39q-41 39 -41 98q0 38 19 69l133 206h57l-96 -143q15 3 31 3zM167 -126q43 0 70 25.5t27 65.5t-27 64.5t-70 24.5q-42 0 -69 -24.5t-27 -64.5t27 -65.5t69 -25.5z" />
    <glyph glyph-name="seven.sinf" horiz-adv-x="309" 
d="M17 194v46h266v-39l-155 -361h-51l153 354h-213z" />
    <glyph glyph-name="eight.sinf" horiz-adv-x="342" 
d="M242 50q70 -31 70 -106q0 -53 -39 -84.5t-102 -31.5q-64 0 -103 31.5t-39 84.5q0 74 71 106q-58 31 -58 90q0 51 36.5 81.5t92.5 30.5q55 0 91.5 -30.5t36.5 -81.5q0 -58 -57 -90zM171 207q-37 0 -59 -18t-22 -49t22.5 -49.5t58.5 -18.5q35 0 57.5 18.5t22.5 49.5t-22 49
t-58 18zM171 26q-43 0 -68.5 -20.5t-25.5 -55.5t25.5 -55.5t68.5 -20.5t68 20.5t25 55.5t-25.5 55.5t-67.5 20.5z" />
    <glyph glyph-name="nine.sinf" horiz-adv-x="335" 
d="M312 115q0 -38 -19 -69l-133 -206h-57l96 143q-15 -3 -31 -3q-61 0 -104 38q-41 39 -41 97q0 59 41 98q42 39 104 39t102 -39q42 -39 42 -98zM168 26q42 0 69 24.5t27 64.5t-27 65.5t-69 25.5q-43 0 -70 -25.5t-27 -65.5t27 -64.5t70 -24.5z" />
    <glyph glyph-name="zero.tf" horiz-adv-x="570" 
d="M478 87q-69 -98 -193 -98t-193 98q-69 97 -69 263t69 263q69 98 193 98t193 -98t69 -263q0 -166 -69 -263zM132 121q56 -81 153 -81t153 81q55 82 55 229q0 148 -55 228q-55 82 -153 82t-153 -82q-55 -80 -55 -228q0 -147 55 -229z" />
    <glyph glyph-name="one.tf" horiz-adv-x="570" 
d="M330 700v-649h212v-51h-500v51h235v591l-162 -51l-14 46l184 63h45z" />
    <glyph glyph-name="two.tf" horiz-adv-x="570" 
d="M530 0h-480v48l267 233q73 64 108 113.5t35 100.5q0 76 -47.5 120.5t-128.5 44.5q-62 0 -109.5 -31.5t-70.5 -88.5l-44 26q29 68 89 106.5t135 38.5q99 0 164 -59t65 -157q0 -64 -40 -124t-119 -127l-229 -193h405v-51z" />
    <glyph glyph-name="three.tf" horiz-adv-x="570" 
d="M494 650l-184 -240q100 -9 158.5 -64t58.5 -144q0 -99 -70 -156q-71 -57 -181 -57q-87 0 -152 39t-90 107l45 26q17 -55 70 -88t127 -33q92 0 145 43t53 119t-53 119t-145 43v1l-1 -1h-14l-23 35l193 251h-377v50h440v-50z" />
    <glyph glyph-name="four.tf" horiz-adv-x="570" 
d="M453 197h90v-50h-90v-147h-53v147h-377v50l266 503h58l-266 -503h319v206h53v-206z" />
    <glyph glyph-name="five.tf" horiz-adv-x="570" 
d="M136 415h149q105 0 174 -57t69 -156t-69 -156t-174 -57q-85 0 -150.5 39.5t-89.5 107.5l44 26q18 -57 70 -89.5t126 -32.5q87 0 138.5 43.5t51.5 118.5t-51.5 118.5t-138.5 43.5h-205l23 336h399v-50h-350z" />
    <glyph glyph-name="six.tf" horiz-adv-x="570" 
d="M278 450q115 0 183 -64q69 -64 69 -167q0 -102 -69 -167q-69 -63 -183 -63q-113 0 -182 63q-69 65 -69 167q0 85 48 144l243 337h63l-188 -261q42 11 85 11zM278 40q93 0 146 49t53 130q0 82 -53 131t-146 49q-92 0 -145 -49t-53 -131q0 -81 53 -130t145 -49z" />
    <glyph glyph-name="seven.tf" horiz-adv-x="570" 
d="M40 650v50h483v-50l-295 -650h-55l295 650h-428z" />
    <glyph glyph-name="eight.tf" horiz-adv-x="570" 
d="M404 362q60 -23 94 -69t34 -106q0 -92 -66.5 -145t-180.5 -53t-180.5 53t-66.5 145q0 60 34 106t94 69q-49 24 -76.5 65.5t-27.5 94.5q0 89 62 139q64 50 161 50q98 0 160 -50q63 -49 63 -139q0 -53 -27.5 -94.5t-76.5 -65.5zM115 522q0 -63 46 -100t124 -37t124 37
t46 100q0 66 -45.5 102t-124.5 36t-124.5 -36t-45.5 -102zM478 187q0 69 -50.5 107.5t-142.5 38.5t-142.5 -38.5t-50.5 -107.5t50.5 -108t142.5 -39t142.5 39t50.5 108z" />
    <glyph glyph-name="nine.tf" horiz-adv-x="570" 
d="M543 481q0 -85 -48 -144l-243 -337h-63l188 261q-42 -11 -85 -11q-115 0 -183 64q-69 64 -69 167t69 166q68 64 183 64q114 0 182 -64q69 -63 69 -166zM93 481q0 -82 53 -131t146 -49q92 0 145 49t53 131q0 81 -53 130t-145 49q-93 0 -146 -49t-53 -130z" />
    <glyph glyph-name="zero.dnom" horiz-adv-x="410" 
d="M331 46q-46 -58 -126 -58t-126 58t-46 154t46 154t126 58t126 -58t46 -154t-46 -154zM114 77q33 -43 91 -43t91 43t33 123q0 78 -33 122t-91 44t-91 -44t-33 -122q0 -80 33 -123z" />
    <glyph glyph-name="one.dnom" horiz-adv-x="246" 
d="M13 355l123 45h38v-400h-48v346l-100 -33z" />
    <glyph glyph-name="two.dnom" horiz-adv-x="342" 
d="M309 0h-275v39l175 163q44 39 44 90q0 33 -22.5 53.5t-60.5 20.5q-70 0 -95 -66l-40 22q16 42 51.5 66t83.5 24q58 0 94.5 -34t36.5 -86q0 -65 -59 -121l-137 -125h204v-46z" />
    <glyph glyph-name="three.dnom" horiz-adv-x="349" 
d="M292 354l-96 -119q53 -7 82.5 -39t29.5 -81q0 -57 -38.5 -92t-103.5 -35q-100 0 -138 81l40 23q25 -58 98 -58q45 0 69.5 22t24.5 59t-25 59.5t-69 22.5h-4l-23 35l97 122h-196v46h252v-46z" />
    <glyph glyph-name="four.dnom" horiz-adv-x="356" 
d="M278 125h54v-45h-54v-80h-48v80h-213v45l150 275h52l-150 -275h161v104h48v-104z" />
    <glyph glyph-name="five.dnom" horiz-adv-x="339" 
d="M92 245h70q62 0 100.5 -36t38.5 -94q0 -57 -38 -92t-102 -35q-98 0 -136 80l41 23q26 -57 95 -57q43 0 67.5 22t24.5 59q0 39 -24.5 61.5t-67.5 22.5h-118l15 201h227v-45h-186z" />
    <glyph glyph-name="six.dnom" horiz-adv-x="335" 
d="M167 260q63 0 103 -39q42 -37 42 -96t-42 -98q-40 -39 -103 -39q-61 0 -103 39q-41 39 -41 98q0 38 19 69l133 206h57l-96 -143q15 3 31 3zM167 34q43 0 70 25.5t27 65.5t-27 64.5t-70 24.5q-42 0 -69 -24.5t-27 -64.5t27 -65.5t69 -25.5z" />
    <glyph glyph-name="seven.dnom" horiz-adv-x="309" 
d="M17 354v46h266v-39l-155 -361h-51l153 354h-213z" />
    <glyph glyph-name="eight.dnom" horiz-adv-x="342" 
d="M242 210q70 -31 70 -106q0 -53 -39 -84.5t-102 -31.5q-64 0 -103 31.5t-39 84.5q0 74 71 106q-58 31 -58 90q0 51 36.5 81.5t92.5 30.5q55 0 91.5 -30.5t36.5 -81.5q0 -58 -57 -90zM171 367q-37 0 -59 -18t-22 -49t22.5 -49.5t58.5 -18.5q35 0 57.5 18.5t22.5 49.5
t-22 49t-58 18zM171 186q-43 0 -68.5 -20.5t-25.5 -55.5t25.5 -55.5t68.5 -20.5t68 20.5t25 55.5t-25.5 55.5t-67.5 20.5z" />
    <glyph glyph-name="nine.dnom" horiz-adv-x="335" 
d="M312 275q0 -38 -19 -69l-133 -206h-57l96 143q-15 -3 -31 -3q-61 0 -104 38q-41 39 -41 97q0 59 41 98q42 39 104 39t102 -39q42 -39 42 -98zM168 186q42 0 69 24.5t27 64.5t-27 65.5t-69 25.5q-43 0 -70 -25.5t-27 -65.5t27 -64.5t70 -24.5z" />
    <glyph glyph-name="zero.numr" horiz-adv-x="410" 
d="M331 346q-46 -58 -126 -58t-126 58t-46 154t46 154t126 58t126 -58t46 -154t-46 -154zM114 377q33 -43 91 -43t91 43t33 123q0 78 -33 122t-91 44t-91 -44t-33 -122q0 -80 33 -123z" />
    <glyph glyph-name="one.numr" horiz-adv-x="246" 
d="M13 655l123 45h38v-400h-48v346l-100 -33z" />
    <glyph glyph-name="two.numr" horiz-adv-x="342" 
d="M309 300h-275v39l175 163q44 39 44 90q0 33 -22.5 53.5t-60.5 20.5q-70 0 -95 -66l-40 22q16 42 51.5 66t83.5 24q58 0 94.5 -34t36.5 -86q0 -65 -59 -121l-137 -125h204v-46z" />
    <glyph glyph-name="three.numr" horiz-adv-x="349" 
d="M292 654l-96 -119q53 -7 82.5 -39t29.5 -81q0 -57 -38.5 -92t-103.5 -35q-100 0 -138 81l40 23q25 -58 98 -58q45 0 69.5 22t24.5 59t-25 59.5t-69 22.5h-4l-23 35l97 122h-196v46h252v-46z" />
    <glyph glyph-name="four.numr" horiz-adv-x="356" 
d="M278 425h54v-45h-54v-80h-48v80h-213v45l150 275h52l-150 -275h161v104h48v-104z" />
    <glyph glyph-name="five.numr" horiz-adv-x="339" 
d="M92 545h70q62 0 100.5 -36t38.5 -94q0 -57 -38 -92t-102 -35q-98 0 -136 80l41 23q25 -57 95 -57q43 0 67.5 22t24.5 59q0 39 -24.5 61.5t-67.5 22.5h-118l15 201h227v-45h-186z" />
    <glyph glyph-name="six.numr" horiz-adv-x="335" 
d="M167 560q63 0 103 -39q42 -37 42 -96t-42 -98q-40 -39 -103 -39q-61 0 -103 39q-41 39 -41 98q0 38 19 69l133 206h57l-96 -143q15 3 31 3zM167 334q43 0 70 25.5t27 65.5t-27 64.5t-70 24.5q-42 0 -69 -24.5t-27 -64.5t27 -65.5t69 -25.5z" />
    <glyph glyph-name="seven.numr" horiz-adv-x="309" 
d="M17 654v46h266v-39l-155 -361h-51l153 354h-213z" />
    <glyph glyph-name="eight.numr" horiz-adv-x="342" 
d="M242 510q70 -31 70 -106q0 -53 -39 -84.5t-102 -31.5q-64 0 -103 31.5t-39 84.5q0 74 71 106q-58 31 -58 90q0 51 36.5 81.5t92.5 30.5q55 0 91.5 -30.5t36.5 -81.5q0 -58 -57 -90zM171 667q-37 0 -59 -18t-22 -49t22.5 -49.5t58.5 -18.5q35 0 57.5 18.5t22.5 49.5
t-22 49t-58 18zM171 486q-43 0 -68.5 -20.5t-25.5 -55.5t25.5 -55.5t68.5 -20.5t68 20.5t25 55.5t-25.5 55.5t-67.5 20.5z" />
    <glyph glyph-name="nine.numr" horiz-adv-x="335" 
d="M312 575q0 -38 -19 -69l-133 -206h-57l96 143q-15 -3 -31 -3q-61 0 -104 38q-41 39 -41 97q0 59 41 98q42 39 104 39t102 -39q42 -39 42 -98zM168 486q42 0 69 24.5t27 64.5t-27 65.5t-69 25.5q-43 0 -70 -25.5t-27 -65.5t27 -64.5t70 -24.5z" />
    <glyph glyph-name="zero.sups" horiz-adv-x="410" 
d="M331 506q-46 -58 -126 -58t-126 58t-46 154t46 154t126 58t126 -58t46 -154t-46 -154zM114 537q33 -43 91 -43t91 43t33 123q0 78 -33 122t-91 44t-91 -44t-33 -122q0 -80 33 -123z" />
    <glyph glyph-name="one.sups" horiz-adv-x="246" 
d="M13 815l123 45h38v-400h-48v346l-100 -33z" />
    <glyph glyph-name="two.sups" horiz-adv-x="342" 
d="M309 460h-275v39l175 163q44 39 44 90q0 33 -22.5 53.5t-60.5 20.5q-70 0 -95 -66l-40 22q16 42 51.5 66t83.5 24q58 0 94.5 -34t36.5 -86q0 -65 -59 -121l-137 -125h204v-46z" />
    <glyph glyph-name="three.sups" horiz-adv-x="349" 
d="M292 814l-96 -119q53 -7 82.5 -39t29.5 -81q0 -57 -38.5 -92t-103.5 -35q-100 0 -138 81l40 23q25 -58 98 -58q45 0 69.5 22t24.5 59t-25 59.5t-69 22.5h-4l-23 35l97 122h-196v46h252v-46z" />
    <glyph glyph-name="four.sups" horiz-adv-x="356" 
d="M278 585h54v-45h-54v-80h-48v80h-213v45l150 275h52l-150 -275h161v104h48v-104z" />
    <glyph glyph-name="five.sups" horiz-adv-x="339" 
d="M92 705h70q62 0 100.5 -36t38.5 -94q0 -57 -38 -92t-102 -35q-98 0 -136 80l41 23q25 -57 95 -57q43 0 67.5 22t24.5 59q0 39 -24.5 61.5t-67.5 22.5h-118l15 201h227v-45h-186z" />
    <glyph glyph-name="six.sups" horiz-adv-x="335" 
d="M167 720q63 0 103 -39q42 -37 42 -96t-42 -98q-40 -39 -103 -39q-61 0 -103 39q-41 39 -41 98q0 38 19 69l133 206h57l-96 -143q15 3 31 3zM167 494q43 0 70 25.5t27 65.5t-27 64.5t-70 24.5q-42 0 -69 -24.5t-27 -64.5t27 -65.5t69 -25.5z" />
    <glyph glyph-name="seven.sups" horiz-adv-x="309" 
d="M17 814v46h266v-39l-155 -361h-51l153 354h-213z" />
    <glyph glyph-name="eight.sups" horiz-adv-x="342" 
d="M242 670q70 -31 70 -106q0 -53 -39 -84.5t-102 -31.5q-64 0 -103 31.5t-39 84.5q0 74 71 106q-58 31 -58 90q0 51 36.5 81.5t92.5 30.5q55 0 91.5 -30.5t36.5 -81.5q0 -58 -57 -90zM171 827q-37 0 -59 -18t-22 -49t22.5 -49.5t58.5 -18.5q35 0 57.5 18.5t22.5 49.5
t-22 49t-58 18zM171 646q-43 0 -68.5 -20.5t-25.5 -55.5t25.5 -55.5t68.5 -20.5t68 20.5t25 55.5t-25.5 55.5t-67.5 20.5z" />
    <glyph glyph-name="nine.sups" horiz-adv-x="335" 
d="M312 735q0 -38 -19 -69l-133 -206h-57l96 143q-15 -3 -31 -3q-61 0 -104 38q-41 39 -41 97q0 59 41 98q42 39 104 39t102 -39q42 -39 42 -98zM168 646q42 0 69 24.5t27 64.5t-27 65.5t-69 25.5q-43 0 -70 -25.5t-27 -65.5t27 -64.5t70 -24.5z" />
    <glyph glyph-name="cent.tf" horiz-adv-x="570" 
d="M492 241l42 -25q-30 -58 -90 -92.5t-132 -34.5q-41 0 -74 10l-32 -99h-40l36 111q-70 30 -111.5 94t-41.5 145q0 111 75 186t188 75q21 0 53 -5l31 94h40l-34 -104q90 -31 128 -113l-41 -24q-28 64 -102 91l-133 -405q30 -8 58 -8q60 0 107.5 28t72.5 76zM100 350
q0 -63 32 -114.5t86 -77.5l132 402q-18 3 -38 3q-89 0 -151 -62q-61 -61 -61 -151z" />
    <glyph glyph-name="dollar.tf" horiz-adv-x="570" 
d="M526 177q0 -80 -56 -130.5t-149 -56.5v-90h-47v90q-175 8 -230 152l46 26q33 -118 184 -127v297q-87 28 -136 63q-59 43 -59 128q0 77 54 126q57 51 141 55v90h47v-90q143 -14 189 -142l-45 -25q-35 104 -144 116v-283q95 -30 143 -66q62 -44 62 -133zM132 529
q0 -53 33 -83t109 -55v268q-65 -4 -103.5 -40t-38.5 -90zM321 323v-282q71 5 111.5 41.5t40.5 94.5q0 57 -35 88.5t-117 57.5z" />
    <glyph glyph-name="Euro.tf" horiz-adv-x="570" 
d="M495 163l43 -24q-23 -72 -75.5 -111t-123.5 -39q-102 0 -166.5 74t-79.5 205h-71v45h67q-1 8 -1 37q0 34 1 43h-67v44h71q17 130 81 202t165 72q70 0 121.5 -37t74.5 -106l-44 -25q-18 56 -58 86.5t-94 30.5q-77 0 -127.5 -58.5t-64.5 -164.5h254v-44h-259q-1 -9 -1 -43
q0 -29 1 -37h259v-45h-255q14 -109 64 -168.5t129 -59.5q55 0 96.5 32t59.5 91z" />
    <glyph glyph-name="florin.tf" horiz-adv-x="570" 
d="M537 703v-50q-118 42 -148 -77l-49 -201h154v-49h-165l-98 -403q-20 -83 -71 -115.5t-127 -10.5v50q59 -20 96.5 0t50.5 77l98 402h-152v49h164l49 202q20 83 71 115.5t127 10.5z" />
    <glyph glyph-name="uni20BD.tf" horiz-adv-x="570" 
d="M333 287h-180v-104h260v-44h-260v-139h-53v139h-90v44h90v104h-90v50h90v363h233q85 0 146 -61t61 -146t-61 -146q-61 -60 -146 -60zM333 650h-180v-313h180q64 0 109 45q45 46 45 111t-45 111t-109 46z" />
    <glyph glyph-name="sterling.tf" horiz-adv-x="570" 
d="M186 293v-242h377v-51h-530v51h100v242h-80v47h80v170q0 96 58 148q59 53 142 53q68 0 117 -35t73 -99l-44 -25q-35 108 -146 108q-65 0 -106 -40t-41 -110v-170h241v-47h-241z" />
    <glyph glyph-name="yen.tf" horiz-adv-x="570" 
d="M498 700h59l-234 -356h175v-45h-186v-77h186v-44h-186v-178h-54v178h-184v44h184v77h-184v45h174l-234 356h58l213 -324z" />
    <glyph glyph-name="brevecy" horiz-adv-x="293" 
d="M273 587h-253v44h253v-44z" />
    </font>
</defs>
</svg>
